This file was generated by Ched 2.7.0.0.
#TITLE ""
#ARTIST ""
#DESIGNER ""
#DIFFICULTY 0
#PLAYLEVEL
#SONGID ""
#WAVE ""
#WAVEOFFSET 0
#JACKET ""
#REQUEST "ticks_per_beat 480"
#00002: 4
#BPM01: 150
#00008: 01
#TIL00: ""
#VOLUME: ""
#HISPEED 00
#MEASUREHS 00
#00914:14
#0101a:14
#01114:14
#01218:14
#01312:14
#01418:14
#01512:14
#0161a:14
#0171a:14
#01812:14
#01912:14
#02018:14
#02010:41
#02118:14
#02214:14
#02314:14
#0241a:14
#02514:14
#0261a:14
#02714:14
#02818:14
#02912:14
#03018:14
#03112:14
#0761a:14
#07610:41
#0771a:14
#07812:14
#07912:14
#08018:14
#08118:14
#08214:14
#08314:14
#00018:14
#00118:14
#00218:14
#00318:14
#00414:14
#00514:14
#00614:14
#00714:14
#04018:2616
#0401f:21
#04112:1616
#04110:41
#04412:1616
#04518:1616
#04912:0016
#04918:16
#04812:0016
#04818:26
#05318:0016
#05312:16
#05218:0016
#05212:16
#05210:41
#05912:1616
#05818:2616
#06712:0016
#06718:16
#06612:0016
#06618:26
#0321f:11
#0081a:24
#00810:41
#03814:24
#07012:26
#07018:0026
#07112:26
#07118:0026
#06212:2626
#06318:2626
#05118:36360000
#05018:00363636
#05512:36360000
#05412:00363636
#06018:00363636
#06118:00360000
#06412:00363636
#06410:41
#06512:00360000
#06818:00363636
#06918:00360000
#07212:00363636
#07312:00360000
#0323a0:14
#0333a0:24
#034320:14
#035320:24
#036380:14
#037380:24
#038340:14
#039340:0024
#042380:16363636
#043380:36362600
#046320:16363636
#047320:36362600
#050380:16363636
#051380:36360000
#051360:0026
#054320:16363636
#055320:36360000
#055340:0026
#0563a0:1424
#057320:1424
#060380:16363636
#061370:36
#061380:00362600
#064320:16363636
#065330:36
#065320:00362600
#068380:16363636
#069370:36
#069380:00362600
#072320:16363636
#073330:36
#073320:00362600
#074380:1424
#075340:1424
#084380:14
#087380:0024
