This file was generated by Ched 2.7.0.0.
#TITLE ""
#ARTIST ""
#DESIGNER ""
#DIFFICULTY 0
#PLAYLEVEL
#SONGID ""
#WAVE ""
#WAVEOFFSET 0
#JACKET ""
#REQUEST "ticks_per_beat 480"
#00002: 4
#BPM01: 150
#00008: 01
#TIL00: ""
#VOLUME: ""
#HISPEED 00
#MEASUREHS 00
#0001b:23130000
#00015:0013000000001300
#00018:0013
#00115:0013
#00112:13130000
#00118:0013000000001300
#0021b:23130000
#00218:0013
#00215:0013000000001300
#00312:13130013
#00318:0013000000001300
#00315:0013
#0031b:0013
#0041a:24140000
#00416:0014
#00412:00000014
#00414:0014000000000000
#01618:0013001300000013
#01612:23131300
#01715:00131300
#01718:0000001300000000
#01818:13131300
#01812:0013001300000000
#01815:0000000000000013
#0201b:13131300
#02015:0013001300000013
#02010:41
#0241b:1313
#02415:0013000000000000
#02418:00130000
#02412:0000001300000013
#0251b:00131300
#02512:0000001300000000
#02712:00131300
#0271b:0000001300000000
#0281b:13130000
#02815:0013000000000000
#02812:00001313
#02818:0000000000130000
#02817:0000005300000000
#02819:00000000005300000000000000000000
#02814:00000000000000000000000000530000
#02816:0000000000000053
#0291b:13
#02918:0000000000000013
#02916:0013000000000000
#02915:00000053000000000000000000000000
#02914:00530000
#02913:00000000005300000000000000000000
#02912:00000000000000530053005300000000
#0331b:0000000000130000
#03315:0000000000000013
#03318:00000013
#03312:23232300
#03718:0000000013000013
#03715:0000001300001300
#03712:0000000000130000
#0371b:23230000
#0381b:13
#03818:0013000000130000
#03815:00130000
#03812:0000001300000000
#06416:00140014
#06412:0014
#0641a:24
#06410:41
#00512:24140000
#00516:0014
#0051a:00000014
#00518:0014000000000000
#00618:0014001400000000
#00614:24140000
#00612:00001414
#0061a:0000000000140014
#01418:14140000
#01414:0014001400000000
#0141a:00001414
#01412:0000000000140014
#01915:00131300
#01918:0013001300000000
#02118:00131300
#02115:0000001300000000
#02215:13130000
#0221b:0013001300000000
#02218:0000000000130013
#02212:0000000013000013
#02318:00131300
#02315:0013001300000000
#02612:1313
#02618:0013000000000000
#02615:00130000
#0261b:0000001300000013
#03018:0000001313001300
#03015:00000000000000130000000000001300
#03012:1300000000130000
#03118:00000000000000000000001300000000
#03112:0000001300000000
#0311b:1313
#03115:0000000000130000
#03518:0000001300000000
#03515:00000000000000130000000000000000
#03412:1300000000000013
#03415:0013000000001300
#03418:00130000
#0341b:0000001300000000
#0151a:14
#01516:00000024
#01518:00343434343434343434343400000000
#00712:14
#00716:00000024
#00714:00343434343434343434343400000000
#03915:13
#03918:13
#0391b:00333333333333331300000000000000
#03912:00333333333333331300000000000000
#05915:13000013
#05918:0000000000000013
#0591b:0013000000000000
#05917:0000001300000000
#05812:2313
#0581b:2300000000000013
#05815:0000000000130000
#05818:00000013
#06012:2313000000000000
#06015:0000000023130000
#06018:0000231300000000
#0601b:0000000000002313
#06112:1313
#06115:0013000000000000
#06118:00130000
#0611b:0000001300000000
#06218:00130013
#06215:0013001300000000
#06212:0000000000130013
#0621a:2424
#06318:00130013
#06315:0013001300000000
#06312:0000000000130013
#0631a:2424
#07216:00140014
#0721a:0014
#07212:24
#06718:13000013
#06715:0000000000000013
#06712:0013000000000000
#06716:0000001300000000
#0661b:00131300
#06612:2300000000000013
#06618:2300000000130000
#06615:00130013
#0681b:2313000000000000
#06818:0000000023130000
#06815:0000231300000000
#06812:0000000000002313
#0691b:1313
#06918:0013000000000000
#06915:00130000
#06912:0000001300000000
#07015:00130013
#07018:0013001300000000
#0701b:0000000000130013
#07012:2424
#07115:00130013
#07118:0013001300000000
#0711b:0000000000130013
#07112:2424
#0731b:0000001300000013
#07315:0013
#07312:13
#07415:0013000000000000
#07418:1313
#07412:00130000
#0751b:13
#07517:0000001300000000
#0651b:13000023
#06512:0000001300000000
#06518:0013000013000000
#06515:00130000
#0761a:0013
#07619:00130000
#0761b:00000013
#07613:00130000
#07615:00000013
#07612:13
#07610:41
#0801b:00131300
#08016:00130000
#08012:13000013
#08017:00000013
#08412:14
#0841a:14
#05218:0013001300000000
#0521b:0000000000130013
#05215:00130013
#05212:2424
#05210:41
#05716:0000001300000000
#05712:13
#05615:1313
#0561b:00130000
#05618:0013000000000000
#0551b:13
#05518:0013
#05512:0000001300000013
#0531b:0000000000130013
#05315:00130013
#05318:0013001300000000
#05312:2424
#05418:00000014
#05416:0014
#05414:00140000
#05412:24
#04715:00131300
#04712:13000023
#04718:0013000000000000
#0471b:0000001300000000
#04512:0000000000130013
#04518:00130013
#04515:0013001300000000
#0451a:2424
#04412:0000000000130013
#04418:00130013
#04415:0013001300000000
#0441a:2424
#04614:00000014
#04616:0014
#04618:00140000
#0461a:24
#04012:0013
#0401b:2300000000000013
#04018:0000000000130000
#04015:23000013
#0401f:21
#04115:13000013
#04118:0013000000000000
#0411b:0000001300000013
#04110:41
#04218:0013001300000000
#0421b:0000000000130013
#04212:23230000
#04215:00002323
#04312:13
#04318:0013000000000000
#04315:00131300
#0431b:0000001300000000
#0481b:0013
#04812:2300000000000013
#04815:0000000000130000
#04818:23000013
#04918:13000013
#04915:0013000000000000
#04912:0000001300000013
#05015:0013001300000000
#05012:0000000000130013
#0501b:23230000
#05018:00002323
#0511b:13
#05115:0013000000000000
#05118:00131300
#05112:0000001300000000
#0111b:13131313
#01115:0024000000000000
#01114:0000002400000000
#01113:0000000000240000
#01112:0000000000000024
#01018:00001313
#0101b:00130000
#01015:13130000
#01012:00000013
#00815:00001313
#00812:00130000
#00818:23130000
#0081b:00000013
#00810:41
#00912:13131313
#00917:0024000000000000
#00918:0000002400000000
#00919:0000000000240000
#0091a:0000000000000024
#0771b:13131313
#07712:0000002400000024
#07715:0024000000240000
#0781b:13
#07813:0013
#07814:00130000
#07812:00000013
#0781a:00130000
#07818:00000013
#07912:13131313
#0791a:0000002400000024
#07917:0024000000240000
#0811b:13131313
#08115:0000002400000024
#08112:0024000000240000
#0821a:1414
#08212:0014000000140000
#08218:00140014
#08214:0000001400000014
#0831a:14
#08316:00000024
#08318:00343434343434343434343400000000
#01218:13000013
#0121b:00130000
#01212:00000013
#01215:00131300
#01318:13131313
#01312:0000002400000024
#01314:0024000000240000
#0321f:11
#03212:23232323
#0361b:23232323
#08712:0052
#0871c:0052
#0205b:0063
#02055:0000000000000063
#02452:0000000000000053
#0245b:0063
#02752:0053
#05858:00130000
#0585b:63
#05852:53
#05855:00130000
#00756:00000014
#00752:54
#01556:00000014
#0155a:64
#01858:0053
#02158:0053
#0265b:0000000000000063
#02652:0053
#0255b:0063
#03158:00000000000000000000005300000000
#0315b:63
#0345b:0000006300000000
#03452:0000000000000053
#03052:53
#01955:0063
#02358:0053
#01658:0000000000000053
#01652:0053
#01755:0063
#03555:00000000000000630000000000000000
#03955:63000013
#03958:53000013
#0395b:0063
#03952:0053
#04055:63
#0405b:63
#0595b:0063000000000000
#05957:0000005300000000
#06152:0053
#0625a:1414
#0635a:1414
#0645a:14
#06752:0053000000000000
#06756:0000006300000000
#0695b:0063
#07052:1414
#07152:1414
#07252:14
#07458:0053
#0755b:63
#07557:0000002300000000
#07355:0063
#07352:53
#08452:64
#0845a:54
#05756:0000002300000000
#05752:53
#05655:0063
#0555b:63
#05558:0053
#04858:53
#04852:53
#04755:0063
#04752:00000013
#04158:0053000000000000
#0415b:0000006300000000
#04355:0063
#04955:0063000000000000
#04952:0000005300000000
#05158:0053
#06558:0053
#0655b:00000013
#0835a:64
#08356:00000014
#007320:14
#007340:00343434343434343434343400000000
#007360:00000024
#0153a0:14
#015380:00343434343434343434343400000000
#015360:00000024
#016320:0013
#016350:00000023
#016380:0000000000000013
#0173b0:0023000000000000
#017350:0013
#017320:00000023
#018380:0013
#0183b0:00000023
#019350:0013
#019320:00000023
#0203b0:0013
#020380:00000023
#020350:0000000000000013
#021320:0023000000000000
#021380:0013
#0213b0:00000023
#023380:0013
#0233b0:00000023
#0243b0:0013
#024380:00000023
#024320:0000000000000013
#025350:0023000000000000
#0253b0:0013
#025380:00000023
#026320:0013
#026350:00000023
#0263b0:0000000000000013
#027380:0023000000000000
#027320:0013
#027350:00000023
#030320:13
#030350:00230000
#0313b0:13
#031380:00230000
#031380:00000000000000000000001300000000
#0323b0:23
#0343b0:0000001300000000
#034380:0000000000230000
#034320:0000000000000013
#035350:00230000
#035350:00000000000000130000000000000000
#036320:23
#038350:00000013
#039350:33000023
#039320:00333333333333333300000000000000
#038381:0000000000000013
#039381:33000023
#0393b1:00333333333333333300000000000000
#040351:13
#040321:00230000
#0403b0:13
#040380:00230000
#041380:0013000000230000
#0413b0:0000003300000000
#043350:0013
#043320:00000023
#047350:0013
#047320:00000023
#048320:13
#048350:00230000
#048381:13
#0483b1:00230000
#049351:0013000000230000
#049321:0000003300000000
#051381:0013
#0513b1:00000023
#0553b1:13
#055381:00230000
#055381:0013
#0553b1:00000023
#056351:0000001333000000
#056321:0000000000000033
#057321:33000023
#057361:0000005300000000
#0583b1:13
#058381:00230000
#058320:13
#058350:00230000
#0593b0:0013000000230000
#059370:0000003300000000
#061320:0013
#061350:00000023
#065380:0013
#0653b0:00000023
#067320:0013000000230000
#067360:0000003300000000
#0693b0:0013
#069380:00000023
#073320:13
#073350:00230000
#073350:0013
#073320:00000023
#074380:0000001333000000
#0743b0:0000000000000033
#0753b0:33000023
#075370:0000005300000000
#0833a0:14
#083380:00343434343434343434343400000000
#083360:00000024
#0843a0:14
#0873c0:0022
#084321:14
#087321:0022
#0289b0:00130000
#028970:0000002300000000
#028920:00000013
#028960:0000000000000023
#029960:0013000000000000
#029950:00000053000000000000000000000000
#029940:00530000
#029920:00000000000053000000002300000000
