This file was generated by Ched 2.7.0.0.
#TITLE ""
#ARTIST ""
#DESIGNER ""
#DIFFICULTY 0
#PLAYLEVEL
#SONGID ""
#WAVE ""
#WAVEOFFSET 0
#JACKET ""
#REQUEST "ticks_per_beat 480"
#00002: 4
#BPM01: 194
#00008: 01
#TIL00: ""
#VOLUME: ""
#HISPEED 00
#MEASUREHS 00
#00112:00130000
#00118:0013
#0011b:23000000000000000000003300000000
#00212:0013000000000000
#00218:00130000
#00215:0000001300000013
#0021b:0013
#00815:0000000000130013
#00818:00000013
#00915:0000001300000000
#0091b:2300000000000013
#00912:00000013
#00918:0013
#01318:00130000
#01315:1313
#01312:00000000000000000000003300000000
#01418:0013000000001300
#01415:0000130000000013
#01412:0000000000130000
#0141b:0013
#01512:0013
#01518:1300000000130000
#01515:00000013
#0151b:0000000000000013
#0121b:0000000000130000
#01212:00000013
#01218:0000000000000013
#02515:00130000
#0251b:0013
#02518:23000000000000000000003300000000
#02510:41
#02612:0013000013000000
#02618:00130000
#02615:00000000000000000000003300000000
#02715:00130000
#02718:13000000000000000000003300000000
#0271b:0013
#02912:00130000
#02918:2313
#0291b:00000000000000000000003300000000
#03015:0013001300000000
#03018:00131300
#03012:0000000000000013
#03118:13000013
#0311b:00131300
#03115:0013000000130013
#0321b:0000000000130000
#03212:00000013
#03218:0000000000000013
#03612:0000000000130000
#0361b:00000013
#03615:0000000000000013
#03715:0000001300000000
#03718:13
#0371b:0013
#03712:0000000000000013
#03918:0000001300000000
#03915:1300000000330000
#03912:0013
#0391b:0000000000000013
#0381b:0000000000130000
#03812:00000013
#03818:0000000000000013
#04012:0000000000130000
#0401b:00000013
#04015:0000000000000013
#04112:00130000
#04118:1313
#0411b:00000000000000000000003300000000
#04110:41
#0441b:0000000000130000
#04412:00000013
#04418:0000000000000013
#04415:0013000000000000
#0451b:00130000
#04518:0000000013000013
#04512:00000013
#04515:2300001300000000
#04618:00001313
#04612:0000001300000000
#04615:0000000000130013
#04718:00130000
#04712:00000013
#04715:0023
#0471b:23
#05312:00130000
#05315:0000000000000013
#0531b:2313
#05310:41
#05418:13
#05415:00130000
#0541a:0000001400000000
#05416:0000000000140000
#05412:0000000000000014
#06018:13
#06012:13
#0601b:0000000000000013
#06615:0000001300000000
#0661b:0013
#06512:00000013
#08212:13
#0821b:13
#00318:0000130000130013
#00315:00001313
#00312:0013000000000000
#0031b:13
#00415:00000013
#00418:0000000000130013
#0051b:00130000
#00515:0013
#00512:13000000000000000000003300000000
#0061b:0013000000000000
#00615:00130000
#00618:0000001300000013
#00612:0013
#00715:0000130000130013
#00718:00001313
#0071b:0013000000000000
#00712:13
#01112:0000000000130013
#01115:0000001300000000
#01118:1313
#0111b:00000013
#01012:0000000000130000
#0101b:00000013
#01015:0000000000000013
#02812:0013000013000000
#02818:00130000
#02815:00000000000000000000003300000000
#03315:1313
#0331b:00130000
#03312:00000000000000000000003300000000
#03418:0013001300000000
#03415:00131300
#0341b:0000000000000013
#03412:0000000000330000
#03515:13000013
#03512:00131300
#03518:0013000000130013
#04212:0013000000000000
#04218:00130013
#0421b:0013
#04215:0000001300130013
#04318:0000000000000013
#04312:00130000
#04314:3333
#04313:0033003300000000
#04912:00130000
#04915:0000000013000013
#04918:2300001300000000
#0491b:00000013
#04818:00130000
#04812:00000013
#0481b:23
#04815:0023
#05015:0013
#0501b:0000001300000000
#05018:00000013
#05012:0000000000000013
#0511b:0013330000330000
#05118:0013
#05518:0013001300000000
#05512:00130000
#05515:00001313
#0551b:0000000000130013
#05815:0000130000130000
#05818:0000001300000013
#05812:1300000000000013
#0581b:1300000000130000
#05715:0013
#05718:00000013
#05618:0000130000000013
#05615:1300001300000000
#05915:0013
#0591b:0013
#06118:0000000000000013
#06112:0013
#06215:13
#06218:00130000
#06212:0000001400000000
#06216:0000000000140000
#0621a:0000000000000014
#06315:0013001300000000
#0631b:00130000
#06318:00001313
#06312:0000000000130013
#07718:13131313
#07815:13131313
#0791b:13131313
#08012:13131313
#08118:13130000
#08115:00001313
#0831b:00130000
#08318:0000000000000013
#08312:2313
#0831f:21
#08415:13
#08418:00130000
#08412:0000001400000000
#08416:0000000000140000
#0841a:0000000000000014
#08410:41
#09015:13
#0901b:13
#09012:0000000000000013
#0951b:00000013
#08515:0013001300000000
#0851b:00130000
#08518:00001313
#08512:0000000000130013
#08818:0000130000130000
#08815:0000001300000013
#0881b:1300000000000013
#08812:1300000000130000
#08918:0013
#08912:0013
#09115:0000000000000013
#0911b:0013
#09218:13
#09215:00130000
#0921a:0000001400000000
#09216:0000000000140000
#09212:0000000000000014
#09318:0013001300000000
#09312:00130000
#09315:00001313
#0931b:0000000000130013
#0981b:00000013
#09812:00000013
#09815:0000001300000000
#09818:0000001300000000
#0971b:0000000000000013
#09712:0000000000000013
#10112:00130000
#10118:23
#10110:41
#10215:0013000000000000
#1021b:00130000
#10312:00130000
#10318:13
#10415:0013000000000000
#1041b:00130000
#10515:00130000
#10518:23
#10615:0013000000000000
#1061b:00130000
#10612:0000001300000013
#10618:0013
#10712:00000013
#10718:1300000000130000
#10715:0013000013000000
#1071b:0000130000000013
#10918:00130000
#10915:23
#11018:0013000000000000
#11012:00130000
#1101b:0000001300000013
#11015:0013
#11118:0013000000130013
#11115:1313
#1111b:0000001300000000
#11112:00130013
#10818:0000000000130000
#10812:00000013
#1081b:0000000000000013
#11215:13
#08718:0013
#08715:00000013
#08615:0000130000000013
#08618:1300001300000000
#09612:0000000000000013
#09618:0000001300000000
#09615:0013
#0961b:00000013
#06418:1300001300000023
#06415:00130000
#0641b:0000000000130000
#06410:41
#09415:1300001300000023
#09418:00130000
#09412:0000000000130000
#06718:0000001300130013
#06712:13131313
#0671b:13
#06815:13
#0681b:0013000000000000
#06812:00130000
#05214:0014000000000000
#05218:0000001400000000
#05213:00000054000000000000000000000000
#05212:00540000
#05219:00000000000000540000000000000000
#0521a:0054
#0691f:11
#01714:28
#02114:28
#10012:23
#1001b:23
#09919:00000023
#09914:00000023
#0015b:13
#00158:0053
#0095b:1300000000000063
#01754:18
#02154:18
#02558:13
#0255b:0063
#02958:1363
#03058:0053
#03758:53
#0375b:0053
#03752:0000000000000053
#03955:53
#03952:0053
#0395b:0000000000000063
#04158:0063
#04555:13
#04558:0000000013000063
#0535b:1353
#06552:00000053
#06058:53
#06052:53
#06055:0013
#0605b:0000000013000063
#00358:0000000000000053
#0025b:0063
#00555:0063
#00755:0000000000000063
#00652:0053
#01152:0000000000000053
#01158:53
#01255:0013000000000000
#01355:0063
#0155b:0000000000000063
#01558:53
#01658:0013000000000000
#02652:0053
#0275b:0063
#02852:0053
#03155:0000000000000063
#03455:0063
#03355:0053
#03558:0000000000000053
#04955:0000000013000053
#04958:13
#0515b:0063000000000000
#05158:0053
#05658:0000000000000053
#05652:0000000000130000
#05655:0000006300000000
#0585b:0000000000630000
#05855:0000000000630000
#05852:0000000000000053
#05858:0000000000000053
#05955:0063
#0595b:0063
#06152:0063
#0665b:0063
#08352:1363
#09055:63
#0905b:63
#09052:0000000013000053
#09058:0013
#0955b:00000063
#08852:0000000000530000
#08858:0000000000530000
#0885b:0000000000000063
#08855:0000000000000063
#08958:0053
#08952:0053
#0915b:0053
#09955:13
#09958:13
#0985b:00000063
#09852:00000053
#09855:0000006300000000
#09858:0000005300000000
#0975b:0000000000000063
#09752:0000000000000053
#10158:13
#10558:13
#10658:0053
#1075b:0000000000000063
#11055:0063
#10955:13
#11258:0000000000000013
#00852:0013000000000000
#0045b:0013000000000000
#03252:0013000000000000
#0365b:0013000000000000
#03855:0013000000000000
#04058:0013000000000000
#08655:0000000000000063
#08658:0000005300000000
#0865b:0000000000130000
#09652:0000000000000053
#01058:0013000000000000
#06458:0000005300000013
#0645b:0000000000630000
#09455:0000006300000013
#09452:0000000000530000
#04352:00230000
#04255:0000000000000063
#10858:0013000000000000
#001380:0013
#0013b0:00000000000000000000003300002300
#0023b0:0013
#002380:00000023
#003380:0000000000000013
#0043b0:0023000000000000
#005350:0013
#005320:00000000000000000000003300002300
#006320:0013
#006350:00000023
#007350:0000000000000013
#008320:0023000000000000
#0093b0:0000000000000013
#010380:0023000000000000
#011380:13
#0113b0:00230000
#011320:0000000000000013
#012350:0023000000000000
#013350:0013
#013320:00000000000000000000003300002300
#015380:13
#0153b0:00230000
#0153b0:0000000000000013
#016380:0023000000000000
#0253b0:0013
#025380:00000000000000000000003300002300
#026320:0013
#026350:00000000000000000000003300002300
#0273b0:0013
#027380:00000000000000000000003300002300
#028320:0013
#028350:00000000000000000000003300002300
#029380:0013
#0293b0:00000000000000000000003300002300
#030380:0013
#0303b0:00000023
#031350:0000000000000013
#032320:0023000000000000
#033350:0013
#033320:00000000000000000000003300002300
#034350:0013
#034320:0000000000332300
#035380:0000000000000013
#0363b0:0023000000000000
#037380:13
#0373b0:00230000
#0373b0:0013
#037380:00000023
#037320:0000000000000013
#038350:0023000000000000
#039350:13
#039320:00230000
#039320:0013
#039350:0000000000332300
#0393b0:0000000000000013
#040380:0023000000000000
#041380:0013
#0413b0:00000000000000000000003300002300
#042350:0000000000000013
#043340:3333
#043330:0033003300000000
#043320:00330000
#043350:0000000000230000
#045380:0000000000000013
#0463b0:0023000000000000
#049350:0000000000000013
#050320:0023000000000000
#0513b0:0013330000330023
#051380:0033
#0533b0:0013
#053380:00000023
#056350:0000001300000000
#056320:0000000000230000
#056380:0000000000000013
#0573b0:00230000
#0583b0:0000000000130000
#058380:0000000000000033
#0593b0:0023000000000000
#058351:0000000000130000
#058321:0000000000000033
#059351:0023000000000000
#0593b1:0013
#059381:00000023
#059350:0013
#059320:00000023
#060380:13
#0603b0:0023
#060321:13
#060351:0023
#0603b1:0000000000000013
#061381:00230000
#061321:0013
#061351:00000023
#064381:0000001300000023
#0643b1:0000000000330000
#065321:00000013
#066351:23
#0663b1:0013
#066381:00000023
#068381:0000001300000000
#069381:23
#069320:13
#073350:53
#077320:23
#083320:0013
#083350:00000023
#086380:0000001300000000
#0863b0:0000000000230000
#086350:0000000000000013
#087320:00230000
#088320:0000000000130000
#088350:0000000000000033
#089320:0023000000000000
#088381:0000000000130000
#0883b1:0000000000000033
#089381:0023000000000000
#089321:0013
#089351:00000023
#089380:0013
#0893b0:00000023
#090350:13
#090320:0023
#0903b1:13
#090381:0023
#090321:0000000000000013
#091351:00230000
#0913b1:0013
#091381:00000023
#094351:0000001300000023
#094321:0000000000330000
#0953b1:00000013
#096381:23
#096321:0000000000000013
#097351:0023000000000000
#0973b1:0000000000001333
#098381:0000003300000000
#0983b1:00000033
#099381:23
#097320:0000000000001333
#098350:0000003300000000
#098320:00000033
#099350:23
#1013b0:0000000013000023
#101380:00000000000000000000003300000000
#102320:0000000013000023
#102350:00000000000000000000003300000000
#1033b0:0000000013000023
#103380:00000000000000000000003300000000
#104320:0000000013000023
#104350:00000000000000000000003300000000
#105380:0000000013000023
#1053b0:00000000000000000000003300000000
#106380:0013
#1063b0:00000023
#1073b0:0000000000000013
#108380:0023000000000000
#109350:0000000013000023
#109320:00000000000000000000003300000000
#110350:0013
#110320:00000023
#112380:0013000000330023
#1123b0:0000003300000000
#052940:0014000000000000
#052920:00240000
#052980:0000001400000000
#0529a0:0024
