This file was generated by Ched 2.7.0.0.
#TITLE ""
#ARTIST ""
#DESIGNER ""
#DIFFICULTY 0
#PLAYLEVEL
#SONGID ""
#WAVE ""
#WAVEOFFSET 0
#JACKET ""
#REQUEST "ticks_per_beat 480"
#00002: 4
#BPM01: 160
#00008: 01
#TIL00: ""
#VOLUME: ""
#HISPEED 00
#MEASUREHS 00
#00112:14
#0021a:14
#00312:14
#0041a:14
#00514:14
#00618:14
#00714:14
#00818:14
#01112:0016
#01118:26
#01110:41
#01312:1616
#01418:1616
#01518:0016
#01512:26
#01718:1616
#01812:1616
#0311a:14
#03110:41
#03214:14
#03318:14
#03412:14
#03918:0016
#03912:26
#04118:1616
#04110:41
#04212:1616
#04312:0016
#04318:26
#04512:1616
#04618:1616
#05114:14
#05218:14
#05312:14
#0541a:14
#05514:14
#05618:14
#05712:14
#06612:0016
#06618:26
#0661f:21
#06812:1616
#06918:1616
#07018:0016
#07012:26
#07218:1616
#07312:1616
#07412:00160000
#07418:2616
#07512:1616
#07518:00160000
#07618:1616
#07612:00160000
#07812:00160000
#07818:2616
#07912:1616
#07918:00160000
#08018:1616
#08012:00160000
#0581f:11
#08412:0000343434003400
#02310:41
#06710:41
#05010:41
#009320:14
#010320:24
#012380:1626
#016320:1626
#0193a0:14
#0203a0:24
#021320:1400343434003434
#022320:0034343424000000
#0233a0:14
#023390:0034
#024380:34
#024390:0034
#0253a0:34
#025390:0034
#026380:24
#027320:14
#027330:0034
#028340:34
#028330:0034
#029320:34
#029330:0034
#030340:24
#0353a0:1424
#036320:1424
#037380:14
#038380:24
#040320:1626
#044380:1626
#047320:14
#048320:24
#0493a0:14
#0503a0:24
#0583a0:14
#0593a0:24
#060320:14
#061320:24
#062380:14
#063380:24
#064340:14
#065340:24
#067380:1626
#071320:1626
#077320:16362600
#081320:16362600
#0823a0:14
#083380:24
#084320:1400343434003400
#084340:0000000000000034
#085340:0034343424000000
