This file was generated by Ched 2.7.0.0.
#TITLE ""
#ARTIST ""
#DESIGNER ""
#DIFFICULTY 0
#PLAYLEVEL
#SONGID ""
#WAVE ""
#WAVEOFFSET 0
#JACKET ""
#REQUEST "ticks_per_beat 480"
#00002: 4
#BPM01: 204
#00008: 01
#TIL00: "0'0:1"
#VOLUME: ""
#HISPEED 00
#MEASUREHS 00
#00013:12
#0001b:12
#00018:00120000
#00016:0000001200000012
#0001a:00001212
#00118:0012000000001200
#00114:00000012
#0021a:12120000
#00216:1200001200000012
#00214:0000000000120000
#00218:00000012
#0081b:12
#00813:12
#00816:0000120000000012
#00818:0000001200000000
#0081a:00000012
#00814:0012
#00416:00120000
#00418:0000001200000012
#00414:00001212
#00413:12
#0041b:12
#00516:0012000000001200
#0051a:00000012
#00614:12120000
#00618:1200001200000012
#0061a:0000000000120000
#00616:00000012
#00918:0012000000000000
#00916:00000012
#0101a:12120000
#01016:0000001200000012
#01014:0000000000120000
#01018:00000012
#01213:12
#0121b:12
#01218:0000120000000012
#01216:0000001200001200
#0121a:0012
#01316:00000014
#0141a:0000141400000024
#01412:1400000000140014
#01417:24000014
#01415:0000002400000000
#01516:00000014000000000000000000000000
#0151a:0000141400000000
#01612:0000130000000014
#0161b:00130000
#01615:00001313
#01618:2400000000130000
#0161a:0000000000000014
#01614:24
#01610:41
#01715:00140000000000000000000000000000
#01717:00130000
#01719:0013
#01714:0013
#01716:00000013
#0171b:00000013
#0181a:1400000000000014
#01812:1400130000000014
#0181b:00130000
#01818:00001313
#01815:0000000000130000
#01917:00140000000000000000000013000000
#01916:00130000
#01914:0013
#01919:0013
#01912:00000013
#02012:1400130000000014
#0201a:1400000000000014
#0201b:00130000
#02015:00001313
#02018:0000000000130000
#02115:00140000000000000000000000000000
#02117:00130013
#0211b:0013
#02116:0013
#02112:00000013
#0221a:1400000000000014
#02212:1400130000000014
#0221b:00130000
#02218:00001313
#02215:0000000000130000
#02317:00140000000000130000000000000000
#02316:00130000
#02312:0000001313000000
#02315:0000000000130000
#02318:00000013
#0231b:0000000000000013
#02418:00130000
#02415:0000001300000000
#02412:2600000013001313
#02417:0000000000000013
#0241b:0013
#0251b:0013130000001300
#02516:00130013
#02512:0013
#02612:13000013
#02617:1300000000130013
#0261b:00130000
#02616:0000001300000000
#0271b:00000000001300000000000000000000
#02716:00130000
#02712:00000013
#02815:00130000
#02818:1600001300000000
#0281b:0000000013001313
#02816:0000000000000013
#02812:0013
#02912:0013130000000023
#02917:00130000
#0291b:0013
#02915:0000000000230000
#02918:00000023
#0301b:0000131300000000
#03012:1300000000130024
#03017:2300000000001323
#03016:0000002300000000
#03112:0000000000240014
#0311a:00240000
#03114:0000002400000000
#03118:0024
#03117:0000000000000024
#03110:0000000000000041
#0321a:0000000024001424
#03215:0000000000001424
#03312:0000140024000024
#03315:00000014
#0331a:00000014
#03317:0000000000000024
#0341a:0000140024000014
#03412:0000000000000014
#03518:0000001313000000
#03515:00000000000000130000000000002400
#03512:0000000000130000
#0351b:00000013
#0361b:0013130013130000
#03615:0013130013130000
#03612:00000013
#03617:0000000000000024
#03712:0013130013130000
#03718:0013130013130000
#0371b:00000013
#03715:0000000000000024
#03818:00001300000000130000000000000000
#03812:0000130014000014
#0381b:00130000
#03815:0000001300000000
#03819:00000013
#0381a:0000000000000014
#03814:00000013
#03912:0000130000130024
#0391b:0000130000130000
#03918:0000001300001300
#03915:0013
#0391a:0000000000000014
#03910:0000000000000041
#04018:00140000000000000000000000000000
#04012:0000140000130024
#04014:0013
#0401b:0013
#04019:0000000000130000
#0401a:0000000000000014
#04117:00140000000000000000000000000000
#04112:0000140000130024
#04115:0013
#0411b:0013
#04118:0000000000130000
#0411a:0000000000000014
#04216:00140000000000001300000000000000
#04212:0000140000130000
#0421b:0013
#04217:0000000000130000
#04312:0000130000130014
#0431b:0000130000130000
#04315:0000001300001300
#04318:0013
#0431a:0000000000000024
#04414:00140000000000000000130000000000
#0441a:0000140000000024
#04419:0013
#04412:0000000013000014
#0441b:0000000000130000
#04515:00140000000000000000000000000000
#0451a:00140000
#04517:0013
#04516:0000000000130000
#04519:00000000000000000000000000000000000000000000000000000000000000000053000000000000000000000000000000000000000000001500000000000000
#04512:0000000000000000000000000000000000000000005300000000000025000000
#0451b:0000000000000000000000000000000000530000000000000000000000000000
#04514:00000000000000000000000000000000000000000000000000000000000000000000000000000000005300000000000000000000000000000000000000000000
#04619:0000150000000024
#04612:00001515
#04618:0000000024160000
#04613:0000000000000024
#0471b:0013
#04712:0000000013000014
#04718:0000000000131300
#04715:00000000000000000000001300000000
#0471a:0000000000000024
#04814:00140000000000000000130000000000
#04818:00140000
#04819:0013
#04812:0000000013000014
#0481b:0013000000130000
#0481a:0000000000000024
#04915:00140000000000000000130000000000
#04918:00141300
#04912:0000000013000014
#0491b:0013000000130000
#0491a:0000000000000024
#05016:00140000000000000000130000000000
#05018:00140000
#05017:0013
#05012:0013
#0501b:0013000000130000
#05116:00130000
#05112:0013
#05119:0000000000130000
#05114:0000000000130000
#0511b:00130000
#0511a:0000000000000024
#05216:00141400
#0521a:0000000000140000
#05212:0000000000000024
#05316:00141400
#05312:0000000000140014
#05418:0013000023000000
#05412:0000140000240014
#05415:0023000013000000
#0541a:0000240000140024
#05517:00130000000000000000000000000000
#05516:000000000000000000000000000000000000000000000000000000000000000000000000000000000000000000000000000000000000000000000000000000000000000000000000000000000000000000000000000000000000000000000000000000000000000000000000000000000000000000000000001300000000000000000000000000000000000000000000000000000000000000000000000000000000000000000000000000000000000000000000000000000000000000000000000000000000000000000000000000000000000000000000000000000000000000000000000000000000000000000000000000000000000000000000000000000000000000000000000000000000000000000000000000000000000000000000000000000000000000000000000000000000000000000000000000000000000000000000000000000000000000000000000000000000000000000000000000000000000000000000000000000000000000000000000000000000000000000000000000000000000000000000000000000000000000000000000000000000000000000000000000000000000000000000000000000000000000000000000000000000000000000000000000000000000000000000000000000000000000000000000000000000000000000000000000000000000000000000000000000000000000000000000000000000000000000000000000000000000000000000000000000000000000000000000000000000000000000000000000000000000000000000000000000000000000000000000000000000000000000000000000000000000000000000000000000000000000000000000000000000000000000000000000000000000000000000000000000000000000000000000000000000000000000000000000000000000000000000000000000000000000000000000000000000000000000000000000000000000000000000000000000000000000000000000000000000000000000000000000000000000000000000000000000000000000000000000000000000000000000000000000000000000000000000000000000000000000000000000000000000000000000000000000000000000000000000000000000000000000000000000000000000000000000000000000000000000000000000000000000000000000000000000000000000000000000000000000000000000000000000000000000000000000000000000000000000000000000000000000000000000000000000000000000000000000000000000000000000000000000000000000000000000000000000000000000000000000000000000000000000000000000000000000000000000000000000000000000000000000000000000000000000000000000000000000000000000000000000000000000000000000000000000000000000000000000000000000000000000000000000000000000000000000000000000000000000000000000000000000000000000000000000000000000000000000000000000000000000000000000000000000000000000000000000000000000000000000000000000000000000000000000000000000000000000000000000000000000000000000000000140000000000000000000000000000000000000000000000000000000000000000000000000000000000000000000000000000000000000000000000000000000000000000000000000000000000000000000000000000000000000000000000000000000000000000000000000000000000000000000000000000000000000000000000000000000000000000000000000000000000000000000000000000000000000000000000000000000000000000000000000000000000000000000000000000000000000000000000000000000000000000000000000000000000000000000000000000000000000000000000000000000000000000000000000000000000000000000000000000000000000000000000000000000000000000000000000000000000000000000000000000000000000000000000000000000000000000000000000000000000000000000000000000000000000000000000000000000000000000000000000000000000000000000000000000000000000000000000000000000000000000000000000000000000000000000000000000000000000000000000000000000000000000000000000000000000000000000000000000000000000000000000000000000000000000000000000000000000000000000000000000000000000000000000000000000000000000000000000000000000000000000000000000000000000000000000000000000000000000000000000000000000000000000000000000000000000000000000000000000000000000000000000000000000000000000000000000000000000000000000000000000000000000000000000000000000000000000000000000000000000000000000000000000000000000000000000000000000000000000000000000000000000000000000000000000000000000000000000000000000000000000000000000000000000000000000000000000000000000000000
#0551a:0000000014000024
#05512:0000000000001424
#05510:0000000000000041
#05615:00140000
#0561a:0000240000001424
#05612:0000000000000024
#05717:00140000
#05712:0000240000001424
#0571a:0000000000000024
#0581a:0014000000000014
#05812:00140000
#05818:0000001400000000
#05813:0014
#05819:0000000000140000
#05814:00000014
#05912:0014000000000000
#0591a:0000001400000000
#05915:0000000013000023
#05918:00000013
#0591b:0000000000000023
#06018:0013000013000000
#06015:0000130000130000
#0601b:0000001300001300
#06012:00000013
#06019:000000000053
#06017:000000000000000000000053
#06112:1300000013000024
#0611b:00130000
#0611a:00000014
#06114:005300000000005300000000
#06116:005300005300
#06119:005300
#06117:000000000053000000000000
#06218:0013001300000000
#06215:00130000
#0621a:0000000014240014
#06212:0000000024140024
#0621f:0000000000000011
#0641b:0000321232000000
#06418:0000000000000012
#06416:0000000000000012
#06318:0000000000000012
#0651b:0000321232000000
#06518:0000000000000012
#06516:0000000000000012
#0661b:0000321232000000
#06613:0000321232000000
#06616:0000000000000012
#06618:0000000000000012
#06813:0000321232000000
#06816:0000000000000012
#06818:0000000000000012
#06716:0000000000000012
#06718:0000000000000012
#06913:0000321232000000
#06916:0000000000000012
#06918:0000000000000012
#07018:0000000000000012
#07016:0000000000000012
#0701b:0012
#07013:0012
#0721b:0000321232000000
#07215:00120000
#07214:0012
#07218:0000000000000012
#07216:0000000000000012
#07118:0000000000000012
#07116:0000000000000012
#0731b:0000321232000000
#07315:00120000
#07314:0012
#07316:0000000000000012
#07413:0000321232000000
#07419:00120000
#0741a:0012
#07416:0000000000000012
#07418:0000000000000012
#07513:0000321232000000
#07519:00120000
#0751a:0012
#07518:0000000000000012
#07615:00120000
#07614:0012
#07619:00120000
#0761a:0012
#0761c:0000000000000012
#07612:0000000000000012
#07718:0000000012000026
#07716:0012
#07712:0000000000000026
#0771f:0000000000000021
#07814:0013000000000000
#07819:0013000000000000
#07818:0000000000131326
#07815:00000000000000000000001300130000
#0781b:0013
#07812:00241300
#0781a:00240000
#07912:00001600000000000000001600000000
#07918:0000160000000016
#07915:0000001600000000
#08017:0013
#08016:0000000000130000
#08012:0000000000000000260000000000000000000000005300000000000014000000
#08018:00260000
#0801a:0000000000000024
#08010:00410000
#08019:00000000000000000000000000000000000000000000000000000000000000000053000000000000000000000000000000000000000000000000000000000000
#0801b:0000000000000000000000000000000000530000000000000000000000000000
#08014:00000000000000000000000000000000000000000000000000000000000000000000000000000000005300000000000000000000000000000000000000000000
#08116:00140000000000001300000000000000
#08117:0000140000130000
#0811b:0013000013000000
#08112:0000000000130024
#0811a:0000000000000014
#08119:00000013
#08217:0013
#08212:0013000013000000
#0821b:0000000000130000
#08216:00140000000000000000130000000000
#08215:00140000
#0831b:0000130000130000
#08312:0000130000130014
#08315:0000001313000000
#08318:00000000000000130000000013000000
#0831a:0000000000000024
#08416:00140000000000001300000000000000
#08417:0000140000130000
#0841b:0013000013000000
#08412:0000000000130024
#0841a:0000000000000014
#08419:00000013
#08516:00140000000000000000130000000000
#08515:00140000
#08512:0013000013000014
#08517:0000000013000024
#0851b:0000000000130000
#08615:1424
#0861a:0000140014000024
#08617:0000000000140000
#08614:0000001300000000
#08612:0000000000000024
#08716:14000013
#0871a:0000140000240000
#08718:0000001313000000
#08715:00000000000000130000000000000000
#08717:000000000000000000000000000000000000000000000000000000000000000000000000000000000000000000000000000000000000000000000000000000000000000000000000000000000000000000000000000000000000000000000000000000000000000000000000000000000000000000000000000000000000000000000000000000000000000000000000000000000000000000000000000000000000000000000000000000000000000000000000000000000000000000000000000000000000000000000000000000000000000000000000000000000000000000000000000000000000000000000000000000000000000000000000000000000000000000000000000000000000000000000000000000000000000000000000000000000000000000000000000000000000000000000000000000000000000000000000000000000000000000000000000000000000000000000000000000000000000000000000000000000000000000000000000000000000000000000000000000000000000000000000000000000000000000000000000000000000000000000000000000000000000000000000000000000000000000000000000000000000000000000000000000000000000000000000000000000000000000000000000000000000000000000000000000000000000000000000000000000000000000000000000000000000000000000000000000000000000000000000000000000000000000000000000000000000000000000000000000000000000000000000000000000000000000000000000000000000000000000000000000000000000000000000000000000000000000000000000000000000000000000000000000000000000000000000000000000000000000000000000000000000000000000000000000000000000000000000000000000000000000000000000000000000000000000000000000000000000000000000000000000000000000000000000000000000000000000000000000000000000000000000000000000000000000000000000000000000000000000000000000000000000000000000000000000000000000000000000000000000000000000000000000000000000000000000000000000000000000000000000000000000000000000000000000000000000000000000000000000000000000000000000000000000000000000000000000000000000000000000000000000000000000000000000000000000000000000000000000000000000000000000000000000000000000000000000000000000000000000000000000000000000000000000000000000000000000000000000000000000000000000000000000000000000000000000000000000000000000000000000000000000000000000000000000000000000000000000000000000000000000000000000000000000000000000000000000000000000000000000000000000000000000000000000000000000000000000000000000000000000000000000000000000000000000000000000000000000000000000000000000000000000000000000000000000000000000000000000000000000000000000000000000000000000000000000000000000000000000000000000000000000000000000000000000000000000000000000000000000000000000000000000000000000000000000000000000000000000000000000000000000000000000000000000000000000000000000000000000000000000000000000000000000000000000000000000000000000000000000000000000000000000000000000000000000000000000000000000000000000000000000000000000000000000000000000000000000000000000000000000000000000000000000000000000000000000000000000000000000000000000000000000000000000000000000000000000000000000000000000001300000000000000000000000000000000000000000000000000000000000000000000000000000000000000000000000000000000000000000000000000000000000000000000000000000000000000000000000000000000000000000000000000000000000000000000000000000000000000000000000000000000000000000000000000000000000000000000000000000000000000000000000000000000000000000000000000000000000000000000000000000000000000000000000000000000000000000000000000000000000000000000000000000000000000000000000000000000000000000000000000000000000000000000000000000000000000000000000000000000000000000000000000000000000000000000000000000000000000000000000000000000000000000000000000000000000000000000000000000000000000000000000000000000000000000000000000000000000000000000000000000000000000000000000000000000000000000000000000000000000000000000000000000000000000000000000000000000000000000000000000000000000000000000000000000000000000000000000000000000000000000000000000000000000000000000000000000000000000000000
#08712:0000240000240000
#0881a:00141414
#08812:0000241400000000
#08813:0000000024140000
#08814:0000000000002414
#08912:14141414
#0891a:2414000000000000
#08919:0000241400000000
#08918:0000000024140000
#08917:0000000000002414
#0901a:1400140014002424
#09012:2414000000002424
#09013:0000241400000000
#09014:0000000024140000
#09117:00130000
#0911b:0013
#09114:0000000000130000
#09119:0000000000130000
#09112:00130000
#0911a:0000000000000014
#09116:0000000000000024
#09212:0000140014000014
#09216:00140000000000000000140000002400
#0921a:0000000000140000
#09415:0013000023000000
#0941a:0000140000240014
#09418:0023000013000000
#09412:0000240000140024
#09516:00130000000000000000000000000000
#09517:000000000000000000000000000000000000000000000000000000000000000000000000000000000000000000000000000000000000000000000000000000000000000000000000000000000000000000000000000000000000000000000000000000000000000000000000000000000000000000000000001300000000000000000000000000000000000000000000000000000000000000000000000000000000000000000000000000000000000000000000000000000000000000000000000000000000000000000000000000000000000000000000000000000000000000000000000000000000000000000000000000000000000000000000000000000000000000000000000000000000000000000000000000000000000000000000000000000000000000000000000000000000000000000000000000000000000000000000000000000000000000000000000000000000000000000000000000000000000000000000000000000000000000000000000000000000000000000000000000000000000000000000000000000000000000000000000000000000000000000000000000000000000000000000000000000000000000000000000000000000000000000000000000000000000000000000000000000000000000000000000000000000000000000000000000000000000000000000000000000000000000000000000000000000000000000000000000000000000000000000000000000000000000000000000000000000000000000000000000000000000000000000000000000000000000000000000000000000000000000000000000000000000000000000000000000000000000000000000000000000000000000000000000000000000000000000000000000000000000000000000000000000000000000000000000000000000000000000000000000000000000000000000000000000000000000000000000000000000000000000000000000000000000000000000000000000000000000000000000000000000000000000000000000000000000000000000000000000000000000000000000000000000000000000000000000000000000000000000000000000000000000000000000000000000000000000000000000000000000000000000000000000000000000000000000000000000000000000000000000000000000000000000000000000000000000000000000000000000000000000000000000000000000000000000000000000000000000000000000000000000000000000000000000000000000000000000000000000000000000000000000000000000000000000000000000000000000000000000000000000000000000000000000000000000000000000000000000000000000000000000000000000000000000000000000000000000000000000000000000000000000000000000000000000000000000000000000000000000000000000000000000000000000000000000000000000000000000000000000000000000000000000000000000000000000000000000000000000000000000000000000000000000000000000000000000000000000000000000000000000000000000000000000000000000000000000000000000000000000000000000000000000000000000000000000000000000000000000000000000000000000000000000000000000000000000000000000000000000000000000000000000000000000000000000000000000000000000000000000000000000000000000000000000000000000000000000000000000000000000000000000000000000000000000000000000000000000000000000000000000000000000000000000000000000000000000000000000000000000000000000000000000000000000000000000000000000000000000000000000000000000000000000000000000000000000000000000000000000000000000000000000000000000000000000000000000000000000000000000000000000000000000000000000000000000000000000000000000000000000000000000000000000000000000000000000000000000000000000000000000000000000000000000000000000000000000000000000000000000000000000000000000000000000000000000000000000000000000000000000000000000000000000000000000000000000000000000000000000000000000000000000000000000000000000000000000000000000000000000000000000000000000000000000000000000000000000000000000000000000000000000000000000000000000000000000000000000000000000000000000000000000000000000000000000000000000000000000000000000000000000000000000000000000000000000000000000000000000000000000000000000000000000000000000000000000000000000000000000000000000000000000000000000000000000000000000000000000000000000000000000000000000000000000000000000000000000000000000000000000000000000000000000000000000000000000000000000000000000000000000000000000000000000000000000000000000000000000000000000000000
#0951a:0014
#09518:0000000000130000
#09515:00000013
#09512:0000000014000013
#0931a:0000140014000014
#09316:00140000000000000000140000002400
#09312:0000000000140000
#0961b:0013
#09618:2400000000130000
#09615:0000001300001300
#0961a:0000140000000014
#09612:0000140000000014
#09614:24
#09717:00140000000000000000000000000000
#09712:00141414
#0971a:00001414
#09718:0000001300000000
#09715:0000000000130000
#09812:1400140013000014
#0981a:1400140000000014
#09815:0000000000130000
#09818:0000001300001300
#09915:00140000000013000000000000000000
#0991a:00141414
#09912:00001414
#09918:0000000000130000
#1001a:1400140000000014
#10012:1400140013000014
#10015:0000000000130000
#10018:00000013
#10017:0000001300000000
#10117:00140000000000001300000000000000
#10116:00130013
#10112:0013
#1011b:00000013
#10114:0000001300000000
#10119:0000000000130000
#10212:1400140000000014
#1021a:1400140000000014
#1021b:0013
#10218:0000000000130000
#10215:00000013
#10216:0000001300000000
#10315:00140000000013001300000000001300
#1031a:00140000
#10312:00000013
#10318:00000000000000130000130000000000
#1031b:00000013
#10415:00130000
#10418:0000001300000000
#10416:0000000000001313
#1041a:0000000014140000
#10412:2514
#1041b:0000000000000013
#10419:25
#10410:41
#10512:0013130000001300
#10517:00130013
#1051b:0013
#10519:0000000000130000
#1061b:1300000000130013
#10616:13000013
#10612:0000131300000000
#10617:0000131300000000
#10717:00000000001300000000000000000000
#10712:00130000
#10716:00000013
#10714:1313
#11012:0000131300000000
#1101b:1300000000130000
#11016:2300000000001323
#11017:0000002300000000
#1101a:0000000000000024
#10818:00130000
#10815:0000001300000000
#10817:0000000000001313
#10812:2500000014140013
#1081a:0014
#10819:25
#10916:00130000
#10912:00001313
#1091b:0013130000001300
#10919:0000000000130000
#10914:0000000000000013
#11112:0024000000240000
#11115:0000002323000000
#1111a:0000240000240000
#11118:00000000000000230000000000000000
#00256:0000000000000062
#00658:0000000000000052
#01056:0000000000000062
#01457:14
#01455:0000001400000000
#01452:6400000000000064
#0145a:0000005400000014
#01556:00000024000000000000000000000000
#01552:00000014
#0155a:00000014
#01658:14
#01654:14
#01652:0000000000000064
#0165a:0000000000000014
#01755:00240000000000000000000000000000
#0185a:1400000000000054
#01852:1400000000000014
#01957:00240000000000000000000000000000
#02052:1400000000000064
#0205a:1400000000000014
#02155:00240000000000000000000000000000
#0225a:1400000000000054
#02252:1400000000000014
#02357:00240000000000000000000000000000
#02452:1600000000000063
#0245b:0013
#0255b:00530013
#02652:13000013
#02656:0000006300000000
#02657:0000000000000053
#0275b:00000000002300000000000000000000
#02752:00000013
#02756:00130000
#0285b:0000000000000053
#02852:0013
#02858:16
#02952:00630000
#03057:1300000000000013
#03052:6300000000000064
#0305b:0000005300000000
#03056:0000001300000000
#03152:0000000000000054
#03157:0000000000000044
#03255:0000000000000034
#0325a:0000000000000064
#03352:0000000000000054
#03357:0000000000000044
#03558:0013000000000000
#03555:0013000000000014
#03452:0000000000000064
#0345a:0000000000000064
#03657:0000000000000014
#03755:0000000000000014
#03852:0000000014000014
#0385a:0000000000000014
#03952:0000000000000014
#0395a:0000000000000064
#04058:00240000000000000000000000000000
#0405a:0000440000000064
#04052:0000000000000014
#04157:00240000000000000000000000000000
#0415a:0000440000000064
#04152:0000000000000014
#04256:00240000000000000000000000001300
#0425a:00440000
#0425b:0000000000000013
#04252:0000000000630000
#04257:0000000000630000
#04454:00240000000000000000000000000000
#04452:0000340000000054
#0445a:0000000000000014
#04352:0000000000000054
#0435a:0000000000000014
#04555:00240000000000000000000000000000
#04552:00340000
#04559:0000000000000015
#04652:0015
#04658:0000000064260000
#04759:00140000
#04753:00140000
#04752:0000000000000054
#0475a:0000000000000014
#04854:00240000000000000000000000000000
#04852:0000340000000054
#0485a:0000000000000014
#04955:00240000000000000000000000000000
#04952:0000340000000054
#0495a:0000000000000014
#05056:00240000000000000000530000000000
#0505b:0000000000530000
#05052:0000340000000013
#05057:0000000000000013
#0515b:00630000
#0515a:0000000000000014
#0525a:0000000000140000
#05252:0000000000000014
#05352:0000000000140014
#0535a:0000000000000014
#0545a:0000140000140064
#05452:0000140000140064
#05556:000000000000000000000000000000000000000000000000000000000000000000000000000000000000000000000000000000000000000000000000000000000000000000000000000000000000000000000000000000000000000000000000000000000000000000000000000000000000000000000000002300000000000000000000000000000000000000000000000000000000000000000000000000000000000000000000000000000000000000000000000000000000000000000000000000000000000000000000000000000000000000000000000000000000000000000000000000000000000000000000000000000000000000000000000000000000000000000000000000000000000000000000000000000000000000000000000000000000000000000000000000000000000000000000000000000000000000000000000000000000000000000000000000000000000000000000000000000000000000000000000000000000000000000000000000000000000000000000000000000000000000000000000000000000000000000000000000000000000000000000000000000000000000000000000000000000000000000000000000000000000000000000000000000000000000000000000000000000000000000000000000000000000000000000000000000000000000000000000000000000000000000000000000000000000000000000000000000000000000000000000000000000000000000000000000000000000000000000000000000000000000000000000000000000000000000000000000000000000000000000000000000000000000000000000000000000000000000000000000000000000000000000000000000000000000000000000000000000000000000000000000000000000000000000000000000000000000000000000000000000000000000000000000000000000000000000000000000000000000000000000000000000000000000000000000000000000000000000000000000000000000000000000000000000000000000000000000000000000000000000000000000000000000000000000000000000000000000000000000000000000000000000000000000000000000000000000000000000000000000000000000000000000000000000000000000000000000000000000000000000000000000000000000000000000000000000000000000000000000000000000000000000000000000000000000000000000000000000000000000000000000000000000000000000000000000000000000000000000000000000000000000000000000000000000000000000000000000000000000000000000000000000000000000000000000000000000000000000000000000000000000000000000000000000000000000000000000000000000000000000000000000000000000000000000000000000000000000000000000000000000000000000000000000000000000000000000000000000000000000000000000000000000000000000000000000000000000000000000000000000000000000000000000000000000000000000000000000000000000000000000000000000000000000000000000000000000000000000000000000000000000000000000000000000000000000000000000000000000000000000000000000000000000000000000000000000000000000000000000000000000000000000000000000000000000000000000000000000000000000000000000000000000000000000000000000000000000000000000000000000000000000000000000000000000000000000000000000000000000000000000000000000000000000000000000000000000000000000000000000000000000000000000000000000000000000000000000000000000000000000000000000000000000000000000000000000000000000000000000000000000000000000000000000000000000000000000000000000000000000000000000000000000000000000000000000000000000000000000000000000000000000000000000000000000000000000000000000000000000000000000000000000000000000000000000000000000000000000000000000000000000000000000000000000000000000000000000000000000000000000000000000000000000000000000000000000000000000000000000000000000000000000000000000000000000000000000000000000000000000000000000000000000000000000000000000000000000000000000000000000000000000000000000000000000000000000000000000000000000000000000000000000000000000000000000000000000000000000000000000000000000000000000000000000000000000000000000000000000000000000000000000000000000000000000000000000000000000000000000000000000000000000000000000000000000000000000000000000000000000000000000000000000000000000000000000000000000000000000000000000000000000000000000000000000000000000000000000000000000000000000000000000000000000000000000000000000000000000000000000000
#05557:00230000000000000000000000000000
#0555a:00140000
#05552:0000140000000064
#0565a:0000640000000054
#05655:00640000
#05652:0014
#05657:0014
#05757:00540000
#05752:0000540000000064
#0575a:0014
#05755:0014
#0585a:0000000000000044
#05952:0034000000000000
#0595a:0000004400000000
#05955:0000000063000013
#0595b:0000000000000013
#0645b:0000002200000000
#06458:0000000000000062
#06358:0000000000000062
#0655b:0000002200000000
#06558:0000000000000062
#06556:0000000000000052
#0665b:0000002200000000
#06653:0000002200000000
#06656:0000000000000052
#06658:0000000000000052
#06853:0000002200000000
#06856:0000000000000052
#06756:0000000000000052
#06953:0000002200000000
#06956:0000000000000052
#06958:0000000000000062
#07058:0000000000000062
#07056:0000000000000062
#0705b:0062
#07053:0052
#0725b:0000002200000000
#07254:0012
#07258:0000000000000062
#07158:0000000000000062
#0735b:0000002200000000
#07354:0012
#07356:0000000000000052
#07453:0000002200000000
#0745a:0012
#07456:0000000000000052
#07553:0000002200000000
#0755a:0012
#07654:0012
#0765a:0012
#0765c:0000000000000062
#07652:0000000000000052
#07758:0000000022000046
#07756:0022
#07752:0000000000000036
#0785a:00140000
#07852:00140000
#07858:0000000000000016
#07955:0000002600000000
#07958:0000660046000046
#07952:00000000000000000000003600000000
#08058:00160000
#08052:0000160000000054
#0805a:0000000000000014
#08156:00240000000000000000000000000000
#08152:0000340000000014
#0815a:0000000000000064
#0825b:0000000000530000
#08256:00240000000000000000530000000000
#08257:0000000000000013
#08252:0000000000000013
#0825a:00440000
#08456:00240000000000000000000000000000
#0845a:0000000000000064
#08452:0000340000000014
#08352:0000000000000054
#0835a:0000000000000014
#08556:00240000000000000000000000000000
#0855a:00440000
#08552:0000000000000064
#08557:0000000000000014
#08655:2414
#0865a:0000000054000014
#08657:0000000000240000
#08652:0000000000000064
#08756:24000023
#08752:0000140000640034
#0875a:0000000000640044
#08757:000000000000000000000000000000000000000000000000000000000000000000000000000000000000000000000000000000000000000000000000000000000000000000000000000000000000000000000000000000000000000000000000000000000000000000000000000000000000000000000000000000000000000000000000000000000000000000000000000000000000000000000000000000000000000000000000000000000000000000000000000000000000000000000000000000000000000000000000000000000000000000000000000000000000000000000000000000000000000000000000000000000000000000000000000000000000000000000000000000000000000000000000000000000000000000000000000000000000000000000000000000000000000000000000000000000000000000000000000000000000000000000000000000000000000000000000000000000000000000000000000000000000000000000000000000000000000000000000000000000000000000000000000000000000000000000000000000000000000000000000000000000000000000000000000000000000000000000000000000000000000000000000000000000000000000000000000000000000000000000000000000000000000000000000000000000000000000000000000000000000000000000000000000000000000000000000000000000000000000000000000000000000000000000000000000000000000000000000000000000000000000000000000000000000000000000000000000000000000000000000000000000000000000000000000000000000000000000000000000000000000000000000000000000000000000000000000000000000000000000000000000000000000000000000000000000000000000000000000000000000000000000000000000000000000000000000000000000000000000000000000000000000000000000000000000000000000000000000000000000000000000000000000000000000000000000000000000000000000000000000000000000000000000000000000000000000000000000000000000000000000000000000000000000000000000000000000000000000000000000000000000000000000000000000000000000000000000000000000000000000000000000000000000000000000000000000000000000000000000000000000000000000000000000000000000000000000000000000000000000000000000000000000000000000000000000000000000000000000000000000000000000000000000000000000000000000000000000000000000000000000000000000000000000000000000000000000000000000000000000000000000000000000000000000000000000000000000000000000000000000000000000000000000000000000000000000000000000000000000000000000000000000000000000000000000000000000000000000000000000000000000000000000000000000000000000000000000000000000000000000000000000000000000000000000000000000000000000000000000000000000000000000000000000000000000000000000000000000000000000000000000000000000000000000000000000000000000000000000000000000000000000000000000000000000000000000000000000000000000000000000000000000000000000000000000000000000000000000000000000000000000000000000000000000000000000000000000000000000000000000000000000000000000000000000000000000000000000000000000000000000000000000000000000000000000000000000000000000000000000000000000000000000000000000000000000000000000000000000000000000000000000000000000000000000000000000000000000000000000000000002300000000000000000000000000000000000000000000000000000000000000000000000000000000000000000000000000000000000000000000000000000000000000000000000000000000000000000000000000000000000000000000000000000000000000000000000000000000000000000000000000000000000000000000000000000000000000000000000000000000000000000000000000000000000000000000000000000000000000000000000000000000000000000000000000000000000000000000000000000000000000000000000000000000000000000000000000000000000000000000000000000000000000000000000000000000000000000000000000000000000000000000000000000000000000000000000000000000000000000000000000000000000000000000000000000000000000000000000000000000000000000000000000000000000000000000000000000000000000000000000000000000000000000000000000000000000000000000000000000000000000000000000000000000000000000000000000000000000000000000000000000000000000000000000000000000000000000000000000000000000000000000000000000000000000000000000000000000000000000000
#0885a:00141414
#08952:14141414
#0905a:1400140014000014
#09052:0000000000000014
#09152:00530000
#09156:0000000000000014
#0915a:0000000000000064
#09256:00240000000000000000140000001400
#0925a:0000000000640000
#09252:0000000000000054
#0945a:0000140000140054
#09452:0000140000140054
#09556:00230000000000000000000000000000
#09557:000000000000000000000000000000000000000000000000000000000000000000000000000000000000000000000000000000000000000000000000000000000000000000000000000000000000000000000000000000000000000000000000000000000000000000000000000000000000000000000000002300000000000000000000000000000000000000000000000000000000000000000000000000000000000000000000000000000000000000000000000000000000000000000000000000000000000000000000000000000000000000000000000000000000000000000000000000000000000000000000000000000000000000000000000000000000000000000000000000000000000000000000000000000000000000000000000000000000000000000000000000000000000000000000000000000000000000000000000000000000000000000000000000000000000000000000000000000000000000000000000000000000000000000000000000000000000000000000000000000000000000000000000000000000000000000000000000000000000000000000000000000000000000000000000000000000000000000000000000000000000000000000000000000000000000000000000000000000000000000000000000000000000000000000000000000000000000000000000000000000000000000000000000000000000000000000000000000000000000000000000000000000000000000000000000000000000000000000000000000000000000000000000000000000000000000000000000000000000000000000000000000000000000000000000000000000000000000000000000000000000000000000000000000000000000000000000000000000000000000000000000000000000000000000000000000000000000000000000000000000000000000000000000000000000000000000000000000000000000000000000000000000000000000000000000000000000000000000000000000000000000000000000000000000000000000000000000000000000000000000000000000000000000000000000000000000000000000000000000000000000000000000000000000000000000000000000000000000000000000000000000000000000000000000000000000000000000000000000000000000000000000000000000000000000000000000000000000000000000000000000000000000000000000000000000000000000000000000000000000000000000000000000000000000000000000000000000000000000000000000000000000000000000000000000000000000000000000000000000000000000000000000000000000000000000000000000000000000000000000000000000000000000000000000000000000000000000000000000000000000000000000000000000000000000000000000000000000000000000000000000000000000000000000000000000000000000000000000000000000000000000000000000000000000000000000000000000000000000000000000000000000000000000000000000000000000000000000000000000000000000000000000000000000000000000000000000000000000000000000000000000000000000000000000000000000000000000000000000000000000000000000000000000000000000000000000000000000000000000000000000000000000000000000000000000000000000000000000000000000000000000000000000000000000000000000000000000000000000000000000000000000000000000000000000000000000000000000000000000000000000000000000000000000000000000000000000000000000000000000000000000000000000000000000000000000000000000000000000000000000000000000000000000000000000000000000000000000000000000000000000000000000000000000000000000000000000000000000000000000000000000000000000000000000000000000000000000000000000000000000000000000000000000000000000000000000000000000000000000000000000000000000000000000000000000000000000000000000000000000000000000000000000000000000000000000000000000000000000000000000000000000000000000000000000000000000000000000000000000000000000000000000000000000000000000000000000000000000000000000000000000000000000000000000000000000000000000000000000000000000000000000000000000000000000000000000000000000000000000000000000000000000000000000000000000000000000000000000000000000000000000000000000000000000000000000000000000000000000000000000000000000000000000000000000000000000000000000000000000000000000000000000000000000000000000000000000000000000000000000000000000000000000000000000000000000000000000000000000000000000000000000000000000000000000000000000000000000000000000000000000000000000000000000000000000000000000000000000000000000000
#09552:00140000
#0955a:00140000
#09356:00240000000000000000140000001400
#09352:0000000000540000
#0965a:0000000000000054
#09652:0000000000000014
#09654:14
#09658:14
#09757:00240000000000000000000000000000
#09852:1400000000000064
#0985a:1400000000000014
#09955:00240000000000000000000000000000
#1005a:1400000000000054
#10052:1400000000000014
#10157:00240000000000000000000000000000
#10252:1400000000000064
#1025a:1400000000000014
#10355:00240000000000000000000000000000
#10552:00630013
#1065b:1300000000000063
#10652:0000005300000000
#10656:00000013
#10757:00000000002300000000000000000000
#10752:00130000
#10756:00000013
#1105b:53
#11052:0000006300000000
#11056:1300000000000013
#11057:0000001300000000
#1105a:0000000000000054
#10452:1514
#10459:15
#1045b:0000000000000053
#10859:15
#10852:1500000000000063
#1085a:0014
#1095b:00530000
#1115a:0000000000140000
#11152:0000000000140000
#06252:0000000000000064
#0625a:0000000000000064
#06152:0000000000000014
#001340:00122200
#002360:0000000000000012
#003340:0022
#0053a0:00122200
#006380:0000000000000012
#0073a0:0022
#009340:00122200
#010360:0000000000000012
#011340:0022
#013340:0012000022000000
#0133a1:00122200
#014321:14
#014351:00240000
#0143a1:0000001400000000
#014371:0000000000240000
#014321:0000000000000014
#015361:00000054000000000000000000000000
#015321:00003424
#0153a0:00001424
#016320:0000000000000014
#017350:00540000000000000000000000000000
#017320:00240000
#0183a0:0000000000000014
#019370:00540000000000000000000000000000
#0193a0:00240000
#020320:0000000000000014
#021350:00540000000000000000000000000000
#021320:00240000
#0223a0:0000000000000014
#023370:00540000000000000000000000000000
#0233a0:00240000
#024320:0000000000000013
#025360:0023000000000000
#0253b0:00130000
#025370:0023
#026360:0000001300000000
#026320:0000000000230000
#026370:0000000000000013
#0273b0:00000000005300000000000000000000
#027370:00000023
#0283b0:0000000000000013
#029370:0023000000000000
#029320:00130000
#029360:0023
#030320:13
#030360:00230000
#0303b0:0000001300000000
#030370:0000000000230000
#030320:0000000000000014
#031360:00240000
#031320:0000000000140034
#032350:0024
#0323a0:0000000000000014
#033370:0024
#033320:0000000000000014
#034350:0024
#034320:0000000000001434
#035350:0023000000000000
#0343a1:0000000000000014
#035381:0023000000000000
#0393a1:0000000000000014
#040381:00540000000000000000000000000000
#0403a1:00240000
#0403a1:0000000000000014
#041371:00540000000000000000000000000000
#0413a1:00240000
#0413a1:0000000000000014
#042361:00540000000000000000000000000000
#0423a1:00240000
#042321:0000000000130000
#042361:0000000000000023
#042370:0000000000130000
#0423b0:0000000000000023
#043320:0000000000000014
#044340:00540000000000000000000000000000
#044320:00240000
#044320:0000000000000014
#045350:00540000000000000000000000000000
#045320:00240000
#045320:0000000000000000000000000000000000000000000000000000000015000055
#045330:000000000000000000000000000000000000000000000000000000000000000000000000000000000000000000000000000000000000000000000000000000000000000000000000000000000000000000000000000000000000000000000000000000000000000000000000000000000000000000000000000000000000000000000000000000000000000000000000000000000000000000000000000000000000000000000000000000000000000000000000000000000000000000000000000000000000000000000000000000000000000000000000000000000000000000000000000000000000000000000000000000000000000000000000000000000000000000000000000000000000000000000000000000000000000000000000000000000000000000000000000000000000000000000000000000000000000000000000000000000000000000000000000000000000000000000000000000000000000000000000000000000000000000000000000000000000000000000000000000000000000000000000000000000000000000000000000000000000000000000000000000000000000000000000000000000000000000000000000000000000000000000000000000000000000000000000000000000000000000000000000000000000000000000000000000000000000000000000000000000000000000000000000000000000000000000000000000000000000000000000000000000000000000000000000000000000000000000000000000000000000000000000000000000000000000000000000000000000000000000000000000000000000000000000000000000000000000000000000000000000000000000000000000000000000000000000000000000000000000000000000000000000000000000000000000000000000000000000000000000000000000000000000000000000000000000000000000000000000000000000000000000000000000000000000000000000000000000000000000000000000000000000000000000000000000000000000000000000000000000000000000000000000000000000000000000000000000000000000000000000000000000000000000000000000000000000000000000000000000000000000000000000000000000000000000000000000000000000000000000000000000000000000000000000000000000000000000000000000000000000000000000000000000000000000000000000000000000000000000000000000000000000000000000000000000000000000000000000000000000000000000000000000000000000000000000000000000000000000000000000000000000000000000000000000000000000000000000000000000000000000000000000000000000000000000000000000000000000000000000000000000000000000000000000000000000000000000000000000000000000000000000000000000000000000000000000000000000000000000000000000000000000000000000000000000000000000000000000000000000000000000000000000000000000000000000000000000000000000000000000000000000000000000000000000000000000000000000000000000000000000000000000000000000000000000000000000000000000000000000000000000000000000000000000000000000000000000000000000000000000000000000000000000000000000000000000000000000000000000000000000000000000000000000000000000000000000000000000000000000000000000000000000000000000000000000000000000000000000000000000000000000000000000000000000000000000000000000000000000000000000000000000000000000000000000000000000000000000000000000000000000000000000000000000000000000000000000000000000000000000000000000000000000000000000000000000000000000000000000000000000000000000000000000000000000000000000000000000000000000000000000000000000000000000000000000000000000000000000000000000000000000000000000000000000000000000000000000000000000000000000000000000000000000000000000000000000000000000000000000000000000000000000000000000000000000000000000000000000000000000000000000000000000000000000000000000000000000000000000000000000000000000000000000000000000000000000000000000000000000000000000000000000000000000000000000000000000000000000000000000000000000000000000000000000000000000000000000000000000000000000000000000000000000000000000000000000000000000000000000000000000000000000000000000000000000000000000000000000000000000000000000000000000000000000000000000000000000000000000000000000000000000000000000000000000000000000000000000000000000000005300000000000000000000000000000000000000000000000000000000000000000000000000000000000000000000000000000000000000000000
#046330:000000000000000000000000000000000000000000000000000000000000000000000000000000000000000000000000000000000000000000000000000000000000000000000000000000000000000000000000000000000000000000000000000000000000000000000000000000000000000000000000000000000000000000000000000000000000000000000000000000000000000000000000000000000000000000000000000000000000000000000000000000000000000000000000000000000000000000000000000000000000000000000000000000000000000000000000000000000000000000000000000000000000000000000000000000000000000000000000000000000000000000000000000000000000000000000000000000000000000000000053000000000000000000000000000000000000000000000000000000000000000000000000000000000000000000000000000000000000000000000000000000000000000000000000000000000000000000000000000000000000000000000000000000000000000000000000000000000000000000000000000000000000000000000000000000000000000000000000000000000000000000000000000000000000000000000000000000000000000000000000000000000000000000000000000000000000000000000000000000000000000000000000000000000000000000000000000000000000000000000000000000000000000000000000000000000000000000000000000000000000000000000000000000000000000000000000000000000000000000000000000000000000000000000000000000000000000000000000000000000000000000000000000000000000000000000000000000000000000000000000000000000000000000000000000000000000000000000000000000000000000000000000000000000000000000000000000000000000000000000000000000000000000000000000000000000000000000000000000000000000000000000000000000000000000000000000000000000000000000000000000000000000000000000000000000000000000000000000000000000000000000000000000000000000000000000000000000000000000000000000000000000000000000000000000000000000000000000000000000000000000000000000000000000000000000000000000000000000000000000000000000000000000000000000000000000000000000000000000000000000000000000000000000000000000000000000000000000000000000000000000000000000000000000000000000000000000000000000000000000000000000000000000000000000000000000000000000000000000000000000000000000000000000000000000000000000000000000000000000000000000000000000000000000000000000000000000000000000000000000000000000000000000000000000000000000000000000000000000000000000000000000000000000000000000000000000000000000000000000000000000000000000000000000000000000000000000000000000000000000000000000000000000000000000000000000000000000000000000000000000000000000000000000000000000000000000000000000000000000000000000000000000000000000000000000000000000000000000000000000000000000000000000000000000000000000000000000000000000000000000000000000000000000000000000000000000000000000000000000000000000000000000000000000000000000000000000000000000000000000000000000000000000000000000000000000000000000000000000000000000000000000000000000000000000000000000000000000000000000000000000000000000000000000000000000000000000000000000000000000000000000000000000000000000000000000000000000000000000000000000000000000000000000000000000000000000000000000000000000000000000000000000000000000000000000000000000000000000000000000000000000000000000000000000000000000000000000000000000000000000000000000000000000000000000000000000000000000000000000000000000000000000000000000000000000000000000000000000000000000000000000000000000000000000000000000000000000000000000000000000000000000000000000000000000000000000000000000000000000000000000000000000000000000000000000000000000000000000000000000000000000000000000000000000000000000000000000000000000000000000000000000000000000000000000000000000000000000000000000000000000000000000000000000000000000000000000000000000000000000000000000000000000000000000000000000000000000000000000000000000000000000000000000000000000000000000000000000000000000000000000000000000000000000000000000000000000000000000000000000000000000000000000000000000000000000000000000000000000000000000
#046320:0000000000550000250000000000000000000000000000000000000000000000
#046380:0000000014562400
#046390:0000000000000014
#047370:00530000000000000000000000000000
#047390:00240000
#046331:0000000000000014
#047331:00240000
#047321:0000000000000014
#048341:00540000000000000000000000000000
#048321:00240000
#048321:0000000000000014
#049351:00540000000000000000000000000000
#049321:00240000
#049321:0000000000000014
#050361:00540000000000000000000000000000
#050321:00240000
#0503b1:0000000000130000
#050371:0000000000000023
#050360:0000000000130000
#050320:0000000000000023
#0513b0:00130000
#051370:0023
#051320:0000000000000014
#052320:0000000000000024
#0523a1:0000000000000014
#0533a1:0000000000000024
#0543a1:0000000000000014
#055371:00530000000000000000000000000000
#0553a1:00240000
#054320:0000000000000014
#055360:000000000000000000000000000000000000000000000000000000000000000000000000000000000000000000000000000000000000000000000000000000000000000000000000000000000000000000000000000000000000000000000000000000000000000000000000000000000000000000000000005300000000000000000000000000000000000000000000000000000000000000000000000000000000000000000000000000000000000000000000000000000000000000000000000000000000000000000000000000000000000000000000000000000000000000000000000000000000000000000000000000000000000000000000000000000000000000000000000000000000000000000000000000000000000000000000000000000000000000000000000000000000000000000000000000000000000000000000000000000000000000000000000000000000000000000000000000000000000000000000000000000000000000000000000000000000000000000000000000000000000000000000000000000000000000000000000000000000000000000000000000000000000000000000000000000000000000000000000000000000000000000000000000000000000000000000000000000000000000000000000000000000000000000000000000000000000000000000000000000000000000000000000000000000000000000000000000000000000000000000000000000000000000000000000000000000000000000000000000000000000000000000000000000000000000000000000000000000000000000000000000000000000000000000000000000000000000000000000000000000000000000000000000000000000000000000000000000000000000000000000000000000000000000000000000000000000000000000000000000000000000000000000000000000000000000000000000000000000000000000000000000000000000000000000000000000000000000000000000000000000000000000000000000000000000000000000000000000000000000000000000000000000000000000000000000000000000000000000000000000000000000000000000000000000000000000000000000000000000000000000000000000000000000000000000000000000000000000000000000000000000000000000000000000000000000000000000000000000000000000000000000000000000000000000000000000000000000000000000000000000000000000000000000000000000000000000000000000000000000000000000000000000000000000000000000000000000000000000000000000000000000000000000000000000000000000000000000000000000000000000000000000000000000000000000000000000000000000000000000000000000000000000000000000000000000000000000000000000000000000000000000000000000000000000000000000000000000000000000000000000000000000000000000000000000000000000000000000000000000000000000000000000000000000000000000000000000000000000000000000000000000000000000000000000000000000000000000000000000000000000000000000000000000000000000000000000000000000000000000000000000000000000000000000000000000000000000000000000000000000000000000000000000000000000000000000000000000000000000000000000000000000000000000000000000000000000000000000000000000000000000000000000000000000000000000000000000000000000000000000000000000000000000000000000000000000000000000000000000000000000000000000000000000000000000000000000000000000000000000000000000000000000000000000000000000000000000000000000000000000000000000000000000000000000000000000000000000000000000000000000000000000000000000000000000000000000000000000000000000000000000000000000000000000000000000000000000000000000000000000000000000000000000000000000000000000000000000000000000000000000000000000000000000000000000000000000000000000000000000000000000000000000000000000000000000000000000000000000000000000000000000000000000000000000000000000000000000000000000000000000000000000000000000000000000000000000000000000000000000000000000000000000000000000000000000000000000000000000000000000000000000000000000000000000000000000000000000000000000000000000000000000000000000000000000000000000000000000000000000000000000000000000000000000000000000000000000000000000000000000000000000000000000000000000000000000000000000000000000000000000000000000000000000000000000000000000000000000000000000000000000000000000000000000000000000000000000000000000000000000000000000000000000000000000000000000000000000000000000000000
#055320:00240000
#055320:0000000000000014
#056350:00340000
#056320:0024
#0563a1:00140000
#056371:0024
#0563a1:0000000000000014
#057371:00340000
#0573a1:0024
#057320:00140000
#057350:0024
#057320:0000000000000014
#058350:0024000000000000
#059350:0013
#059320:00000023
#062320:0000000000000014
#063360:0000000000000022
#0623a1:0000000000000014
#063381:0000000000000032
#0643b1:0000325232000000
#064381:0000000000000032
#0653b1:0000325232000000
#065381:0000000000000032
#0663b1:0000325232000000
#066381:0000000000000032
#0673c1:00322200
#065360:0000000000000012
#066330:0000325232000000
#066360:0000000000000032
#067320:00322200
#067360:0000000000000012
#068330:0000325232000000
#068360:0000000000000032
#069330:0000325232000000
#069360:0000000000000032
#070330:0032
#070360:0000000000000032
#071320:00322200
#069381:0000000000000012
#0703b1:0032
#070381:0000000000000032
#0713c1:00322200
#071381:0000000000000012
#0723b1:0000325232000000
#072381:0000000000000032
#0733b1:0000325232000000
#073381:0000000000000022
#073360:0000000000000012
#074330:0000325232000000
#074360:0000000000000032
#075330:0000325232000000
#075360:0000000000000022
#0763c0:0000000000000012
#077380:0000000052000026
#076321:0000000000000012
#077361:0052
#077321:0000000000000026
#079381:00162600
#079351:0000005600000000
#080321:0000000000000014
#081361:00540000000000000000000000000000
#081321:00240000
#0813a1:0000000000000014
#082361:00540000000000000000000000000000
#0823a1:00240000
#0823b1:0000000000130000
#082371:0000000000000023
#082360:0000000000130000
#082320:0000000000000023
#083320:0000000000000014
#084360:00540000000000000000000000000000
#084320:00240000
#0843a0:0000000000000014
#085360:00540000000000000000000000000000
#0853a0:00240000
#085320:0000000000000014
#086350:54
#086320:00240000
#0863a0:0000000014000024
#086370:0000000000540000
#086321:0000000000000014
#087361:54
#087321:00240000
#0873a1:0000000000140024
#087371:000000000000000000000000000000000000000000000000000000000000000000000000000000000000000000000000000000000000000000000000000000000000000000000000000000000000000000000000000000000000000000000000000000000000000000000000000000000000000000000000000000000000000000000000000000000000000000000000000000000000000000000000000000000000000000000000000000000000000000000000000000000000000000000000000000000000000000000000000000000000000000000000000000000000000000000000000000000000000000000000000000000000000000000000000000000000000000000000000000000000000000000000000000000000000000000000000000000000000000000000000000000000000000000000000000000000000000000000000000000000000000000000000000000000000000000000000000000000000000000000000000000000000000000000000000000000000000000000000000000000000000000000000000000000000000000000000000000000000000000000000000000000000000000000000000000000000000000000000000000000000000000000000000000000000000000000000000000000000000000000000000000000000000000000000000000000000000000000000000000000000000000000000000000000000000000000000000000000000000000000000000000000000000000000000000000000000000000000000000000000000000000000000000000000000000000000000000000000000000000000000000000000000000000000000000000000000000000000000000000000000000000000000000000000000000000000000000000000000000000000000000000000000000000000000000000000000000000000000000000000000000000000000000000000000000000000000000000000000000000000000000000000000000000000000000000000000000000000000000000000000000000000000000000000000000000000000000000000000000000000000000000000000000000000000000000000000000000000000000000000000000000000000000000000000000000000000000000000000000000000000000000000000000000000000000000000000000000000000000000000000000000000000000000000000000000000000000000000000000000000000000000000000000000000000000000000000000000000000000000000000000000000000000000000000000000000000000000000000000000000000000000000000000000000000000000000000000000000000000000000000000000000000000000000000000000000000000000000000000000000000000000000000000000000000000000000000000000000000000000000000000000000000000000000000000000000000000000000000000000000000000000000000000000000000000000000000000000000000000000000000000000000000000000000000000000000000000000000000000000000000000000000000000000000000000000000000000000000000000000000000000000000000000000000000000000000000000000000000000000000000000000000000000000000000000000000000000000000000000000000000000000000000000000000000000000000000000000000000000000000000000000000000000000000000000000000000000000000000000000000000000000000000000000000000000000000000000000000000000000000000000000000000000000000000000000000000000000000000000000000000000000000000000000000000000000000000000000000000000000000000000000000000000000000000000000000000000000000000000000000000000000000000000000000000000000000000000000000000000000000005300000000000000000000000000000000000000000000000000000000000000000000000000000000000000000000000000000000000000000000000000000000000000000000000000000000000000000000000000000000000000000000000000000000000000000000000000000000000000000000000000000000000000000000000000000000000000000000000000000000000000000000000000000000000000000000000000000000000000000000000000000000000000000000000000000000000000000000000000000000000000000000000000000000000000000000000000000000000000000000000000000000000000000000000000000000000000000000000000000000000000000000000000000000000000000000000000000000000000000000000000000000000000000000000000000000000000000000000000000000000000000000000000000000000000000000000000000000000000000000000000000000000000000000000000000000000000000000000000000000000000000000000000000000000000000000000000000000000000000000000000000000000000000000000000000000000000000000000000000000000000000000000000000000000000000000000000000000000000000000
#087320:0000000000140024
#087360:00000053
#091320:00130000
#091360:0023
#0913a0:0000000000000014
#092360:00540000000000000000000000002400
#0923a0:0000340034340000
#092321:0000000000000014
#093361:00540000000000000000000000002400
#093321:0000340034340000
#094321:0000000000000014
#095361:00530000000000000000000000000000
#095321:00240000
#0943a0:0000000000000014
#095370:000000000000000000000000000000000000000000000000000000000000000000000000000000000000000000000000000000000000000000000000000000000000000000000000000000000000000000000000000000000000000000000000000000000000000000000000000000000000000000000000005300000000000000000000000000000000000000000000000000000000000000000000000000000000000000000000000000000000000000000000000000000000000000000000000000000000000000000000000000000000000000000000000000000000000000000000000000000000000000000000000000000000000000000000000000000000000000000000000000000000000000000000000000000000000000000000000000000000000000000000000000000000000000000000000000000000000000000000000000000000000000000000000000000000000000000000000000000000000000000000000000000000000000000000000000000000000000000000000000000000000000000000000000000000000000000000000000000000000000000000000000000000000000000000000000000000000000000000000000000000000000000000000000000000000000000000000000000000000000000000000000000000000000000000000000000000000000000000000000000000000000000000000000000000000000000000000000000000000000000000000000000000000000000000000000000000000000000000000000000000000000000000000000000000000000000000000000000000000000000000000000000000000000000000000000000000000000000000000000000000000000000000000000000000000000000000000000000000000000000000000000000000000000000000000000000000000000000000000000000000000000000000000000000000000000000000000000000000000000000000000000000000000000000000000000000000000000000000000000000000000000000000000000000000000000000000000000000000000000000000000000000000000000000000000000000000000000000000000000000000000000000000000000000000000000000000000000000000000000000000000000000000000000000000000000000000000000000000000000000000000000000000000000000000000000000000000000000000000000000000000000000000000000000000000000000000000000000000000000000000000000000000000000000000000000000000000000000000000000000000000000000000000000000000000000000000000000000000000000000000000000000000000000000000000000000000000000000000000000000000000000000000000000000000000000000000000000000000000000000000000000000000000000000000000000000000000000000000000000000000000000000000000000000000000000000000000000000000000000000000000000000000000000000000000000000000000000000000000000000000000000000000000000000000000000000000000000000000000000000000000000000000000000000000000000000000000000000000000000000000000000000000000000000000000000000000000000000000000000000000000000000000000000000000000000000000000000000000000000000000000000000000000000000000000000000000000000000000000000000000000000000000000000000000000000000000000000000000000000000000000000000000000000000000000000000000000000000000000000000000000000000000000000000000000000000000000000000000000000000000000000000000000000000000000000000000000000000000000000000000000000000000000000000000000000000000000000000000000000000000000000000000000000000000000000000000000000000000000000000000000000000000000000000000000000000000000000000000000000000000000000000000000000000000000000000000000000000000000000000000000000000000000000000000000000000000000000000000000000000000000000000000000000000000000000000000000000000000000000000000000000000000000000000000000000000000000000000000000000000000000000000000000000000000000000000000000000000000000000000000000000000000000000000000000000000000000000000000000000000000000000000000000000000000000000000000000000000000000000000000000000000000000000000000000000000000000000000000000000000000000000000000000000000000000000000000000000000000000000000000000000000000000000000000000000000000000000000000000000000000000000000000000000000000000000000000000000000000000000000000000000000000000000000000000000000000000000000000000000000000000000000000000000000000000000000000000000000000000000000000000000000000000000000000000000000000000000000000000000000000
#0953a0:00240000
#0963a0:0000000000000014
#097370:00540000000000000000000000000000
#0973a0:00240000
#098320:0000000000000014
#099350:00540000000000000000000000000000
#099320:00240000
#1003a0:0000000000000014
#101370:00540000000000000000000000000000
#1013a0:00240000
#102320:0000000000000014
#103350:00540000000000000000000000000000
#103320:00240000
#1043b0:0000000000000013
#105370:0023000000000000
#105320:00130000
#105360:0023
#106320:0000001300000000
#106360:0000000000230000
#1063b0:0000000000000013
#107370:00000000005300000000000000000000
#1073b0:00000023
#108320:0000000000000013
#109360:0023000000000000
#1093b0:00130000
#109370:0023
#1103b0:13
#110370:00230000
#110320:0000001300000000
#110360:0000000000230000
#1103a0:0000000000000014
#111360:0024000000000000
#0609b0:00000013
#060970:000000000000000000000023
#061920:13
#061960:002300000000
#0619b0:00130000
#061970:000000000023000000000000
#061920:0013
#061960:000023
#080970:0013
#0809b0:0000000000000000000000000000000000230000000000000000000000000000
#080960:0000000000130000
#080920:0000000000000000000000000000000000000000002300000000000000000000
