This file was generated by Ched 2.7.0.0.
#TITLE ""
#ARTIST ""
#DESIGNER ""
#DIFFICULTY 0
#PLAYLEVEL
#SONGID ""
#WAVE ""
#WAVEOFFSET 0
#JACKET ""
#REQUEST "ticks_per_beat 480"
#00002: 4
#BPM01: 204
#00008: 01
#TIL00: "0'0:1"
#VOLUME: ""
#HISPEED 00
#MEASUREHS 00
#00014:00120000
#00018:0000001200000000
#00016:0012
#0001a:0000000000001212
#00114:0012120000000000
#0011a:00000012
#0041a:00120000
#00416:0000001200000000
#00418:0012
#00414:0000000000001212
#0051a:0012120000000000
#00514:00000012
#00216:12120000
#0021a:0000001200000000
#00214:0000000000120000
#00218:00000012
#00618:12120000
#00614:0000001200000000
#0061a:0000000000120000
#00616:00000012
#00816:0000120000000012
#0081a:0000001200000000
#00814:0012
#00818:00000012
#0091a:0012000000000000
#00914:00120000
#00918:00000012
#01016:1200000000120000
#01014:00120000
#0101a:0000001200001200
#01218:0000120000000012
#01214:0000001200000000
#0121a:0012
#01216:00000012
#01314:0012000000001300
#0131a:00120000
#01319:00000013
#01418:0000130000130000
#01415:00000013
#0141a:2400000000000024
#01412:2400002400000000
#01517:00000014000000000000000000000000
#01512:00000014
#01615:00131300
#0161b:0000000000130000
#0161a:24
#01610:41
#01712:0013
#01718:0013
#01715:00000013
#0171b:00000013
#01812:1400000000130000
#01818:00131300
#0191b:0013
#01915:0013
#01918:00000013
#01912:00000013
#0201a:14
#02015:00130000
#02018:0013
#02012:0000000000130000
#02112:0013
#02118:0013
#02115:00000013
#0211b:00000013
#02212:14
#02218:00130000
#02215:0013
#0221b:0000000000130000
#0231b:0013
#02315:0013
#02318:00000013
#02312:00000013
#02412:00131313
#02418:0000001300000013
#0241a:24
#02515:0013000000000000
#0251b:00130000
#02512:00000013
#02518:00000013
#0261b:13130000
#02615:1300001300000000
#02618:0000000000130013
#02612:00000013
#0271b:00000000001300000000000000000000
#02812:14
#0281b:00131313
#02815:0000001300000013
#02918:0013000000000000
#02912:00130000
#0291b:00000013
#02915:00000013
#03015:0000130000130000
#03018:00000013
#03012:2400000000000024
#0301a:2400002400000000
#03115:00000014000000000000000000000000
#0311a:0024
#03110:0000000000000041
#03212:0000130000000013
#03218:00000013
#03215:0023
#0321b:0023
#0331b:00002313
#03315:0000000023000013
#0341b:00000013
#03415:0000000000000013
#03418:0023
#03412:0023
#03518:1313
#03512:0013000000000023
#03515:00000013
#0351b:0000000000000023
#03618:0013000000130000
#03615:00130000
#03612:0000000000000023
#0361b:0000000000000023
#03715:0013000000130000
#03718:00130000
#03712:0000000000000023
#0371b:0000000000000023
#03815:0013001300000000
#03818:00131300
#0381b:0000000000001313
#03812:0000000000001313
#03915:00130000
#0391b:0013
#03912:0000000000130023
#03917:0000000000000023
#03910:0000000000000041
#0401b:0000000013000023
#04016:0000000000130023
#04712:0000130000130000
#0471b:0000000013000023
#04715:0013
#04718:0000000000130000
#04716:0000000000000023
#0501b:0000000000000013
#05012:0000000013130013
#05017:0000000013130000
#04812:0000000013130023
#04817:0000000013130023
#0491b:0000000013130023
#04916:0000000013130023
#05112:0000130000000023
#05118:0000130000000023
#0511b:0000000013130000
#05115:0000000013130000
#05215:00130000
#0521b:00130000
#05212:0000000013130000
#05218:0000000013130000
#05318:00130000
#05312:00130000
#0531b:0000000013130000
#05315:0000000013130000
#05517:00000014000000000000000000000000
#05512:00000014000000000000000000001300
#05510:0000000000000041
#0561b:0000000000000013
#05712:0000000000000013
#0581b:00131313
#05815:0000001300130013
#0591b:0013000000001300
#05912:0000001300000000
#05915:0000000013000023
#05918:0000000000130000
#0601b:0013001300000013
#06015:00130000
#06012:00001313
#06018:0000000000130000
#06115:13000013
#0611b:0013000000130000
#06112:00131300
#06118:0000001300000023
#06212:0013000013130013
#06215:00130000
#06218:0000001300000000
#0621b:0000000013130013
#0621f:0000000000000011
#07118:0000130000130000
#07115:00001313
#07215:00001313
#07218:0000000000130000
#07315:0013
#07318:0000000000130000
#07418:0013
#07415:0000000000130000
#07512:0013
#07518:0000000000130000
#0761b:0013
#07615:0000000000130000
#07715:0013
#07718:0000000000130000
#07712:0000000000000024
#0771a:0000000000000024
#0771f:0000000000000021
#0781a:0014240000000000
#07812:0014240000000000
#07815:000000000000001300000000
#07818:000000000000001300000000
#07919:000000130000000023000000
#07914:000000130000000023000000
#07912:000000230023
#0791b:000000230023
#08018:0013
#08015:0000000000130000
#08012:0000000000000023
#08017:0000000000000023
#08010:00410000
#04618:00000014000000000000000000000000
#04614:00000014000000000000000000000000
#0461a:0014
#04612:0014
#04516:0000000000130000
#0451b:0013
#0451a:0000000000000024
#04512:0000000000000024
#04417:0000000000130023
#04412:0000000013000023
#0431b:0000000000130023
#04312:0013
#04318:00130000
#04316:0000000000000023
#0421b:0000000013000013
#04212:0000000000000013
#04216:0000000000130000
#04117:0000000000130023
#04112:0000000013000023
#0811b:00130000000000001300000000002300
#08116:00130000000000000000130000002300
#08212:00130000000000001300000000001400
#08217:00130000000000000000130000000000
#0821a:0000000000000014
#08315:00130000
#0831b:0013
#08312:0000000000130023
#08317:0000000000000023
#0841b:00130000000000001300000000002300
#08416:00130000000000000000130000002300
#08512:00130000000000001300000000000000
#08517:00130000000000000000130000000000
#08514:0000000000000024
#08518:0000000000000024
#08614:0014
#08618:0014
#08612:00000014000000000000000000000000
#0861a:00000014000000000000000000000000
#0871a:0000140014000024
#08715:0000001400240000
#08812:0000140014000024
#08817:0000001400240000
#08918:00141400
#08914:0000001400240000
#0891a:0000000000000024
#08912:0000000000000024
#09019:00001313
#09014:00001313
#0901a:0000240000000024
#09012:0000240000000024
#0911b:0000130000130000
#09115:0000130000130000
#09112:0000000013000023
#09118:0000000013000023
#09218:0000130000130000
#09212:0000130000130000
#0921b:0000000013000023
#09215:0000000013000023
#09315:0000130000130000
#0931b:0000130000130000
#09312:0000000013000023
#09318:0000000013000023
#09515:00000014000000000000000000000000
#0951a:00000014000000000000000000000000
#09615:00131300
#0961b:0000130000130000
#0961a:24
#09612:24
#09712:0013
#09718:0013
#09715:00000013
#0971b:00000013
#09812:1400130000130000
#09818:00131300
#0981a:14
#0991b:0013
#09915:0013
#09918:00000013
#09912:00000013
#10015:00130000
#10018:0013
#10012:1400000000130000
#1001a:14
#1001b:00130000
#10112:0013
#10118:0013
#10115:00000013
#1011b:00000013
#10218:00130000
#10215:0013
#1021b:0000000000130000
#10212:14130000
#1021a:14
#1031b:0013
#10315:0013
#10318:00000013
#10312:00000013
#10412:2400131300001300
#10418:0000000013000013
#1041a:24
#10410:41
#10515:0013000000000000
#1051b:00130000
#10512:00000013
#10518:00000013
#1061b:1300130000000013
#10615:1300001300000000
#10618:0000000000130000
#10612:00000013
#1081a:14
#1081b:0000131300001300
#10815:0000000013000013
#10812:14
#10918:0013000000000000
#10912:00130000
#1091b:00000013
#10915:00000013
#11015:0000130000130000
#11018:00000013
#11012:2400000000000024
#1101a:2400002400000000
#10717:00000000001300000000000000000000
#11118:0016001600260000
#11112:00162600
#0541a:0024240000000024
#05415:0024240000000024
#05412:0000000024240000
#05417:0000000024240000
#09412:0024240000000024
#09417:0024240000000024
#0941a:0000000024240000
#09415:0000000024240000
#01452:1400001400000000
#0145a:1400000000000064
#01557:00000024000000000000000000000000
#01552:00000014
#0165a:14
#01852:14
#0205a:14
#02252:14
#0245a:14
#02458:0000000000000013
#0255b:00530000
#02658:0000000000000063
#0275b:00000000002300000000000000000000
#02855:0000000000000013
#02952:00630000
#03155:00000024000000000000000000000000
#03152:0000000000000014
#0315a:0000000000000014
#03052:1400000000000054
#0305a:1400001400000000
#03252:0000000000000063
#03355:0000000000000053
#03552:0013000000000000
#03655:00630000
#03758:00530000
#03858:0013
#03852:0000000000000013
#0385b:0000000000000013
#03952:0000000000000063
#03957:0000000000000063
#0405b:0000130000000053
#04056:0000130000000053
#0505b:0000000000000013
#05052:0000130000000013
#05057:00130000
#0475b:0000000000000053
#04756:0000000000000053
#04852:0000130000000063
#04857:0000130000000063
#0495b:0000130000000053
#04956:0000130000000053
#0515b:0000000000630000
#05155:0000000000630000
#05152:0000000000000013
#05158:0000000000000013
#05258:0000000000530000
#05252:0000000000530000
#05255:0000000000000013
#0525b:0000000000000013
#05355:0000000000630000
#0535b:0000000000630000
#05358:0000000000000013
#05352:0000000000000013
#0545a:0000000000000064
#05455:0000000000000064
#05557:00000024000000000000000000000000
#05552:00000024000000000000000000006300
#05655:0013
#0565b:0000000013000053
#05758:0013
#05752:0000000013000063
#05855:0000000000000013
#0595b:0013000000000000
#05955:0000000000000013
#06252:0000000000000063
#0625b:0000000000000063
#06355:0000000000000013
#06358:0000000000000013
#07752:0000000000000014
#0775a:0000000000000014
#07852:000000640000000000000034
#07855:000000000000002300000000
#07858:000000000000002300000000
#0785a:000000540000000000000044
#08052:0000130000000063
#0805b:00130000
#08057:0000000000000063
#04655:0000000000000013
#04658:00000064000000000000000000001300
#04654:00000064000000000000000000000000
#0465a:0064
#04652:0064
#0455b:00130000
#04556:00130000
#0455a:0000000000000064
#04552:0000000000000064
#04452:0000130000000063
#04457:0000130000000063
#0425b:0000130000000013
#04256:00130000
#04252:0000000000000013
#04152:0000130000000063
#04157:0000130000000063
#04356:0000000000000053
#0435b:0000000000000053
#0825a:0000000000000014
#08252:00230000000000000000000000001400
#08257:00230000000000000000000000000000
#0825b:00130000
#08256:00130000
#08654:0054
#08658:0054
#08652:00000054000000000000000000001300
#0865a:00000054000000000000000000000000
#0865b:0000000000000013
#08554:0000000000000054
#08558:0000000000000054
#08557:00230000000000000000000000000000
#08552:00230000000000000000000000000000
#0855b:00130000
#08556:00130000
#08152:00130000
#08156:00230000000000000000000000005300
#0815b:00230000000000000000000000005300
#08157:00130000
#08456:00230000000000000000000000005300
#0845b:00230000000000000000000000005300
#08452:00130000
#08457:00130000
#08352:0000000000000063
#08357:0000000000000063
#0875a:0000000000000014
#08852:0000000000000014
#0895a:0000000000000014
#08952:0000000000000014
#0905a:0000000000000014
#09052:0000000000000014
#09555:00000024000000000000000000000000
#0955a:00000024000000000000000000000000
#09457:0000000000000054
#09452:0000000000000054
#09155:0000000000630000
#0915b:0000000000630000
#09158:0000000000000013
#09152:0000000000000013
#09258:0000000000530000
#09252:0000000000530000
#09255:0000000000000013
#0925b:0000000000000013
#09355:0000000000630000
#0935b:0000000000630000
#09358:0000000000000013
#09352:0000000000000013
#09852:14
#0985a:14
#10458:0000000000000013
#1045a:14
#10452:14
#1055b:00530000
#10855:0000000000000013
#10952:00630000
#0965a:14
#09652:14
#11052:1400000000000014
#1105a:1400001400000000
#10052:14
#1005a:14
#10252:14
#1025a:14
#1065b:0000000000000063
#10757:00000000002300000000000000000000
#11158:0000000000160000
#06158:0000000000000013
#002340:0000000000000012
#003340:0022
#0063a0:0000000000000012
#0073a0:0022
#010360:0000000000000012
#011360:0022
#0143a0:0000000000000014
#015370:00000054000000000000000000000000
#0153a0:0024
#016320:0000000000000013
#017350:00230000
#016381:0000000000000013
#0173b1:00230000
#0183b1:0000000000000013
#019381:00230000
#018350:0000000000000013
#019320:00230000
#020320:0000000000000013
#021350:00230000
#020381:0000000000000013
#0213b1:00230000
#0223b1:0000000000000013
#023381:00230000
#022350:0000000000000013
#023320:00230000
#0253b0:00130000
#025380:0023
#026380:0000000000000013
#0273b0:00000000005300000000000000000000
#027380:00000023
#029320:00130000
#029350:0023
#030320:0000000000000014
#031350:00000054000000000000000000000000
#031320:0000000034340024
#0313a1:0000000014340024
#032321:0000000000000013
#033351:00230000
#033351:0000000000000013
#034321:00230000
#036351:00130000
#036321:0023
#037381:00130000
#0373b1:0023
#039321:0000000000000013
#040361:00230000
#039370:0000000000000013
#0403b0:00230000
#040360:0000000000000013
#041320:00230000
#0403b1:0000000000000013
#041371:00230000
#041371:0000000000000013
#0423b1:00230000
#041320:0000000000000013
#042360:00230000
#043360:0000000000000013
#044320:00230000
#0433b1:0000000000000013
#044371:00230000
#044371:0000000000000013
#0453b1:00230000
#044320:0000000000000013
#045360:00230000
#045320:0000000000000014
#046340:00000054000000000000000000000000
#046320:0034
#046350:0000000000005323
#0453a1:0000000000000014
#046381:00000054000000000000000053002300
#0463a1:0034
#0473b1:0000000000000013
#048371:00230000
#047360:0000000000000013
#048320:00230000
#048320:0000000000000013
#049360:00230000
#048371:0000000000000013
#0493b1:00230000
#0493b1:0000000000000013
#050371:00230000
#049360:0000000000000013
#050320:00230000
#0513b0:0000000000130000
#051380:0000000000000023
#051351:0000000000130000
#051321:0000000000000023
#052321:0000000000130000
#052351:0000000000000023
#052380:0000000000130000
#0523b0:0000000000000023
#0533b0:0000000000130000
#053380:0000000000000023
#053351:0000000000130000
#053321:0000000000000023
#0543a1:0000000000000014
#055371:00000054000000000000000000000000
#0553a1:0024
#054350:0000000000000014
#055320:00000054000000000000000000000000
#055350:0024
#055320:0000000000000013
#056350:00332300
#0563b1:00132300
#0563b1:0000000000000013
#057381:00332300
#057320:00132300
#057320:0000000000000013
#058350:00230000
#0623b0:0000000000000013
#063380:0000000000000023
#062321:0000000000000013
#063351:0000000000000023
#0673b1:0000000000000013
#068381:0000000000000023
#069321:0000000000000013
#070351:0000000000000023
#071381:0000000000000013
#0723b1:00230000
#072381:0000000000000013
#0733b1:00230000
#073351:0000000000000013
#074321:00230000
#074381:0000000000000013
#0753b1:00230000
#075321:0000000000000013
#076351:00230000
#0763b1:0000000000000013
#077381:00230000
#078321:000000140000000000000024
#078351:000000000000005300000000
#0783a0:000000140000000000000024
#078380:000000000000005300000000
#0793b0:000000000013
#0803b0:00230000
#079321:000000000013
#080321:00230000
#080321:0000000000000013
#081361:00530000000000000000000000000000
#081321:00230000
#080370:0000000000000013
#0813b0:00530000000000000000000000000000
#081370:00230000
#0813b0:0000000000000013
#082370:00530000000000000000000000000000
#0823b0:00230000
#081361:0000000000000013
#082321:00530000000000000000000000000000
#082361:00230000
#083321:0000000000000013
#084361:00530000000000000000000000000000
#084321:00230000
#083370:0000000000000013
#0843b0:00530000000000000000000000000000
#084370:00230000
#0843b0:0000000000000013
#085370:00530000000000000000000000000000
#0853b0:00230000
#084361:0000000000000013
#085321:00530000000000000000000000000000
#085361:00230000
#085381:0000000000000014
#0863a1:00000054000000000000000000000000
#086381:0034
#0863b1:0000000000005323
#085340:0000000000000014
#086320:00000054000000000000000053002300
#086340:0034
#0913b0:0000000000130000
#091380:0000000000000023
#091351:0000000000130000
#091321:0000000000000023
#092321:0000000000130000
#092351:0000000000000023
#092380:0000000000130000
#0923b0:0000000000000023
#0933b0:0000000000130000
#093380:0000000000000023
#093351:0000000000130000
#093321:0000000000000023
#094321:0000000000000014
#095351:00000054000000000000000000000000
#095321:00000024
#094370:0000000000000014
#0953a0:00000054000000000000000000000000
#095370:00000024
#096320:0000000000000013
#097350:53230000
#096381:0000000000000013
#0973b1:53230000
#0983b1:0000000000000013
#099381:53230000
#098350:0000000000000013
#099320:53230000
#100320:0000000000000013
#101350:53230000
#100381:0000000000000013
#1013b1:53230000
#1023b1:0000000000000013
#103381:53230000
#102350:0000000000000013
#103320:53230000
#1053b0:00130000
#105380:0023
#1063b0:0000000000000013
#107370:00000000005300000000000000000000
#1073b0:00000023
#109320:00130000
#109350:0023
