This file was generated by Ched 2.7.0.0.
#TITLE ""
#ARTIST ""
#DESIGNER ""
#DIFFICULTY 0
#PLAYLEVEL
#SONGID ""
#WAVE ""
#WAVEOFFSET 0
#JACKET ""
#REQUEST "ticks_per_beat 480"
#00002: 4
#BPM01: 134
#BPM02: 201
#BPM03: 114
#BPM04: 115
#BPM05: 116
#BPM06: 117
#BPM07: 118
#BPM08: 119
#BPM09: 121
#BPM0A: 123
#BPM0B: 125
#BPM0C: 146
#BPM0D: 153
#BPM0E: 161
#BPM0F: 171
#BPM0G: 229
#BPM0H: 223
#BPM0I: 216
#BPM0J: 209
#BPM0K: 203
#BPM0L: 196
#BPM0M: 188
#BPM0N: 180
#BPM0O: 172
#BPM0P: 166
#BPM0Q: 160
#BPM0R: 190
#BPM0S: 140
#BPM0T: 132
#BPM0U: 129
#BPM0V: 135
#00008: 01
#03608: 0001
#02608: 02
#06408: 05040300
#06308: 09080706
#06208: 0T0U0B0A
#06108: 0D0C0S0V
#06008: 0G0R0F0E
#05908: 0K0J0I0H
#05808: 0O0N0M0L
#05708: 00000Q0P
#TIL00: ""
#VOLUME: ""
#HISPEED 00
#MEASUREHS 00
#00614:14
#00718:14
#0101a:14
#0111a:14
#01212:14
#01418:14
#01312:14
#01310:41
#01518:14
#01614:14
#01714:14
#0181a:14
#01912:14
#0201a:14
#02112:14
#02110:41
#02218:14
#02314:14
#02418:14
#02514:14
#03818:16
#03812:0016
#03810:0041
#03912:16
#03918:0016
#04012:16
#04212:16
#04218:0016
#04318:16
#04312:0016
#04418:16
#04518:0016
#04612:16
#04618:0016
#04712:16
#04710:41
#04912:0016
#05018:16
#05012:0016
#05118:16
#05418:0014
#05410:41
#05514:0014
#05618:0014
#0261f:11
#03718:0026
#0371f:0021
#04112:0026
#06518:24
#0041a:00340000
#00419:00003434
#00510:41
#0013a0:14
#0023a0:54
#0033a0:54
#0043a0:34340000
#004390:00003434
#005380:24
#008340:14
#009340:24
#0263a0:14
#0273a0:0024
#029320:14
#030320:0024
#032380:14
#033380:0024
#035340:14
#036340:0024
#040380:0016
#041380:26
#044320:0016
#045320:26
#047380:0016
#048380:3636
#049380:26
#051320:0016
#052320:3636
#053320:3626
#057340:0014
#059320:0054
#061340:0034
#062340:3434
#063340:003400000000
#064320:0000000000240000
#065380:1400000000000034000000000000240000000000000000000000000000000000
