This file was generated by Ched 2.7.0.0.
#TITLE ""
#ARTIST ""
#DESIGNER ""
#DIFFICULTY 0
#PLAYLEVEL
#SONGID ""
#WAVE ""
#WAVEOFFSET 0
#JACKET ""
#REQUEST "ticks_per_beat 480"
#00002: 4
#BPM01: 134
#BPM02: 201
#BPM03: 114
#BPM04: 115
#BPM05: 116
#BPM06: 117
#BPM07: 118
#BPM08: 119
#BPM09: 121
#BPM0A: 123
#BPM0B: 125
#BPM0C: 146
#BPM0D: 153
#BPM0E: 161
#BPM0F: 171
#BPM0G: 229
#BPM0H: 223
#BPM0I: 216
#BPM0J: 209
#BPM0K: 203
#BPM0L: 196
#BPM0M: 188
#BPM0N: 180
#BPM0O: 172
#BPM0P: 166
#BPM0Q: 160
#BPM0R: 190
#BPM0S: 140
#BPM0T: 132
#BPM0U: 129
#BPM0V: 135
#00008: 01
#03608: 0001
#02608: 02
#06408: 05040300
#06308: 09080706
#06208: 0T0U0B0A
#06108: 0D0C0S0V
#06008: 0G0R0F0E
#05908: 0K0J0I0H
#05808: 0O0N0M0L
#05708: 00000Q0P
#TIL00: ""
#VOLUME: ""
#HISPEED 00
#MEASUREHS 00
#02916:00140014
#0291a:0014
#02912:14
#0361b:0013
#03614:14
#03612:00141300
#03615:00000013
#03618:0000000000000013
#04018:00130000
#04015:0000001300001300
#0401b:0000000000000013
#04612:00000013
#0461b:0000000000000013
#04618:1300000000130000
#05212:00231300
#05215:1300000000130013
#05218:0013000000001300
#0521b:00231300
#02212:0013000000000013
#0221b:0013
#02218:00130013
#02215:0000001300130000
#01516:00000012
#01518:0000000000120000
#0151a:0012
#01514:0000000000000012
#0151b:000000000000000000000000000000000000000000000013
#0391b:0000001300000000
#03918:0000000013000013
#03915:0000000000130000
#03912:00000013
#0391a:24
#02515:000000000000130000000013
#02518:000000000000000000130000000000000000000013000000
#02512:24
#02618:00001414
#02612:00001414
#0261a:14
#0261f:11
#05618:00000013
#05615:1300000000130000
#0451b:0013
#04519:0015000000000000
#04512:1425160000000000
#04515:00000013
#0451a:24
#04518:00260000
#00515:0000001300000000
#00518:26130000
#00512:26
#00510:41
#00618:1300001300000000
#00612:0013000000000000
#00615:00130000
#01712:0013000000000000
#01718:13130000
#01715:0000001300000000
#0171a:000053
#01719:000000000053
#0171b:0053
#02312:00002313
#0231b:0023000000001300
#02318:00230000
#02315:0000002300000000
#0351a:00140000
#03518:0014
#03516:00000014
#03514:14
#04112:0000130024240024
#04118:13
#04115:0013000000000000
#0411a:0000000024000024
#04116:00000024
#04312:0000002600000014
#04318:00260000
#0431a:0000000000240024
#04316:00000024
#0441a:0000001400000014
#04412:0024002400261524
#04418:0000000000160000
#04416:00240000
#04419:00000025
#04815:0000130000130000
#04812:0000001300000000
#04818:0013000013000013
#0481b:00000013
#01016:1212
#01018:0000000000000012
#01015:00000012
#0101a:0000001200000000
#01019:0000000000120000
#01218:0000000000000012
#01214:0000001200120000
#0121a:0012
#01216:54
#00715:1300001300000000
#0071b:0013000000000000
#00718:00130000
#01114:12
#01119:0054
#01118:000054
#01117:000000000054
#0111a:005400
#0141a:0000000000120000
#01416:00000012
#01418:0000000000000012
#01615:0013000000130013
#01618:00131300
#01612:0000001300000000
#0161b:00000013
#04216:000000240000000000000000000000000014000034340000
#04212:00242400
#0421a:2400002400000000
#04214:000000000000003400000000
#04718:0000000000130000
#04712:0000001300000000
#04715:1313
#04710:41
#0501b:00000013
#05012:0000000000000013
#05015:1300000000130000
#04912:0013
#04918:000000000013000000000000000000000000130000000000
#04915:13
#05115:0000000000130000
#0511b:0000001300000000
#05118:1300000013000013
#05112:00000013
#0531b:0000000000130000
#05312:00000013
#05318:0000000000000013
#05315:0023
#0571b:13
#05712:13
#05718:00130000
#05715:0000001300000000
#05415:1300000000000013
#05412:0000000000130000
#0541b:00000013
#05410:41
#05518:1300000000000013
#0551b:0000000000130000
#05512:00000013
#0271a:1414
#02714:14000014
#02718:00000014
#02712:0014
#02818:00140000
#0281a:14
#02814:00140000
#02812:14
#03016:00140024
#03012:14
#0301a:0024
#03318:000014000000000000240000
#03418:000000000000000000000014
#03412:24
#0341a:00240000
#03214:000000000014000000000000
#01912:2313
#0191b:1323
#01918:0000230000230023
#01915:0023002300002300
#0201b:0000001300000000
#02012:13000013
#02018:0013
#02015:0000000000130000
#01818:5313
#01812:00130000
#00412:150000350000350000350000000000350035350035000000
#00415:0013
#00419:150000350000350000350000000000350035350035000000
#00418:0013
#0621b:0013
#06212:0013
#0241a:0000000000000024
#02418:0000002400000000
#02414:0024
#02118:2424
#02112:0000002400240000
#0211a:0000240000000024
#02114:0024000000000000
#02116:00000024
#02110:41
#03112:24240000
#0311a:00240000
#0371a:0000000024240024
#03712:0000000024000024
#03716:00000024
#0371f:0021
#03812:24000024
#03816:0024000024000024
#0381a:00240000
#03818:0000002400000000
#03814:0000000000240000
#03810:0041
#0081a:24
#06318:002600000000
#06312:002600000000
#06515:00000000000000260000000000000000
#06518:26
#06512:0000000000000026000000000000000000000000000000000000000000000000
#01310:41
#05658:00000013
#0565b:0013
#0455b:0013
#04555:00000013
#02352:00000053
#0235b:00000063
#04152:00130000
#03958:0000000000000053
#04055:0000006300000000
#04256:000000000000000000000000000000000024000000000000
#04252:0054
#04952:0013
#04958:000000000053000000000000000000000000130000000000
#02652:00000054
#02658:00000054
#0275a:2464
#02754:24000064
#02758:00140054
#02752:00145400
#02858:00540000
#0285a:6414
#02854:00640000
#02852:5414
#02555:0063
#02052:53
#01858:0053
#01852:00530000
#0185b:00000013
#00452:65
#00455:0023
#00459:55
#00458:0023
#0625b:0063
#06252:0053
#06258:0000000000000013
#06255:0000000000000013
#04352:1c00001600000000
#04358:00160000
#03358:00000014
#05252:00130000
#0525b:00130000
#05355:0013
#03452:14
#0345a:00140000
#00558:16
#00552:16
#06555:00000000000000160000000000000000
#0325a:14
#03252:14
#03755:000000000013000000000000000000000000000000000000
#04652:000000000000000000000013000000000000000000000000
#04758:000000000013000000000000000000000000000000000000
#0505b:000000000000000000000013000000000000000000000000
#05155:000000000013000000000000000000000000000000000000
#0545b:0013
#05552:0013
#0095a:000000000014
#0013a0:14540000
#001390:000000000000005500550000550000000000005500550000
#001380:000000000000000000000000005600560000560000000000
#002390:550000000000000000000000000000000000005500000000
#0023a0:005400540000000000000000005400000000540000000000
#0023b0:000053530000530000000000
#003390:550055550000550055550000
#003380:005600560000000000000000000000000000000000000000
#0033a0:000000000000000000000000005400540000000000000000
#004390:350000350000350000350000000000350035350035000000
#004380:0033
#005380:26
#001321:140000000000000000545500550000555600560000565500
#002321:550000000000555400545300530000535400540000545500
#003321:550000000000555600565500550000000000555400545500
#004321:350000350000350000350000000000350035350035000000
#004351:0033
#005321:26
#005321:0000000013000023
#005351:000000000000000000000000000000330033000000000000
#0063b1:0000000013000023
#006381:000000000000000000000000000000330033000000000000
#007321:0000000013000023
#007351:000000000000000000000000000000330033000000000000
#0083a1:140000000000000000340000000000000000340000000034
#008381:000000000034000000000000000034340000000000000000
#009381:000034340000000000340000000034340000000000000000
#0093a1:000000000000340000000000340000000034000024000000
#013361:12220000
#013381:00001222
#014341:12
#014361:0000002200000000
#015341:12220000
#018321:00130000
#018351:0023
#018380:0013
#0183b0:00000023
#020320:13
#020350:00230000
#023320:00000013
#024350:23
#0233b1:00000013
#024381:23
#025351:0013
#025321:000023
#026381:00000014
#0273a1:54
#027381:00240000
#026320:00000014
#027340:54
#027320:00240000
#0273a0:0014
#027380:00000034
#0283a0:3424
#028380:00340000
#027321:0014
#027341:00000034
#028321:3424
#028341:00340000
#0313a1:00000014
#0323a1:24
#031320:00000014
#032320:24
#032380:00001424
#033340:00142400
#037350:130000000023000000000000000000000000000000000000
#039380:0000000000000013
#0403b0:0023000000000000
#040350:0000001300000000
#040320:0000000000230000
#042320:0014
#042340:000000000000003400000000
#042360:000000000000000000000000000000000034000034340000
#043320:2c
#046320:000013000000000000000023000000000000000000000000
#046350:000000000033000033000000000000000000000000000000
#047380:000013000023000000000000000000000000000000000000
#0473b0:00000013
#0483b0:23
#049380:000013000033000000000000000000000000000000000000
#0493b0:0000002300000000
#0503b0:000013000000000000000023000000000000000000000000
#050380:000000000033000033000000000000000000000000000000
#051350:000013000023000000000000000000000000000000000000
#053380:13230000
#053351:00132300
#054381:000013000033000000000000000000000000000000000000
#0543b1:0000003323000000
#055351:000013000033000000000000000000000000000000000000
#055321:0000003323000000
#056381:000013000033000000000000000000000000000000000000
#0563b1:0000003323000000
#0573b1:0013
#058381:53
#0583a1:0054
#0593a1:0054
#059371:00000054
#0603a1:5454
#060371:00000054
#0613b1:5333
#0613a1:000000000000003300000033
#061391:000000003333
#061381:00000033
#0623b1:3333
#062381:0000000000000023
#057320:0013
#058320:0053
#059350:53
#059320:0054
#060320:5454
#060350:00540000
#061320:5433
#061350:00540000
#062320:3333
#062330:003300000033000000000000
#062340:003333000000
#062350:0000330000000023
#063320:001600000000
#064320:0000000000230000
#063381:001600000000
#0643b1:0000000000230000
#0119a0:001400
#012960:24
#0179b0:0013
#0179a0:000053
#017990:000000000053
#018980:23
