This file was generated by Ched 2.7.0.0.
#TITLE ""
#ARTIST ""
#DESIGNER ""
#DIFFICULTY 0
#PLAYLEVEL
#SONGID ""
#WAVE ""
#WAVEOFFSET 0
#JACKET ""
#REQUEST "ticks_per_beat 480"
#00002: 4
#BPM01: 125
#00008: 01
#TIL00: ""
#VOLUME: ""
#HISPEED 00
#MEASUREHS 00
#0011b:0013000000000000
#00118:00000000130000000000001300000000
#00115:0000001300000000
#00112:0000000013000013
#00215:13000013
#00218:0013000000000013
#00212:0000130000130000
#0021b:00130000
#0031b:1300000000130000
#00315:00130000000013000000000000001300
#00318:0013000013001300
#00312:00130000
#0041b:00131313
#00412:13
#0041a:00000000000000000000000000000000005300000000000000000000000000000053000000000000000000000000000000530000000000000000000000000000
#00419:0000000000000000005300000000000000530000000000000053000000000000
#00615:13
#00618:0013000000000000
#00612:00000000130000000000001300001300
#0061b:00000000130000000000001300001300
#0071b:0000000000000013
#00718:0013000000000000
#00715:0013000000000000
#00712:0000000000000013
#0091b:13131300
#00917:0000001300000000
#00916:13000013
#00912:0000000000000013
#00910:41
#01012:00130013
#01015:0000001200000000
#01017:0012
#01019:0000000000120000
#0101b:00130013
#01016:13
#01117:0013130013000013
#0111b:1300001300001300
#01112:13
#0121b:13000000131300000000000000000000
#01215:0000001300130000
#01218:00000000000000130000000023000000
#01212:0013
#01512:1313
#01519:0013000000000000
#0151b:00130000
#01514:0000001300000000
#01517:1313
#01518:0000000000130000
#01515:00000000000000000000001300000000
#01516:00130000
#01510:41
#01717:0000001313001313
#0171b:0013000000530000
#01719:00000000000000000053000000000000
#01812:0013000013000053
#01816:0000001300531300
#01814:00000000000000000053000000530000
#01919:0013001300130013
#01917:00130013
#0191b:0013
#0201b:13
#02018:0000130013000013
#02015:00000000001300130000000000000013
#02012:00000013
#0211b:13000000000000001333330000000000
#02115:00001300000000130000000000001300
#02118:00000013000013000000000000000013
#02112:00000000130000000000001300000000
#02110:41
#02212:13000000130000001333330000000000
#02215:0013001300000000
#02218:00130000001300000000000000000000
#0221b:00000013000000130000001300000000
#02217:0000000000000013
#02317:1300000000000013
#02316:0000001313000000
#02517:13000000130000001300001300000000
#0251b:0013001300000000
#02512:13000000530000005300001300000000
#02516:0053005300000000
#0291b:13135300
#02917:00001300000053000000001300000000
#02916:13531300
#02912:00005300000013000000001300000000
#03118:0000130000000013
#03115:0000001300001300
#0311b:0013
#03112:0013
#03218:0013001300130013
#03215:00000000130000130000000013000000
#0321b:1313
#03212:13
#0401b:0000000000000013
#04016:001400001400000000000000
#0401a:000014000014000000000000
#04012:2400240024000013
#04118:0013001300000000
#04115:00130000
#0411b:2300000013130013
#04116:0000000000000013
#04112:23
#0411f:21
#00815:0013230000000000
#00818:2300001323000000
#0081b:00230000
#00812:2323
#04212:1313001300001300
#0421b:0000001300000000
#04218:0000000013130000
#04215:00000000000000000013000000001300
#04210:41
#04318:23002313
#04315:00000000230000000000230000130000
#04312:2323
#0431b:00230000
#04418:0000231313000000
#04415:00000000000000130000130000000000
#04412:00230013
#04416:0000000000000013
#0441b:23
#04515:00001300000013000000000000000013
#04518:0000130013000013
#0451b:0000000000130000
#04512:2300000000130000
#04618:13000000000000130000000000001300
#04612:0013000000000000
#04615:0000001313001300
#0461b:0000000000130000
#04718:00130000
#0471b:2300000000000013
#04715:00130000
#04712:2300000000000013
#04818:00001300001300000000000000000000
#04812:0000130000130000
#0481b:0000000000000013
#05112:0013000023000000
#05115:00000000130000000000002300000000
#05118:2300001300000000
#0511b:0000000023000023
#05110:41
#05218:13000000000000000000002300000000
#05215:0013000000000000
#0521b:0000001300000000
#05212:0000230023000023
#05217:00230000
#05515:1300130000130000
#05512:0013000013001300
#05518:00000000000013000000001300000000
#0551b:1300130013000013
#05612:0013000000230000
#05615:00130013
#05618:00000000001300000000000013000000
#0561b:0000000000230000
#05712:13131313
#05718:0000001300230023
#0571b:13132323
#05812:13132323
#05815:00000000000013000023000000000000
#0581b:13131323
#05818:00000000000000000000002300000000
#0051b:1313
#00512:0013000013000000
#00515:00000000130000000000001300001300
#00518:00000000000013000000000000000013
#01312:13131300
#01316:0000001300000000
#01317:13000013
#0131b:0000000000000013
#01417:13
#01412:0000000000000013
#0141b:00130000
#01416:00130000
#01616:13000023
#01614:0013000000230000
#01612:00132300
#01617:00231300
#01619:0023000000130000
#0161b:23000013
#02417:13
#02412:002c0000
#02616:13000000130000001300001300000000
#02612:0013001300000000
#0261b:13000000530000005300001300000000
#02617:0053005300000000
#02717:13000000130000005300001300000000
#0271b:0013005300000000
#02712:13000000530000001300001300000000
#02716:0053001300000000
#02710:41
#02816:13000000130000005300001300000000
#02812:0013005300000000
#0281b:13000000530000001300001300000000
#02817:0053001300000000
#03012:13135300
#03016:00001300000053000000001300000000
#03017:13531300
#0301b:00005300000013000000001300000000
#03312:23131300
#03316:0000001300000000
#03317:00000013
#0331b:2300000000000013
#0331f:11
#0341b:00130013
#03419:0000001200000000
#03417:1312
#03415:0000000000120000
#03412:00130013
#03516:0013130013000013
#03512:1300001300001300
#0351b:13
#03612:13000000131300000000000000000000
#03618:0000001300130000
#03615:00000000000000130000000023000000
#0361b:0013
#0371b:13131300
#03717:0000001300000000
#03716:13000013
#03712:0000000000000013
#03816:13
#0381b:0000000000000013
#03812:00130000
#03817:00130000
#0391b:1313
#03914:0013000000000000
#03912:00130000
#03919:0000001300000000
#03916:1313
#03915:0000000000130000
#03918:00000000000000000000001300000000
#03917:00130000
#0491b:23130000
#04916:23002313
#05012:00130013
#05015:0000001200000013
#05017:0012
#05019:0000000000120000
#0501b:23130013
#05312:23130000
#05317:00002313
#0531b:23
#0541b:00130013
#05419:0000001200000000
#05417:0012
#05415:0000000000120000
#05412:23130013
#05418:0000000000000013
#02457:0012
#02452:135c0000
#00152:0053
#00158:00000000000000000000005300000000
#0025b:00530000
#00252:00530000
#00452:53
#0055b:0063
#00558:00000000000000000000001300000000
#00555:00000000000000000000001300000000
#0065b:0000130000000053
#00652:0000130000000063
#00758:0023000000000000
#00755:0023000000000000
#00858:0013
#00852:0013
#0105b:00000013
#01052:00000013
#01258:00000013
#01456:0000000000130000
#0145b:0000000000130000
#01558:0000000000530000
#01555:00000000000000000000005300000000
#01552:0000000000000013
#0155b:0000000000000013
#01652:00130000
#01657:00130000
#0165b:00000013
#01656:00000013
#02058:0053
#0215b:0053
#02157:00000000000000000000001300000000
#02152:00000000000000000000001300000000
#0225b:00000000000000000000001300000000
#02252:0063
#02256:00000000000000000000001300000000
#02352:13
#0235b:0013
#02552:00000000000000000000005300000000
#02557:00000000000000000000005300000000
#0265b:00000000000000000000006300000000
#02656:00000000000000000000006300000000
#02752:00000000000000000000005300000000
#02757:00000000000000000000005300000000
#0285b:00000000000000000000006300000000
#02856:00000000000000000000006300000000
#02952:00000000000000000000005300000000
#02957:00000000000000000000005300000000
#03056:00000000000000000000005300000000
#0305b:00000000000000000000005300000000
#03452:00000013
#0345b:00000013
#03655:00000013
#03852:0000000000130000
#03857:0000000000130000
#03955:0000000000630000
#03958:00000000000000000000006300000000
#03952:0000000000000013
#0395b:0000000000000013
#04052:0014
#04156:0000000000130000
#04257:0013000000000000
#04355:00000000000000000000000000530000
#04552:0000000000130000
#0455b:0000000000130000
#0465b:0013000000130000
#04652:0013000000130000
#04658:53
#04655:0063
#04758:00530000
#04755:00530000
#0475b:53
#04752:53
#04852:0000000000530000
#0485b:0000000000000013
#04856:0000000000000013
#0505b:00000013
#05052:00000013
#0525b:0000002300000000
#05257:00530000
#05252:0053
#05258:00000000000000000000005300000000
#05452:00000013
#0545b:00000013
#0555b:0000000000000053
#05655:00530023
#05658:00000000005300000000000023000000
#0565b:0000000000530043
#05652:0000000000530033
#05852:00000013
#0535b:13
#05352:13
#04956:13
#0495b:13
#0515b:0053
#05155:00000000000000000000005300000000
#001320:0013
#001350:00000000000000000000002300000000
#001381:00000000000000000000001300000000
#0013b1:0000000000000023
#002321:00130000
#002351:0023
#0023b0:00130000
#002380:0023
#004320:13
#005360:23
#0053b0:0013
#005380:00000000000000000000002300000000
#0063b0:0000000000000013
#007380:0033000000002600
#006321:0000000000000013
#007351:0033000000000000
#007321:00000026
#009361:00132300
#009321:0000003300000000
#0093b1:00000013
#009371:0000000000000033
#0103b1:23
#011321:0013330023000000
#011361:0000003300000000
#011361:00000013
#011321:0000000000000033
#012361:23
#013371:00132300
#0133b1:0000003300000000
#013321:00000013
#013361:0000000000000033
#014321:23
#0143b1:0000001300230000
#014371:0033
#014360:0000001300230000
#014320:0033
#015380:0000000000130000
#0153b0:0000000000000023
#015351:00000000000000000000001300000000
#015321:0000000000000023
#017321:14343434
#017331:0052000000000000000000000000000000000000000000000000000000000052005200000000000000000000000000000000000000000000000000000000005200520000000000000000000000000000000000000000000000000000000000520052000000000000000000000000000000000000000000000000000000000052
#018321:24
#0183a0:14343434
#0183b0:0052000000000000000000000000000000000000000000000000000000000052005200000000000000000000000000000000000000000000000000000000005200520000000000000000000000000000000000000000000000000000000000520052000000000000000000000000000000000000000000000000000000000052
#0193a0:24
#019321:14343434
#019331:0052000000000000000000000000000000000000000000000000000000000052005200000000000000000000000000000000000000000000000000000000005200520000000000000000000000000000000000000000000000000000000000520052000000000000000000000000000000000000000000000000000000000052
#020321:24
#020381:0013
#0203b1:00000023
#0213b1:00000000000000001333330000000000
#021371:00000000000000000000002300000000
#022321:00000000000000001333330000000000
#022361:00000000000000000000002300000000
#022321:0000000000000013
#023321:23
#0233b1:0000001323000000
#023321:0000000000000013
#024321:23
#024321:001c0000
#024371:0022
#025371:00000000000000000000001300000000
#0253b1:0000000000000023
#025320:00000000000000000000001300000000
#025360:0000000000000023
#026360:00000000000000000000001300000000
#026320:0000000000000023
#0263b1:00000000000000000000001300000000
#026371:0000000000000023
#027371:00000000000000000000001300000000
#0273b1:0000000000000023
#027320:00000000000000000000001300000000
#027360:0000000000000023
#028360:00000000000000000000001300000000
#028320:0000000000000023
#0283b1:00000000000000000000001300000000
#028371:0000000000000023
#029371:00000000000000000000001300000000
#0293b1:0000000000000023
#029320:00000000000000000000001300000000
#029360:0000000000000023
#030360:00000000000000000000001300000000
#030320:00000000000000000000000000333333
#031320:23
#0303b1:00000000000000000000001300000000
#030371:00000000000000000000000000333333
#031371:23
#033371:00132300
#0333b1:0000003300000000
#033321:00000013
#033361:0000000000000033
#034321:23
#0353b1:0013330023000000
#035371:0000003300000000
#035371:00000013
#0353b1:0000000000000033
#036371:23
#037361:00132300
#037321:0000003300000000
#0373b1:00000013
#037371:0000000000000033
#0383b1:23
#038321:0000001300230000
#038361:0033
#038370:0000001300230000
#0383b0:0033
#039350:0000000000130000
#039320:0000000000000023
#039381:00000000000000000000001300000000
#0393b1:0000000000000023
#041361:0000000013230000
#042371:1323000000000000
#043351:00000000000000000000000000130000
#044321:23
#044371:00000013
#0443b1:0000000000000033
#045371:23
#046381:13
#0463b1:0023000000000000
#046351:0013
#046321:0000000000230000
#047321:13000023
#047351:00330000
#0473b0:13000023
#047380:00330000
#048350:0000001323000000
#0483b1:0000000013230000
#048320:0000000000130000
#048360:0000000000000023
#049360:00130000
#049320:0000002300000000
#049371:0000001300000000
#0493b1:0023
#0493b1:00000013
#049371:0000000000000023
#049320:0000000000000013
#050360:23
#0513b0:0013
#051380:00000000000000000053002300000000
#051351:00000000000000000000001300000000
#051321:0000000000005323
#052371:00132300
#0523b1:0000005300000000
#052320:0013
#052350:00000000000000000053002300000000
#052381:00000000000000000000001300000000
#0523b1:0000000000005323
#053371:00130000
#0533b1:0000002300000000
#053360:0000001300000000
#053320:0023
#053320:00000013
#053360:0000000000000023
#0533b1:0000000000000013
#054371:23
#0553b1:0000000000000013
#056371:0023000000000000
#056351:00130000
#056321:0023
#056380:00000000001300000000000000000000
#0563b0:0023
#0563b0:0000000000130023
#056380:00000053
#056321:0000000000130023
#056351:00000053
#0049b0:00130000
#004990:0000000000000000002300000000000000000000000000000000000000000000
#0049b0:0013
#004990:0000000000000000000000000000000000230000000000000000000000000000
#0049b0:00000013
#004990:0000000000000000000000000000000000000000000000000023000000000000
#017970:0013
#0179b0:0000000000230000
#018920:0013
#018960:0000000000230000
#018960:00000013
#018920:0000000000000023
#025920:13532300
#025960:0053005300000000
#0269b0:13532300
#026970:0053005300000000
#027920:13230000
#027960:0053000000000000
#027971:00132300
#0279b1:0000005300000000
#0289b1:13230000
#028971:0053000000000000
#028960:00132300
#028920:0000005300000000
#029960:13230000
#029920:0053000000000000
#0299b1:00132300
#029971:0000005300000000
#030971:13230000
#0309b1:0053000000000000
#030920:00132300
#030960:0000005300000000
