This file was generated by Ched 2.7.0.0.
#TITLE ""
#ARTIST ""
#DESIGNER ""
#DIFFICULTY 0
#PLAYLEVEL
#SONGID ""
#WAVE ""
#WAVEOFFSET 0
#JACKET ""
#REQUEST "ticks_per_beat 480"
#00002: 4
#BPM01: 171
#00008: 01
#TIL00: ""
#VOLUME: ""
#HISPEED 00
#MEASUREHS 00
#0011a:14
#00216:14
#00618:14
#00714:14
#0081a:14
#00912:14
#01018:14
#0121a:14
#01312:14
#01310:41
#01418:14
#0171a:14
#01814:14
#02112:14
#02218:14
#02314:14
#0241a:14
#02512:14
#02618:14
#02918:2616
#02910:41
#03112:1616
#03318:1616
#03512:16
#03712:0016
#03718:26
#03912:16
#03918:0016
#04112:0016
#04118:26
#04110:41
#04312:16
#04514:14
#04618:14
#04712:14
#0481a:14
#04914:14
#05018:14
#05112:14
#0521a:14
#06112:14
#0611f:11
#06218:14
#06314:14
#0641a:14
#06512:14
#06618:14
#08514:14
#08510:41
#08618:14
#08712:14
#0881a:14
#08914:14
#09018:14
#09112:14
#01114:14
#06918:2616
#0691f:21
#07112:1616
#07318:1616
#07512:16
#07712:0016
#07718:26
#07912:16
#07918:0016
#08112:0016
#08118:26
#08312:16
#09218:0000000000000034
#09219:00000034
#07010:00410000
#05310:41
#003320:1400000000000034
#004320:0034343434003400
#005320:24
#015340:14
#016340:24
#019380:14
#020380:24
#027340:1400000000000024
#030380:1626
#032320:1626
#034380:1626
#035320:0000000016000036
#036320:00362600
#038380:1626
#040320:1626
#042380:1626
#043380:0000000016000036
#044380:0036363636002600
#053320:14
#054320:24
#055380:14
#056380:24
#057340:14
#058340:24
#0593a0:1400003400002400
#067340:1400000000000024
#070380:1626
#072320:1626
#074380:1626
#075320:0000000016000036
#076320:00362600
#078380:1626
#080320:1626
#082380:1626
#083380:0000000016000036
#084380:0036363636002600
#0913a0:0000000000000014
#0923a0:0034003400340000
#092390:00000034
#092380:0000000000000034
#093380:34
#095380:0024000000000000
