This file was generated by Ched 2.7.0.0.
#TITLE ""
#ARTIST ""
#DESIGNER ""
#DIFFICULTY 0
#PLAYLEVEL
#SONGID ""
#WAVE ""
#WAVEOFFSET 0
#JACKET ""
#REQUEST "ticks_per_beat 480"
#00002: 4
#BPM01: 171
#00008: 01
#TIL00: ""
#VOLUME: ""
#HISPEED 00
#MEASUREHS 00
#0851b:1300130000000013
#08516:0013000000000000
#08512:1300000000000013
#08517:0000001300000000
#08515:0013
#08518:0000000000130000
#08510:41
#08712:0000000013000013
#08715:1300130000130000
#0871b:1300001300130000
#08718:0013000013000000
#08816:0013000000001300
#0881b:0000000000130000
#08812:0000001300000000
#09115:0013000000000000
#09118:0000130000131300
#0911b:0000001300000053
#09112:13
#09119:000000000000000000000000000000000000005300000000
#0911a:000000000053
#0931a:14
#0011c:1200001200000000
#0011a:0012
#00116:1212
#0011b:0000000000000012
#00113:00000012
#00114:00120000
#00219:12
#00215:12
#0021a:0000001200000000
#00214:0000000012000012
#00218:0012
#00216:00000012
#00212:00120000
#00412:0013231323001300
#0041b:0023132313002300
#00516:1313
#0051b:1300000013000013
#00512:0000130000130000
#00517:0000130000130000
#00618:0000001300130000
#00615:00000013
#00612:0013000000000013
#00617:13
#00619:000000000053000000000000
#0061a:000000000000000000000053000000000000000000000000
#0061b:0053
#02912:1300230013000013
#0291b:2300130000130013
#02916:0013000000130000
#02917:0013
#02910:41
#03017:0000001300230023
#0301b:00000013
#03012:0000001300000013
#03016:00001323
#03112:0013130000000013
#03113:0000001300000000
#03114:0013
#03115:0000000000130000
#0311b:0013130000000013
#0311a:0000001300000000
#03119:0013
#03118:0000000000130000
#03217:0013001300000013
#03216:0000130000130000
#0321b:0000230000130000
#03219:00000013
#03214:00000013
#03212:0023002300000013
#03617:00000013
#03612:00240013
#0361a:0024000000000000
#03618:0000002400000000
#03614:0024
#03716:13000013
#03717:00130000
#03712:0000230013230000
#0371b:2300000023130023
#0381b:00130013
#03814:0000001300000013
#03812:0013000013000000
#03819:0000000000130000
#03817:0013000013000000
#03816:00130013
#03912:1300000000130000
#03916:00130013
#0391b:0000000013130013
#03917:13
#04018:0000001300000000
#04014:0000000000130000
#04019:0000000000000013
#04016:0013
#04017:00000013
#04012:0013000000002300
#04015:00230000
#0401b:0023
#00715:1300000000130000
#00718:0013000013000000
#0071b:1300001300001300
#00712:00131300
#00716:0000000000000013
#0131b:1300000000130000
#01315:0013130000001300
#01312:0000002300000000
#01318:0000000023000023
#01310:41
#01415:0013000000000000
#01416:0000000000140014
#0141b:00130000
#0141a:00000014
#01412:2324
#01418:0000002300000000
#01512:1400002300000023
#01516:0013000000130000
#01517:0000001300000013
#0151b:0023000000230000
#01612:0000001300000000
#0161b:0013000013000000
#01615:00000013
#01616:0013000000000000
#02418:00130013
#02415:1313
#0241b:2323
#02412:00230023
#02512:1313
#0251b:1313
#02518:0000130000130013
#02515:0013001300001300
#02719:0000001200000000
#02713:0012
#02716:0000000000120000
#0271b:13000012
#02718:0000000000000012
#02712:13
#0281b:0013131300000000
#02816:0000000000121200
#02818:00000000000000000000001200001200
#02812:0023232300000000
#05117:0000000000000013
#05118:1300000000130000
#05115:0013000013000000
#05112:1300001300001323
#0511b:00131300
#05216:0023130000000000
#05214:00000013
#05219:00000013
#0521b:00230000
#05217:0023
#05312:1313
#05318:00130013
#0531b:13
#05310:41
#05418:0000001300001300
#05415:0000130000000013
#05412:1313
#0541b:0013000000000000
#0561a:1414
#05616:00000014000000000000000000000000
#05612:0000001400242400
#0591b:13
#05916:13000013
#05919:00130000
#05917:0013
#00815:0000130000130000
#00818:0000001300001300
#0081b:0013000000000013
#00812:0013
#0031c:12
#00314:0000000000000012
#00312:00000012
#00316:12
#00313:0000001200000000
#00318:0000120000000012
#0031b:0012
#00315:0012
#00917:1313
#00912:1300000013000013
#0091b:0000130000130000
#00916:0000130000130000
#01015:0000001300130000
#01018:00000013
#0101b:0013000000000013
#01016:13
#01014:000000000053000000000000
#01013:000000000000000000000053000000000000000000000000
#01012:0053
#01118:1300000000130000
#01115:0013000013000000
#01112:1300001300001300
#0111b:00131300
#01117:0000000000000013
#01218:0000130000130000
#01215:0000001300001300
#01212:0013000000000013
#0121b:0013
#01712:1300000000130000
#01718:0013130000001300
#0171b:1300002300000000
#01715:0000000023000023
#0201b:0000001300000000
#02012:0013000013000000
#02018:00000013
#02017:0013000000000000
#01916:0000001300000013
#01917:0013000000130000
#0191a:14
#01912:0023000000230000
#0191b:0000002300000023
#02112:0013000000000000
#02118:0013000013001300
#0211b:1300001300130000
#02115:1300000000000013
#02217:13
#02216:0013
#02212:13
#0221b:0013
#02616:13
#02617:0013
#0261b:13
#02612:0013
#0331b:1300230013000013
#03312:2300130000130013
#03317:0013000000130000
#03316:0013
#03416:0000001300230023
#03412:00000013
#0341b:0000001300000013
#03417:00001323
#04117:00230013
#0411b:2300000023230000
#04112:0000230023230023
#04116:23
#04110:41
#0431b:00131313
#04315:0013000000130000
#04312:00131313
#04318:0000001300000013
#04412:0013231323001300
#0441b:0023132313002300
#04516:1313
#0451b:1300000013000013
#04512:0000130000130000
#04517:0000130000130000
#04615:00000013
#04612:0013000000000013
#04617:13
#04618:0000001300130000
#04619:000000000053000000000000
#0461a:000000000000000000000053000000000000000000000000
#0461b:0053
#04715:1300000000130000
#04718:0013000013000000
#0471b:1300001300001300
#04712:00131300
#04716:0000000000000013
#04815:0000130000130000
#04818:0000001300001300
#0481b:0013000000000013
#04812:0013
#04917:1313
#04912:1300000013000013
#0491b:0000130000130000
#04916:0000130000130000
#05015:0000001300130000
#05018:00000013
#0501b:0013000000000013
#05016:13
#05014:000000000053000000000000
#05013:000000000000000000000053000000000000000000000000
#05012:0053
#0551b:13
#05512:1300130000000024
#0551a:0024
#05516:00000000000000000000002400000000
#0571b:1313
#05715:0000130000130000
#05712:1300000000000013
#05718:00000013
#05815:00130013
#05818:0000001300000013
#0581b:1313
#05812:0013000013000000
#06415:00130013
#06418:1313
#06412:2323
#0641b:00230023
#0651b:1313
#06512:1313
#06515:0000130000130013
#06518:0013001300001300
#06715:0000001200000000
#0671b:1312
#06718:0000000000120000
#06713:00000012
#06716:0000000000000012
#06712:13
#06812:0013131300000000
#06818:0000000000121200
#06816:00000000000000000000001200001200
#0681b:0023232300000000
#0611b:0013000000000013
#06115:0013000000130000
#06112:1300001313000000
#06118:13000013
#0611f:11
#06216:13
#06217:0013
#0621b:13
#06212:0013
#06617:13
#06616:0013
#06612:13
#0661b:0013
#08616:0000001300000000
#0861b:0000001300000000
#08618:0000000000130000
#08615:00000013
#08612:0000000000000013
#08912:0000130000000013
#08917:0013000000000000
#0891b:1300000000000013
#08916:0000001300000000
#08918:0013
#08915:0000000000130000
#09017:0000001300000000
#09012:0000001300000000
#09016:0000000000130000
#09018:00000013
#09015:0000000000000013
#0921a:0000000000140000
#09216:00000014
#09212:0000002300000014
#0921b:0000002300000000
#09218:0023000000000000
#03515:0013000000000000
#03516:0000000000000024
#0351b:000000000000000000000000000000000000333333000000
#04212:0013000000000013
#0421b:0013000000000013
#04218:00131313
#04215:0000001300130000
#06017:0013231300000000
#06012:0023132300000023
#0601b:0023
#06015:00000023
#06018:0000000000230000
#0691b:1300230013000013
#06912:2300130000130013
#06917:0013000000130000
#06916:0013
#0691f:21
#07016:0000001300230023
#07012:00000013
#0701b:0000001300000013
#07017:00001323
#07010:00410000
#0711b:0013130000000013
#0711a:0000001300000000
#07119:0013
#07118:0000000000130000
#07112:0013130000000013
#07113:0000001300000000
#07114:0013
#07115:0000000000130000
#07216:0013001300000013
#07217:0000130000130000
#07212:0000230000130000
#07214:00000013
#07219:00000013
#0721b:0023002300000013
#07616:00000013
#0761b:00000013
#07612:0024000000000000
#0761a:00240000
#07614:0000002400000000
#07618:0024
#07717:13000013
#07716:00130000
#0771b:0000230013230000
#07712:2300000023130023
#07812:00130013
#07819:0000001300000013
#0781b:0013000013000000
#07814:0000000000130000
#07816:0013000013000000
#07817:00130013
#0791b:1300000000130000
#07917:00130013
#07912:0000000013130013
#07916:13
#0801b:0013000000002300
#08015:0000001300000000
#08019:0000000000130000
#08014:0000000000000013
#08017:0013
#08016:00000013
#08018:00230000
#08012:0023
#07312:1300230013000013
#0731b:2300130000130013
#07316:0013000000130000
#07317:0013
#07417:0000001300230023
#0741b:00000013
#07412:0000001300000013
#07416:00001323
#08116:00230013
#0811b:0000230023230023
#08112:2300000023230000
#08117:23
#07518:0013000000000000
#07516:0000000000000024
#07512:000000000000000000000000000000000000333333000000
#08312:00131313
#08318:0013000000130000
#0831b:00131313
#08315:0000001300000013
#0841b:0013231323001300
#08412:0023132313002300
#0821b:0013000000000013
#08212:0013000000000013
#08215:00131313
#08218:0000001300130000
#0231b:0013000000000000
#02315:0013000013001300
#02312:1300001300130000
#02318:1300000000000013
#06312:0013000000000013
#06318:0013000000130000
#0631b:1300001313000000
#06315:13000013
#01818:0013000000000000
#01816:0000000000140014
#01812:00130014
#0181b:23
#01815:0000002300000000
#0181a:0024
#09517:0052000000000000
#0855b:0000530000000053
#08556:0023000000000000
#08552:6300000000000063
#08557:0000002300000000
#08555:0013
#08558:0000000000130000
#08752:0000000000000013
#09252:0000001300000000
#0925b:0000001300000000
#09258:0013000000000000
#0935a:54
#00552:0000130000530000
#0055b:1300000000000063
#00556:0000000000000013
#02952:6300330000000063
#0295b:4300000000000053
#02956:0023000000000000
#03052:0000006300000000
#03056:0023
#03055:0013000000000000
#03058:0013000000000000
#0315b:0000000000000013
#03152:0000000000000013
#03657:00000063
#0365a:0014000000000000
#03652:00140000
#03658:0000001400000000
#03654:0014
#03756:00000023
#0375b:1300000000000043
#03752:0000130000630033
#03956:00530023
#03952:0000000000530033
#03957:53
#03556:0000000000000014
#0415b:1300000000530043
#04152:0000130000000033
#04157:00000023
#0165b:0053000013000000
#01655:00000013
#05157:0000000000000053
#05256:00630000
#05259:00000013
#05352:6363
#05358:00630063
#0565a:0054
#05956:63
#05957:0053
#00756:0000000000000063
#00657:23
#0065b:0043000000000000
#00952:1300000000000053
#0095b:0000130000630000
#00957:0000000000000013
#01157:0000000000000053
#02052:0063000013000000
#02058:00000013
#02152:0053000000000000
#02257:63000013
#0225b:00135300
#02256:00135300
#02252:63000013
#02656:53000013
#02657:00136300
#02652:00136300
#0265b:53000013
#02452:00130013
#0245b:1313
#0335b:5300430000000053
#03352:3300000000000063
#03357:0023000000000000
#0345b:0000005300000000
#03457:0023
#03458:0013000000000000
#03455:0013000000000000
#0455b:1300000000000063
#04552:0000130000530000
#04556:0000000000000013
#04756:0000000000000063
#04657:23
#0465b:0043000000000000
#04652:0033000000000000
#04952:1300000000000053
#0495b:0000130000630000
#04957:0000000000000013
#05452:0013
#0555b:63
#05552:00530000
#0575b:53
#05755:00530000
#0585b:0013
#05852:0013
#0615b:0063000000000000
#06256:53000013
#06257:00136300
#06252:00136300
#0625b:53000013
#06657:63000013
#06656:00135300
#0665b:00135300
#06652:63000013
#06452:1313
#0645b:00130013
#08658:0013000000000000
#08655:0013000000000000
#08656:0000005300000000
#08856:0013000000005300
#08852:0000001300000000
#08952:0000630000000063
#08957:0023000000000000
#0895b:5300000000000053
#08956:0000002300000000
#08958:0013
#08955:0000000000130000
#09057:0000006300000000
#09055:0013000000000000
#09058:0013000000000000
#0045b:00000013
#00452:00000013
#04452:00000013
#0445b:00000013
#05056:23
#0505b:0043000000000000
#05052:0033000000000000
#01056:23
#01052:0033000000000000
#0695b:5300430000000053
#06952:3300000000000063
#06957:0023000000000000
#0705b:0000005300000000
#07057:0023
#07058:0013000000000000
#07055:0013000000000000
#07152:0000000000000013
#0715b:0000000000000013
#07656:00000053
#07652:0014000000000000
#0765a:00140000
#07654:0000001400000000
#07658:0014
#07757:00000023
#07752:1300000000000033
#0775b:0000130000530043
#07957:00630023
#07956:63
#0795b:0000000000630043
#07352:6300330000000063
#0735b:4300000000000053
#07356:0023000000000000
#07452:0000006300000000
#07456:0023
#07455:0013000000000000
#07458:0013000000000000
#08156:00000023
#0815b:0000130000000043
#08152:1300000000630033
#07556:0000000000000014
#0845b:00000013
#08452:00000013
#0235b:0063000000000000
#06352:0053000000000000
#005320:0000000000130000
#005360:0000000000000023
#0053b1:0000000000000013
#006371:53
#0063b1:0023000000000000
#007361:0000000000000013
#008321:0023000000000000
#0093b1:0000000000130000
#009371:0000000000000023
#009320:0000000000000013
#010360:53
#010320:0023000000000000
#011370:0000000000000013
#0123b0:0023000000000000
#0163b0:0013000000000000
#016370:0000002300000000
#020320:0013000000000000
#020360:0000002300000000
#021320:0013000000000000
#021350:0000002300000000
#022370:13
#0223b0:00230000
#022321:13
#022361:00230000
#022361:0013
#022321:00000023
#0223b0:0013
#022370:00000023
#0233b0:0013000000000000
#023380:0000002300000000
#026360:13
#026320:00230000
#0263b1:13
#026371:00230000
#026371:0013
#0263b1:00000023
#026320:0013
#026360:00000023
#027350:0012002200000000
#029320:13230000
#029360:0053000000000000
#029320:0000000000000013
#030350:0023000000000000
#0293b1:0000000000000013
#030381:0023000000000000
#030321:0000001300230000
#030361:0053
#0333b1:13230000
#033371:0053000000000000
#0333b1:0000000000000013
#034381:0023000000000000
#033320:0000000000000013
#034350:0023000000000000
#0343b0:0000001300230000
#034370:0053
#035380:0013000000000000
#0353b0:00230000
#035321:00130000
#035351:0000002300000000
#035380:0000001300000000
#0353b0:0023
#035321:0013
#035351:0000000000230000
#035380:0000000000130000
#0353b0:000000000000000000000000000000000000333333230000
#036370:00000013
#0373b0:23
#037320:0000000000130023
#037360:00000053
#039370:13
#0393b0:00230000
#039361:00130000
#039321:0023
#039321:0000000000130023
#039361:00000053
#0413b1:0000000000130023
#041371:00000053
#045321:0000000000130000
#045361:0000000000000023
#0453b0:0000000000000013
#046370:53
#0463b0:0023000000000000
#047360:0000000000000013
#048320:0023000000000000
#0493b0:0000000000130000
#049370:0000000000000023
#049321:0000000000000013
#050361:53
#050321:0023000000000000
#051371:0000000000000013
#0523b1:0023000000000000
#052361:00130000
#052321:0023
#053321:13
#053351:00230000
#053380:00130000
#0533b0:0023
#053321:0013
#053351:00000023
#053380:00000013
#0543b0:23
#0553b0:13
#055370:00230000
#055321:00130000
#055361:0023
#0563a1:0014
#056361:00000024
#0573b1:13
#057381:00230000
#057350:00130000
#057320:0023
#059360:13
#059320:0023
#059371:0013
#0593b1:00000023
#0613b1:0013000000000000
#061381:0000002300000000
#062361:13
#062321:00230000
#0623b0:13
#062370:00230000
#062370:0013
#0623b0:00000023
#062321:0013
#062361:00000023
#063321:0013000000000000
#063351:0000002300000000
#066371:13
#0663b1:00230000
#066320:13
#066360:00230000
#066360:0013
#066320:00000023
#0663b1:0013
#066371:00000023
#067391:0012002200000000
#0693b1:13230000
#069371:0053000000000000
#0693b1:0000000000000013
#070381:0023000000000000
#069320:0000000000000013
#070350:0023000000000000
#0703b0:0000001300230000
#070370:0053
#073320:13230000
#073360:0053000000000000
#073320:0000000000000013
#074350:0023000000000000
#0733b1:0000000000000013
#074381:0023000000000000
#074321:0000001300230000
#074361:0053
#075351:0013000000000000
#075321:00230000
#0753b0:00130000
#075380:0000002300000000
#075351:0000001300000000
#075321:0023
#0753b0:0013
#075380:0000000000230000
#075351:0000000000130000
#075321:000000000000000000000000000000000000333333230000
#076361:00000013
#077321:23
#0773b1:0000000000130023
#077371:00000053
#079361:13
#079321:00230000
#079370:00130000
#0793b0:0023
#0793b0:0000000000130023
#079370:00000053
#081320:0000000000130023
#081360:00000053
#085320:13230000
#085360:0053000000000000
#0853b1:00132300
#085371:0000005300000000
#0853b1:0000000000000013
#086381:0023000000000000
#085320:0000000000000013
#086350:0023000000000000
#086360:0000001300000000
#086320:0000000000230000
#087370:0000000000000013
#0883b0:0033000000000000
#088370:0000002300000000
#088360:00000013
#089320:23
#0893b1:13230000
#089371:0053000000000000
#089320:00132300
#089360:0000005300000000
#089320:0000000000000013
#090350:0023000000000000
#0893b1:0000000000000013
#090381:0023000000000000
#090371:0000001300000000
#0903b1:0000000000230000
#091351:0000000013230000
#091321:0000000000000013
#092321:0023000000000000
#0933a1:14
#095371:0022000000000000
#006980:0000001300000000
#0069b0:0023
#010950:0000001300000000
#010920:0023
#046980:0000001300000000
#0469b0:0023
#050950:0000001300000000
#050920:0023
#091980:00000013
#0919b0:0000000000000023
