This file was generated by Ched 2.7.0.0.
#TITLE ""
#ARTIST ""
#DESIGNER ""
#DIFFICULTY 0
#PLAYLEVEL
#SONGID ""
#WAVE ""
#WAVEOFFSET 0
#JACKET ""
#REQUEST "ticks_per_beat 480"
#00002: 4
#BPM01: 171
#00008: 01
#TIL00: ""
#VOLUME: ""
#HISPEED 00
#MEASUREHS 00
#08517:13130000
#0851b:0013001300000013
#08512:13130000
#08516:0013001300000013
#08510:41
#08612:1300000000130000
#08617:13
#08616:0000001300001300
#0861b:0000001300001300
#08619:0000000000000013
#0871b:0013001300000000
#08717:1300130000000013
#08716:0000000000130000
#08712:0000000000000013
#08812:0000001300001300
#0881b:0000000000130000
#08817:0000001300001300
#08816:0013000000000000
#08916:13130000
#08912:0013001300000013
#0891b:13130000
#08917:0013001300000013
#0901b:1300000000130000
#09016:13
#09017:0000001300001300
#09012:0000001300001300
#09014:0000000000000013
#09112:0013000000001300
#09116:1300131300000000
#0911b:0000000000130000
#09118:000000000000000000000000000000000000001300260000
#09115:000000000013
#0921b:0000000000130000
#09219:00000013
#09217:0000000000000013
#09216:0000000000130000
#09214:00000013
#09212:0026002c00000013
#0931b:13
#09316:13
#0011c:1200001200000000
#00117:1200001200000000
#0011a:0000000012000012
#00115:0000000012000012
#00112:00130013
#00218:12
#00213:12
#00212:0000001200000000
#00214:0000000012000012
#00217:0000001200000000
#00219:0000000012000012
#0021b:00130013
#0031b:12
#00316:12
#0031c:0000001200000000
#00317:0000001200000000
#0031a:0000000012000012
#00315:0000000012000012
#00312:00130013
#00416:0013001300130000
#00417:00131300
#0041b:0023002300130000
#00412:00232300
#00516:13001313
#0051b:13001313
#00514:0013000000000000
#00512:0000130000130000
#00517:0000130000130000
#00519:0000001300000000
#00618:0000000000130000
#00615:00005413
#00612:0000001400000013
#0061b:0013
#00613:000000000054000000000000
#00614:000000000000000000000054000000000000000000000000
#02912:1300260000130013
#02915:00000000000000001300000013000053
#02918:26000000000013000000130000000053
#02917:0013000000000000
#0291b:0013130000000013
#02910:41
#02913:000000000000000000000000000000000000000000000000000000000000000000000000000000000000005300000000
#02914:000000000000000000000053
#0291a:000000000000000000000000000000000000000000000000000000000000000000000000000000000000005300000000
#02919:000000000000000000000053
#0301b:00130013
#03017:0000001300230023
#03012:0000131300000013
#03016:00001323
#0311a:0000000000000014
#03112:0000000000160014
#03116:0012120000001400
#03115:0000001300000000
#03114:0014
#03118:0012121314160000
#03216:1414141400000013
#03212:0024002400130000
#03214:00000013
#03217:0000000000130000
#03219:00000013
#0321b:0000000000000013
#0321a:00240000
#0351b:0013001300131300
#03515:160000000000160000000000160000000000001300000000
#03518:000000000013
#03512:0000000000000026
#03612:0013261326001600
#0361b:00131300
#03618:0026002600000000
#03718:26160000
#03716:00001313
#03717:0000000000130000
#0371b:00002313
#03712:1600260000230000
#0381b:0013131300131313
#03812:0013001313130013
#03817:0013
#03816:00130013
#03917:13000013
#03916:0000000000130000
#03912:13001313
#0391b:0000130000130000
#04014:0018001800180018
#04016:0013
#04017:00130013
#04012:00230023
#0401b:0023
#0411a:00000014
#04116:0000000024241300
#0411b:2323
#04112:2600230000230000
#04118:00260000
#04110:41
#04312:13161316
#04316:0014001400140014
#0431b:00130013
#04318:0016
#04416:0013001300130000
#04417:00131300
#0441b:0023002300130000
#04412:00232300
#00719:0013000000130000
#00714:0000001300000000
#0071b:1300000000000013
#00716:0000000000000013
#00717:00000013
#00917:13001313
#00912:13001313
#00919:0013000000000000
#0091b:0000130000130000
#00916:0000130000130000
#00914:0000001300000000
#01216:0000140000140014
#0121a:0000001414001400
#01212:0014000014001400
#01312:1400001300130023
#0131b:0013130023000000
#01315:00001313
#01318:0000002300000013
#01310:41
#0141b:1323
#01418:0013002300130013
#01412:0000001300000023
#01415:23131313
#0151b:13
#01516:00130013
#01517:0013
#01515:23
#01512:0023000000000000
#01616:0013
#01612:0000001300000000
#0161b:0013000013000000
#01617:00000013
#0201b:0000001300001300
#02017:0000000013130000
#02012:0013000013000000
#02016:0000000000001313
#01716:13
#01712:0013130023000000
#0171b:0000001300130023
#01718:00001313
#01715:0000002300000013
#02112:0012000012000000
#02114:1200120000120012
#02116:0000001200001200
#02118:16
#02416:14141414
#0241a:2424
#02412:00240024
#0221b:1313
#02217:0013000000130000
#02212:12130013
#02216:0000001300000013
#02316:0012000012000000
#02314:0000120000120012
#02312:0000001200001200
#02318:16
#0251b:13130000
#02516:1400001414000014
#0251a:00000014
#02514:0014000000000000
#02512:00141313
#02518:0000000000140000
#02616:0000130000000013
#02612:1300001300001300
#0261b:1300000000130000
#02617:0013000000000000
#02618:0013
#0271b:13000012
#02719:0000001200000012
#02717:00001212
#02713:0012
#02715:0000000000120000
#02818:00001600260016000000001200000000
#02812:0026162600000000
#02816:0000000000121200
#02814:0000000000000012
#0281a:0000000000000012
#04516:13001313
#0451b:13001313
#04514:0013000000000000
#04512:0000130000130000
#04517:0000130000130000
#04519:0000001300000000
#04618:0000000000130000
#04615:00005413
#04612:0000001400000013
#0461b:0013
#04613:000000000054000000000000
#04614:000000000000000000000054000000000000000000000000
#04917:13001313
#04912:13001313
#04919:0013000000000000
#0491b:0000130000130000
#04916:0000130000130000
#04914:0000001300000000
#05015:0000000000130000
#05018:000000000000000000000054000000000000130000000000
#0501b:0000000000000013
#05012:0013
#0501a:0000001400000000
#05019:000000000054000000000000
#05017:0054
#05117:1300000013000013
#05114:0013000000130000
#05116:00130013
#05119:0000001300000000
#05112:1300000013000023
#0511b:00130013
#0521b:13232300
#05216:00130000
#05212:0023001300001300
#05217:00000013
#0611c:1212120000000000
#0611a:0000001212120000
#06118:0000000000001212
#06112:16
#0611f:11
#06416:14141414
#06412:2424
#0641a:00240024
#06212:1313
#06216:0013000000130000
#0621b:00130013
#06217:0000001300000013
#06218:12
#06617:0000130000000013
#0661b:1300001300001300
#06612:1300000000130000
#06616:0013000000000000
#06615:0013
#06712:13
#06715:0000001200000012
#06717:00001212
#0671b:0012
#06719:0000000000120000
#06713:00000012
#06812:0016261600000000
#06818:0026162600121200
#0681a:0000000000000012
#06816:00000000000000000000001200000000
#06814:0000000000000012
#05312:1313
#05318:16130013
#05315:0000000000000013
#05310:41
#05416:00000013
#05412:2300000000000013
#05417:0000000000000013
#0541b:13000013
#05415:0013131300000000
#05418:0013131300000000
#0551b:1300130000000013
#05516:1300000000000023
#05519:00000000000000000000001300000000
#05512:0023
#05514:00000000000000000000002300000000
#05612:1300001300232300
#0561b:00000013000000001300000000000000
#05617:13
#05817:00000013
#0581b:2300000000000013
#05816:0000000000000013
#05812:13000013
#05818:0013131300000000
#05815:0013131300000000
#05912:13
#05917:13
#05916:00130000
#0591b:00130000
#06018:0013241526162616
#06014:00140000
#06012:0000000016261626
#06013:0000002500000000
#06015:0023000000000000
#01117:0000000000000013
#01112:1300000000000013
#01114:0013000000130000
#01119:0000001300000000
#01116:00000013
#00816:0000140000140014
#00812:0000001414001400
#0081a:0014000014001400
#04716:1300000013000013
#04719:0013000000130000
#04717:00130013
#04714:0000001300000000
#0471b:1300000013000013
#04712:00130013
#04816:0000140000140014
#04812:0000001414001400
#0481a:0014000014001400
#0571b:1313
#05715:00130013
#05712:1600000000130000
#05718:0000000000000013
#01015:0000000000130000
#01018:000000000000000000000054000000000000130000000000
#0101b:0000000000000013
#01012:0013
#0101a:0000001400000000
#01019:000000000054000000000000
#01017:0054
#01812:1323
#01815:0013002300130013
#0181b:0000001300000023
#01818:23131313
#01912:13
#01917:00130013
#01916:0013
#01918:23
#0191b:0023000000000000
#03318:00000000260000001300000013000053
#03315:00000000000013000000130000000053
#0331b:1300000000130013
#03312:2613130000000013
#03316:0013000000000000
#0331a:000000000000000000000000000000000000000000000000000000000000000000000000000000000000005300000000
#03319:000000000000000000000053
#03313:000000000000000000000000000000000000000000000000000000000000000000000000000000000000005300000000
#03314:000000000000000000000053
#03412:00130013
#03416:0000001300230023
#0341b:0000131300000013
#03417:00001323
#06512:13130014
#06516:1400001414000014
#06518:0014000000000000
#0651a:00140000
#0651b:00001313
#06514:0000000000140000
#06918:0000260013001313
#06915:0000001300130013
#0691b:13000000000000000000130000000053
#06916:0013000000000000
#06912:26001300130000000000000000000053
#0691f:21
#06919:000000000000000000000000000000000000000000000000000000000000000000000000000000000000005300000000
#0691a:000000000000000000000053
#06914:000000000000000000000000000000000000000000000000000000000000000000000000000000000000005300000000
#06913:000000000000000000000053
#07012:00130013
#07016:0000001300230023
#0701b:0000131300000013
#07017:00001323
#07010:00410000
#07112:0000000000160014
#0711a:0000000000000014
#07118:0012121314160000
#07116:0012120000001400
#07115:0000001300000000
#07114:0014
#07216:1414141400130000
#0721b:0000000000130000
#07219:00000013
#07217:0000000000000013
#07214:00000013
#07212:0000240000000013
#0721a:0024002400000000
#07512:0013001300131300
#07518:000000000000000000000000000000000000001300260000
#07515:160000160000160000001300
#0761b:0013001300000000
#07612:0026132613000000
#07618:00262616
#07712:26162313
#07717:00001313
#07716:0000000000130000
#07718:16260000
#0771b:0000000000230000
#07812:0013131300131313
#0781b:0013001313130013
#07816:0013
#07817:00130013
#07916:13000013
#07917:0000000000130000
#0791b:13001313
#07912:0000130000130000
#08112:23262314
#08117:00000013
#0811b:0000230000230000
#08118:26
#08116:0000000024240000
#0831b:1313
#08316:0014001400140014
#08318:00160016
#08312:00131613
#08417:0013001300130000
#08416:00131300
#08412:0023002300130000
#0841b:00232300
#07315:0000000013001313
#07318:2600001300130013
#07312:13000000260000000000130000000053
#07317:0013000000000000
#0731b:00001300130000000000000000000053
#07314:000000000000000000000000000000000000000000000000000000000000000000000000000000000000005300000000
#07313:000000000000000000000053
#07319:000000000000000000000000000000000000000000000000000000000000000000000000000000000000005300000000
#0731a:000000000000000000000053
#0741b:00130013
#07417:0000001300230023
#07412:0000131300000013
#07416:00001323
#0421b:0013000013000013
#04212:0013000013000000
#04218:00130013
#04215:0000001300130000
#08212:0013000013000013
#0821b:0013000013000000
#08215:00130013
#08218:0000001300130000
#08014:0018001800180018
#08017:0013
#08016:00130013
#0801b:00230023
#08012:0023
#06318:0012000012000000
#0631a:0000120000120012
#0631c:0000001200001200
#06312:16
#09512:0052000000000000
#09517:0052000000000000
#08557:53531300
#0855b:0023002300000053
#08552:5300530000130000
#08556:0023002300000053
#08652:23
#08657:23
#08656:0043000000000000
#0865b:0043005300000000
#0885b:0013000000000000
#08852:0000005300005300
#08857:0000001300005300
#08757:0000000000000053
#08752:0000000000000013
#08956:63631300
#08952:0023002300000063
#0895b:6300630000130000
#08957:0023002300000063
#0905b:23
#09056:23
#09057:0033000000000000
#09052:0033006300000000
#09158:0000000000000016
#09252:0016001c00000000
#0935b:53
#09356:53
#0045b:0000000000230000
#00456:0000000000230000
#00457:00006333
#00452:00006333
#00557:0000000000530000
#0055b:13000023
#00552:0000130000530033
#00556:00000023
#00657:0043000000000000
#02952:63360000
#02957:0023000000000000
#02958:46
#03052:0000006300000000
#03056:00002313
#03055:0013000000000000
#03058:0013000000000000
#03057:0000000000000013
#0315a:0000000000000014
#03152:0000000000000014
#03757:0000000000630033
#0375b:00000023
#03756:00000023
#03752:0000360000630033
#03758:46
#03956:0000000000530043
#03952:53000023
#03957:00000023
#0395b:0000530000530043
#0415a:00000024
#04156:0000000000642334
#0415b:13
#04152:0000130000630033
#0445b:0000000000230000
#04456:0000000000230000
#04457:00006333
#04452:00006333
#03552:0000000000000016
#00956:0000000000630000
#00952:13000023
#0095b:0000130000630043
#00957:00000023
#01056:0033000000000000
#01656:0053
#0165b:0053000043000000
#01657:00000063
#01652:00000033
#02052:0063000033000000
#0205b:00000043
#0245a:4444
#02452:00340034
#0225b:53135313
#02257:0023000000230000
#02252:00630063
#02256:0000002300000023
#02656:0000530000000023
#02652:0000002300006300
#0265b:5300130000230000
#02657:0023000000001300
#02658:0063
#0455b:13000023
#04552:0000130000530033
#04557:0000000000530000
#04556:00000023
#04952:13000023
#0495b:0000130000630043
#04956:0000000000630000
#04957:00000023
#04657:0043000000000000
#05056:0033000000000000
#0525b:23
#05256:00630000
#05252:0000002300001300
#05157:0000000000000053
#02158:66
#02358:56
#06252:63136313
#06256:0023000000230000
#0625b:00530053
#06257:0000002300000023
#06657:0000630000000023
#0665b:0000002300005300
#06652:6300130000230000
#06656:0023000000001300
#06655:0053
#06152:56
#06452:3434
#0645a:00440044
#05352:6363
#05358:00630063
#05556:63
#0555b:00630000
#05652:5300005300131300
#0565b:00000053000000005300000000000000
#05957:53000013
#0595b:00230000
#05952:00000013
#01157:0000000000000053
#00756:0000000000000063
#04756:0000000000000063
#0545b:5343
#05452:5333
#05455:0023532300000000
#05458:0023532300000000
#0575b:5353
#05755:00530053
#06752:13
#03252:0000001400000000
#03658:0046004600000000
#03652:00363600
#0345b:0000005300000000
#03457:00002313
#03456:0000000000000013
#03458:0013000000000000
#03455:0013000000000000
#0705b:0013005300000000
#07057:00002313
#07056:0000000000000013
#07052:0013000000000000
#07152:0000000000000014
#0715a:0000000000000014
#07756:0000000000530043
#07752:36000023
#07757:00000023
#07758:00460000
#0775b:0000000000530043
#07957:0000000000630033
#0795b:63000023
#07956:00000023
#07952:0000630000630033
#08152:13000024
#08157:00000023
#0815b:0000130000530043
#08156:0000000000540044
#08452:0000000000230000
#08457:0000000000230000
#08456:00005343
#0845b:00005343
#07452:0013006300000000
#07456:00002313
#07457:0000000000000013
#0745b:0013000000000000
#0725a:0000001400000000
#07558:0000000000000016
#07652:0036003600000000
#07658:00464600
#00152:00130013
#0025b:00130013
#00352:00130013
#0425b:0000000000000013
#08252:0000000000000013
#0335b:53
#03356:0023000000000000
#03352:36
#03358:00460000
#0695b:53
#06956:0023000000000000
#06952:36
#06958:00460000
#07352:63360000
#07357:0023000000000000
#07358:46
#05852:6333
#05858:0023632300000000
#05855:0023632300000000
#0585b:6343
#06352:66
#004370:00001323
#0043b0:0000000000530000
#004321:00001323
#004361:0000000000530000
#005371:0000000000130053
#0053b1:00000053
#006371:0023000000000000
#005320:0000000000130023
#005360:00000053
#007361:13
#007321:00230000
#007370:00130000
#0073b0:0023
#007361:0013
#007321:00000023
#007361:0000000000000013
#008321:0023000000000000
#009361:0000000000130053
#009321:00000053
#010361:0023000000000000
#0093b0:0000000000130023
#009370:00000053
#011371:13
#0113b1:00230000
#011360:00130000
#011320:0023
#011371:0013
#0113b1:00000023
#011371:0000000000000013
#0123b1:0023000000000000
#015371:0013000000000000
#0153b1:00000053000023000000000000000000
#015360:0000001300000000
#015320:00000000000000530000230000000000
#015371:0000000000130000
#0153b1:00000000000000000000005300002300
#015360:0000000000000013
#015320:00000000000000000000000000000053
#016320:0023000000000000
#0163b1:0013000000000000
#016371:0000002300000000
#016361:0013
#016321:00000023
#016370:00000013
#0173b0:23
#019360:0013000000000000
#019320:00000053000023000000000000000000
#019371:0000001300000000
#0193b1:00000000000000530000230000000000
#019360:0000000000130000
#019320:00000000000000000000005300002300
#019371:0000000000000013
#0193b1:00000000000000000000000000000053
#0203b1:0023000000000000
#020320:0013000000000000
#020360:0000002300000000
#021380:16
#0213a0:0000000000000022
#0223b0:13230000
#022370:0053000000000000
#022321:00132300
#022361:0000005300000000
#0223b0:00001323
#022370:0000000000530000
#022321:00000013
#022361:0000000000000053
#023321:23
#023380:16
#0233a0:0000000000000022
#0263b0:13230000
#026370:0053000000000000
#026361:00130000
#026321:0000005300000000
#026351:0023
#026380:0013
#0263b0:0000000000530000
#026370:00000023
#026321:00000013
#026361:0000000000000053
#027321:23
#027361:0012002200000000
#029321:13260000
#029371:0053000000000000
#029351:00000000000000000000000000000013
#030351:0023000000000000
#029380:00000000000000000000000000000013
#030380:0023000000000000
#030320:0000001300230000
#030360:0053
#0333b0:13
#033360:0053000000000000
#033380:00260000
#033380:00000000000000000000000000000013
#034380:0023000000000000
#033351:00000000000000000000000000000013
#034351:0023000000000000
#0343b1:0000001300230000
#034371:0053
#035321:13333300
#035361:0033003300230000
#036381:00000016
#037381:26
#037371:0000000000130023
#0373b1:00000053
#037320:0000000000130023
#037360:00000053
#039320:13
#039360:00230000
#0393b1:00130000
#039371:0023
#039361:0000000000130023
#039321:00000053
#0393b0:0000000000130023
#039370:00000053
#041360:0000000000140024
#0413a0:00000054
#041321:0000000000130023
#041361:00000053
#044371:00001323
#0443b1:0000000000530000
#044320:00001323
#044360:0000000000530000
#045370:0000000000130053
#0453b0:00000053
#046370:0023000000000000
#045321:0000000000130023
#045361:00000053
#047360:0000000000000013
#048320:0023000000000000
#049360:0000000000130053
#049320:00000053
#050360:0023000000000000
#0493b1:0000000000130023
#049371:00000053
#051370:0000000000000013
#0523b0:53
#052370:0023000000000000
#052360:00132300
#052320:0000005300000000
#053320:13
#053350:00230000
#053381:00130000
#0533b1:0023
#053320:0013
#053350:00000023
#053381:00000013
#0543b1:3323
#054351:0033003300000000
#054381:00330000
#054320:1323
#054380:0033003300000000
#054350:00330000
#055360:13
#055320:00230000
#0553b1:00130000
#055371:0023
#056321:13
#056361:00000023000000000000000000000000
#0563b0:00000013000000000000000000000000
#056370:0000002300000000
#056321:0000001300000000
#056361:0023
#0563b0:0013
#056370:00000023
#0573b0:13
#057380:00230000
#057351:00130000
#057321:0023
#0573b0:0013
#057380:00000023
#057351:00000013
#058321:3323
#058381:0033003300000000
#058351:00330000
#0583b0:1323
#058350:0033003300000000
#058380:00330000
#059370:13003323
#0593b0:00330000
#059321:00001323
#061321:16
#061341:0000000000000022
#062321:13230000
#062361:0053000000000000
#0623b0:00132300
#062370:0000005300000000
#062321:00001323
#062361:0000000000530000
#0623b0:00000013
#062370:0000000000000053
#0633b0:23
#063321:16
#063341:0000000000000022
#066321:13230000
#066361:0053000000000000
#066370:00130000
#0663b0:0000005300000000
#066380:0023
#066351:0013
#066321:0000000000530000
#066361:00000023
#0663b0:00000013
#066370:0000000000000053
#0673b0:23
#067380:0012002200000000
#0693b0:13
#069360:0053000000000000
#069380:00260000
#0693b0:00000000000000000000000000000013
#0703b0:0023000000000000
#069321:00000000000000000000000000000013
#070321:0023000000000000
#0703b1:0000001300230000
#070371:0053
#073321:13260000
#073371:0053000000000000
#073321:00000000000000000000000000000013
#074321:0023000000000000
#0733b0:00000000000000000000000000000013
#0743b0:0023000000000000
#074320:0000001300230000
#074360:0053
#0753b0:13333300
#075370:0033003300230000
#076320:00000016
#077320:26
#077360:0000000000130023
#077320:00000053
#0773b1:0000000000130023
#077371:00000053
#0793b1:13
#079371:00230000
#079320:00130000
#079360:0023
#079370:0000000000130023
#0793b0:00000053
#079321:0000000000130023
#079361:00000053
#081361:0000000000140024
#081321:00000054
#0813b0:0000000000130023
#081370:00000053
#084360:00001323
#084320:0000000000530000
#0843b1:00001323
#084371:0000000000530000
#085371:13332300
#0853b1:0053005300000000
#085320:1300330033230000
#085360:0053005300000000
#085360:0000000000000013
#086320:53
#086360:0023000000000000
#0853b1:0000000000000013
#086371:53
#0863b1:0023000000000000
#0863b1:0000001300000000
#086371:0000000000230000
#087321:13332300
#087361:0033003300000000
#087370:0013
#0873b0:0000000000230000
#087370:0000000000000013
#0883b0:0023000000000000
#088320:0000001300000000
#088360:0000000000230000
#088320:00000013
#089360:33332300
#089320:0053005300000000
#088371:00000013
#0893b1:3300330033230000
#089371:0053005300000000
#089371:0000000000000013
#0903b1:53
#090371:0023000000000000
#089320:0000000000000013
#090360:53
#090320:0023000000000000
#090320:0000001300000000
#090360:0000000000230000
#0913b0:1300333323000000
#091370:0033000000000000
#091321:0013
#091361:0000000000230000
#0933b1:13
#095371:0022000000000000
#093360:13
#095320:0022000000000000
#006920:0000001400000000
#006950:0024
#0109a0:0000001400000000
#010970:0024
#046920:0000001400000000
#046950:0024
#0509a0:0000001400000000
#050970:0024
