This file was generated by Ched 2.7.0.0.
#TITLE ""
#ARTIST ""
#DESIGNER ""
#DIFFICULTY 0
#PLAYLEVEL
#SONGID ""
#WAVE ""
#WAVEOFFSET 0
#JACKET ""
#REQUEST "ticks_per_beat 480"
#00002: 4
#BPM01: 171
#00008: 01
#TIL00: ""
#VOLUME: ""
#HISPEED 00
#MEASUREHS 00
#0011a:14000014
#00112:00141400
#00118:0000001400000000
#00114:0000000000000014
#0021a:14000014
#00212:00141400
#00218:0000001400000000
#00214:0000000000000014
#0031a:14
#00312:00141400
#00318:0000001400001400
#00314:0000000000000014
#0051a:1414
#00514:00140014
#00618:1414
#00612:00140014
#0131a:14
#01312:0014
#01310:41
#01418:1414
#01414:00140014
#01614:0014
#01618:00000014
#01712:14
#0171a:0014
#02018:0014
#02014:00000014
#0251a:14140000
#02512:00001414
#02712:14
#0271a:14
#02918:00140000
#02914:0014
#0291a:00000014
#02912:24
#02910:41
#03112:14
#0311a:00140000
#03114:0014
#03118:00000014
#03212:14000014
#03218:00140014
#03214:0014
#03314:00140000
#03318:0014
#03312:00000014
#0331a:14
#0351a:14
#03512:00140000
#03518:0000000014000024
#03514:00000014
#03818:00140014
#03814:0014
#03912:14
#0391a:00140000
#03914:0014
#04014:00140014
#04018:0014
#04312:00140000
#0431a:0014
#04314:00000014
#04318:0000000000000014
#0531a:14
#05314:00140000
#05318:0014
#05312:00000014
#05310:41
#05418:1414
#05414:00140000
#0651a:14140000
#06512:00001414
#06712:14
#0671a:14
#08214:00141400
#08218:00000014
#08312:00140014
#0831a:0014
#0851a:1414
#08514:00140014
#08510:41
#08618:1414
#08612:00140014
#08918:1414
#08912:00140014
#0901a:1414
#09014:00140014
#09218:0024000000000014
#09214:0000002400001400
#0921a:0000000000140000
#0091a:1414
#00914:00140014
#01018:1414
#01012:00140014
#01814:1414
#01818:00140014
#04218:00140014
#04214:0014
#04512:1414
#04518:00140014
#04614:1414
#0461a:00140014
#04912:1414
#04918:00140014
#05014:1414
#0501a:00140014
#05512:14
#05518:00140000
#05514:0014
#0551a:00000014
#05614:1414
#05618:00140000
#0571a:14
#05714:00140000
#05718:0014
#05712:00000014
#05818:1414
#05814:00140000
#06914:00140000
#06918:0014
#06912:00000014
#0691a:24
#0691f:21
#0711a:14
#07112:00140000
#07118:0014
#07114:00000014
#0721a:14000014
#07214:00140014
#07218:0014
#07318:00140000
#07314:0014
#0731a:00000014
#07312:14
#07512:14
#0751a:00140000
#07514:0000000014000024
#07518:00000014
#07814:00140014
#07818:0014
#0791a:14
#07912:00140000
#07918:0014
#08018:00140014
#08014:0014
#0611f:11
#06119:00340000
#06118:0034
#00418:0024002400000000
#00414:00242400
#02418:2424
#02414:00240024
#02818:0024002400000000
#02814:00240000
#03614:0024002400002400
#03618:00242400
#0371a:24
#03712:00240000
#03718:0024
#03714:0000000000240000
#04414:0024002400000000
#04418:00242400
#06014:0024002400240024
#06018:00242424
#06418:2424
#06414:00240024
#06814:0024002400000000
#06818:00240000
#08418:0024002400000000
#08414:00242400
#09114:0000000000000024
#09119:00340000
#0411a:24
#04112:00240000
#04118:0024
#04114:0000000000240000
#04110:41
#07618:0024002400002400
#07614:00242400
#07712:24
#0771a:00240000
#07714:0024
#07718:0000000000240000
#08112:24
#0811a:00240000
#08114:0024
#08118:0000000000240000
#00719:00340000
#00718:0034
#00813:00340000
#00814:0034
#01213:00340000
#01212:0034
#01119:00340000
#0111a:0034
#0151a:0034003400000000
#01518:0000000000340000
#02119:00340000
#02118:0034
#02313:00340000
#02314:0034
#05113:00340000
#05112:0034
#06313:00340000
#06314:0034
#08719:00340000
#08718:0034
#08813:00340000
#08814:0034
#01912:0034003400000000
#01914:0000000000340000
#04713:00340000
#04714:0034
#04819:00340000
#04818:0034
#07010:00410000
#09514:0054000000000000
#00454:00000014
#03752:0000000000000014
#0395a:0000000000000014
#04458:00000014
#08454:00000014
#04152:0000000000000014
#0775a:0000000000000014
#07952:0000000000000014
#0815a:0000000000000014
#004340:00001424
#0073a0:14
#007390:00340000
#007380:00003424
#008320:14
#008330:00340000
#008340:00003424
#011380:14
#011390:00340000
#0113a0:00003424
#012340:14
#012330:00340000
#012320:00003424
#0153a0:1434003400000000
#015380:0000000000340024
#019320:1434003400000000
#019340:0000000000340024
#0213a0:14
#021390:00340000
#021380:00003424
#022340:14240000
#022380:00001424
#023320:14
#023330:00340000
#023340:00003424
#026380:14240000
#026340:00001424
#030320:14
#030340:00240000
#030380:0014
#0303a0:00000024
#0343a0:14
#034380:00240000
#034340:0014
#034320:00000024
#037340:0000000000140000
#037320:0000000000000024
#039380:0000000000140000
#0393a0:0000000000000024
#041340:0000000000140000
#041320:0000000000000024
#044380:00001424
#047320:14
#047330:00340000
#047340:00003424
#0483a0:14
#048390:00340000
#048380:00003424
#051340:14
#051330:00340000
#051320:0000000034003434
#052320:0034340034002400
#059320:14240000
#0593a0:00001424
#0613a0:14
#061390:00340000
#061380:00003424
#062340:14240000
#062380:00001424
#063320:14
#063330:00340000
#063340:00003424
#066380:14240000
#066340:00001424
#0703a0:14
#070380:00240000
#070340:0014
#070320:00000024
#074320:14
#074340:00240000
#074380:0014
#0743a0:00000024
#077380:0000000000140000
#0773a0:0000000000000024
#079340:0000000000140000
#079320:0000000000000024
#081380:0000000000140000
#0813a0:0000000000000024
#084340:00001424
#0873a0:14
#087390:00340000
#087380:00003424
#088320:14
#088330:00340000
#088340:00003424
#091380:14
#091390:00340000
#0913a0:0024
#093320:14
#095340:0024000000000000
