This file was generated by Ched 2.7.0.0.
#TITLE ""
#ARTIST ""
#DESIGNER ""
#DIFFICULTY 0
#PLAYLEVEL
#SONGID ""
#WAVE ""
#WAVEOFFSET 0
#JACKET ""
#REQUEST "ticks_per_beat 480"
#00002: 4
#BPM01: 103
#00008: 01
#TIL00: ""
#VOLUME: ""
#HISPEED 00
#MEASUREHS 00
#0131b:000000000000000013530053000000000000000000000013
#01317:0013000000000000
#01312:000000000013000000000000000000000000000000000000
#01315:000000000000000000000000000000000013000013000000
#01318:0000000000530000
#0161b:000000000013000000130000000000000013000000000000
#01612:000000000013000000000000230013000000000023000000
#01618:0013000000000000
#01616:0000002300000000
#01617:000000000000000000000000000023000000000000230000
#02112:000000000000000000000013000000000000000000230013
#02117:000000000013000000000000130000000000000000000000
#02114:000000130000000000000000000013000000000000000000
#02119:000013000000000000000000000000130000000000000000
#02116:130000000000000000000000000000000013000000000000
#0211b:000000000000000000000000000000000000130000130023
#02110:41
#02212:001300000000130000230000
#02215:000000000013000013000000000000130000000000130023
#02218:000000000000000000000013000000000000000000230013
#0221b:000000000000001300130000
#0291b:000000000000000000000000000000130000000000000023
#02918:140000140000000000001300
#02916:000000000000000000000000000000000000000000000000000000000000000000000000000000000000000000000000000000000000000000000000000000000000000000000000000000000000000000000000000000000000000000000000000000000000000000000000000000000000000000000000000000000000000000000000000000000000000000000000000000000000000000000000000000000000000000000000000000000000000000000000000000000000000000000000000000000000000000000000000000000000000000000000000000000000000000000000000000000000000000000016000000000000000000000000000000000000000000000000000000000000000000000000000000000000000000000000000000000000000000000000000000000000000000000000000000000000000000000000000000000000000000000000000000000000000000000000000000000000000000000000000000000000000000000000000000000000000000000000000000000000000000000000000000000000000000000000000000000000000000000000000000000000000000000000000000000000000000000000000000000000000000000000000000000000000000000000000000000000000000000000000000000000000000000000000000000000000000000000000000000000000000000000000000000000000000000000000000000000000000000000000000000000000000000000000000000000000000000000000000000000000000000000000000000000000000000000000000000000000000000000000000000000000000000000000000000000000000000000000000000000000000000000000000000000000000000000000000000000000000000000000000000000000000000000000000000000000000000000000000000000000000000000000000000000000000000000000000000000000000000016000000000000000000000000000000000000000000000000000000000000000000000000000000000000000000000000000000000000000000000000000000000000000000000000000000000000000000000000000000000000000000000000000000000000000000000000000000000000000000000000000000000000000000000000000000000000000000000000000000000000000000000000000000000000000000000000000000000000000000000000000000000000000000000000000000000000000000000000000000000000000000000000000000000000000000000000000000000000000000000000000000000000000000000000000000000000000000000000000000000000000000000000000000000000000000000000000000000000000000000000000000000000000000000000000000000000000000000000000000000000000000000000000000000000000000000000000000000000000000000000000000000000000000000000000000000000000000000000000000000000000000000000000000000000000000000000000000000000000000000000000000000000000000000000000000000000000000000000000000000000000000000000000000000000000000000000000000000000000000000000000000000000000000000000000000000000000000000000000000000000000000000000000000000000000000000000000000000000000000000000000000000000000000000000000000000000000000000000000000000000000000000000000000000000000000000000000000000000000000000000000000000000000000000000000000000000000000000000000000000000000000000000000000000000000000000000000000000000000000000000000000000000000000000000000000000000000000000000000000000000000000000000000000000000000000000000000000000000000000000000000000000000000000000000000000000000000000000000000000000000000000000000000000000000000000000000000000000000000000000000000000000000000000000000000000000000000000000000000000000000000000000000000000000000000000000000000000000000000000000000000000000000000000000000000000000000000000000000000000000000000000000000000000000000000000000000000000000000000000000000000000000000000000000000000000000000000000000000000000000000000000000000000000000000000000000000000000000000000000000000000000000000000000000000000000000000000000000000000000000000000000000000000000000000000000000000000000000000000000000000000000000000000000000000000000000000000000000000000000000000000000000000000000000000000000000000000000000000000000000000000000000000000000000000000000000000000000000000000000000000000000000000000000000000000000000000000000000000000000000000000000000000000000000000000000000000000000000000000000000000000000000000000000000000000000000000000000000000000000000000
#02914:1416141600000000
#02912:000000000000000000000000000000130000000000000023
#02915:000000000013
#0311a:001400
#03118:000000000000000000000014000014000000000000000014
#03114:0000001400000000
#03112:000000000000001400000000
#0311f:21
#03416:000000000014000000000000000000000000130000000000000000000000000000001300000000000000000000001400
#0341b:000000000000000000130000000000000013000000000000
#0341a:000000000014000000000000000000000000000000000000000000000000000000000000000000000000000000000000
#03417:000000000000001300000000
#03412:000000000000000000000000000000000000000000000024
#03816:000000000014000000000000000000000000140000000000000000000000240000000000140000000000000000000000
#03812:000000000014000000000000000000000000000000000000000000000000140000000000240000000000000000000000
#03818:0000000014000024
#03814:0000000024000014
#0381a:0000002400000000
#0041b:00131300
#00416:0013
#00412:13000013
#00918:0014000000001300
#00916:0014
#00914:000000000000000000000000000000000014000000000000
#00912:1300000000000014
#0091b:13
#0091a:001400
#00915:00130000
#00910:41
#02315:000000000000130000000013000000000000000000000000
#02318:000013000000000013000000000000130000000000000000
#0231b:000000000013000000000000130000000000000000000000
#02319:0000000000000013
#02312:000000130000000000000000000013000000130000000000
#02314:0000000000000023
#02317:00000023
#03012:000000130000000000000000000000000000000014000000
#0301a:00000014
#03014:000000000000130000000000000000000014000000000014
#0301b:0013000000000000
#03019:00130000
#03018:000000000000000000000000000000000000000000000024
#03312:000000000014000000000000000000000014000000000014
#0331a:000000140000000000000024000014000000000000000000
#03318:000014000014
#03314:000000000000000000140000000000000000000014000000
#03316:140000000000000000000000000000000000000000000014
#0391a:14
#03918:000000000000000000000013000000000000000000000000
#0391b:000000000000000013000000000000130013000000000000
#03916:240000000000000000000000000000000013000000000000
#03915:0000001300000000
#03914:000000000013
#03919:000000000013
#03917:000000000000000000000000000000000000000000000013
#03912:0013
#03910:41
#04215:00000013
#0421b:000000130013000000130000000000000000000000000000
#04212:000000000013000000230000000000000000000000000000
#04219:0000000000130013
#04213:0013
#04218:00000023
#04214:0000000000230023
#0421a:0023
#04017:000000130000000000000000000000000000000000130013
#0401b:0013
#04016:000000000000000000000000000013000013000000000000
#04012:000000000000000000000000000000000000000000000013
#04515:001300
#04512:000000000013000000000000000000000000000000001300000000000000130000001300000000000000000000001400
#0451b:000000130000130000001300
#04518:0000001300000000
#04517:000000000000000000000000000000000013000000000000
#04510:41
#0121a:00000013
#01219:0000000000130000
#0121b:1300000000000013
#01215:000000000013
#01214:000000140000000000000000000000000013000000000000
#01213:000000000000001300000000
#01216:000000000000000000000000140000000000000000000013
#01212:131400
#01218:00130000
#01915:000013000000000000000000130000000000000000130000
#0191b:000000130000000000000013000000000000000013000013
#01912:000000000013000013000000000000000013000000000000
#01418:000000000013000000000000000000000013000013000000
#01412:000000000000000013530053000000000000000000000013
#01415:0000000000530000
#01512:000000000000130000000000130000000000130000000013
#0151b:000000130000130000001300
#01518:0013000000130000
#01515:0000001300000000
#01510:41
#01018:0014000000001300
#01016:0014
#01014:000000000000000000000000000000000014000000000000
#01012:1300000000000014
#0101b:13
#0101a:001400
#01015:00130000
#01114:0014000000000000
#01116:0014
#01118:000000000000130000000000000000000014000000000000
#0111a:0000000000000014
#01115:00000013
#0111b:13
#01112:131400
#02016:13130000
#02017:00001313
#02012:0013000000002300
#0201b:0000230000130000
#01815:001300000000000000230000
#0181b:000000130000000000000000000000000023000000000000
#01814:000000000013000000000000000000000000000000000000
#0181a:00130000
#01813:001300
#01819:0000001300000000
#01812:000000000000000000000023000000230000000000230000
#01818:000000230023
#01715:000013000000000000000013000000000000000000000000
#01712:000000000013000000000000000000000013000000000000
#01718:001300
#0171b:000000130000000000000000130000000000000013530053
#02416:130000000000000000000000000023000000000000130000
#02412:000000000000000000130000000000000013000000000000
#0241b:230000000000000000000000230013000000000000230000
#02417:0000002300000000
#02714:0000000000000013
#0271b:000000130000000000000000000013000000130000000000
#02718:000000000000130000000013000000000000000000000000
#02715:000013000000000013000000000000130000000000000000
#02712:000000000013000000000000130000000000000000000000
#02719:0000000000000023
#02716:00000023
#02817:13
#02812:2300002434343434
#0281a:0000000034343434
#0251b:000000000000000000000013000000000000000000230013
#02512:000000000000000000000000000000000000130000130023
#02516:000000000013000000000000130000000000000000000000
#02519:000000130000000000000000000013000000000000000000
#02514:000013000000000000000000000000130000000000000000
#02517:000000000000000000000000000000000013000000000000
#0251f:11
#02615:000000000000000000000013000000000000000000230013
#02618:000000000013000013000000000000130000000000130023
#0261b:001300000000130000130000
#02612:000000000000001300130000
#03212:000000000000000014000000000000000000000000140000
#03214:000000000000000000000014000014000000000000000000
#03218:0000001400000000
#0321a:000000000000001400000000
#03210:41
#03516:000000140000000000140000140000000014000000000014
#0351a:000000000014000014000014000000000000000000140014
#03512:000000000000000000000000000000000000001400000000
#03616:000000140000000000140000140000000014000014000014
#03612:000000000014000014000014000000000000000000000000
#0361a:000000000000000000000000000000000000000000000014
#0371a:000000000000000014000000000000000014000000000014
#03716:000000000014000000140000000014000000000014000014
#03712:000000140014000000000000000000000000000014000000
#04112:000000000000130000000000000000130013000000000000
#0411b:000000000013000000000000000000000000000000000000000000000000000000001300000000000000000000000000
#04115:000000000000000013000013000000000000000000000013
#04118:000000000000000000130000130000000000000000000013
#04114:000000000013
#04119:000000000013
#04313:13
#0431b:000000130023000000000000130000000000000000000000
#04312:000000230013000013000000000000130013000000000000
#04315:000000000000000000000013000000000000000000000000
#04317:000000000000000000000000000000000013000000000000
#04318:0000001300000000
#04319:000000000013
#04314:000000000013
#04316:000000000000000000000000000000000000000000000013
#0431a:23
#04416:000000130000000000000000000000000000000000130013
#04412:0013
#04417:000000000000000000000000000013000013000000000000
#0441b:000000000000000000000000000000000000000000000013
#05215:000000000000000000130000000013000000000000000013
#05218:000000000000000000000000000000000013000000000000
#05212:00000013
#0521b:53
#05018:0000001300130000
#0501b:000000000013
#05012:000000000000000000000000000000000013000000000000
#05015:530000000000000000000000130000000000000000000013
#0011b:000000000013000013000013
#00118:16001616
#00112:0023002300230023
#00218:1616
#0021b:000000000013000000000013
#00212:0023002300230023
#00318:16001616
#0031b:000000000013000013000000
#00312:0023002300230023
#00512:160000000013160013160013
#0051b:0023002300230023
#00612:160000000013160000000013
#0061b:0023002300230023
#00712:160000000013160013160000
#0071b:0023002300230023
#00812:13
#0081b:13
#05118:0013130000000000
#05115:000000000013000000000000000000000000000000000000
#0511a:00000053
#05119:0053
#0471b:0013
#04712:54
#0471a:00000053
#04912:00130000
#04914:00000053
#04913:0053
#05412:00130000
#0541b:53530000
#05414:00000053
#0541a:0053
#05419:00000053
#05413:0053
#05318:00130000
#0531a:00000053
#05319:0053
#0481b:000000000000000000000000000000000000000000000013
#04818:000000000000530000000000000000000013000000000000
#04812:000000000000000000130000000013000000000000000000
#04819:53
#04616:00540054
#04612:0054
#05515:53
#05518:53
#02952:000000000000000000000000000000000000000000000033
#0295b:000000000000000000000000000000000000000000000043
#02958:240000240000000000002300
#02956:000000000000000000000000000000000000000000000000000000000000000000000000000000000000000000000000000000000000000000000000000000000000000000000000000000000000000000000000000000000000000000000000000000000000000000000000000000000000000000000000000000000000000000000000000000000000000000000000000000000000000000000000000000000000000000000000000000000000000000000000000000000000000000000000000000000000000000000000000000000000000000000000000000000000000000000000000000000000000000000056000000000000000000000000000000000000000000000000000000000000000000000000000000000000000000000000000000000000000000000000000000000000000000000000000000000000000000000000000000000000000000000000000000000000000000000000000000000000000000000000000000000000000000000000000000000000000000000000000000000000000000000000000000000000000000000000000000000000000000000000000000000000000000000000000000000000000000000000000000000000000000000000000000000000000000000000000000000000000000000000000000000000000000000000000000000000000000000000000000000000000000000000000000000000000000000000000000000000000000000000000000000000000000000000000000000000000000000000000000000000000000000000000000000000000000000000000000000000000000000000000000000000000000000000000000000000000000000000000000000000000000000000000000000000000000000000000000000000000000000000000000000000000000000000000000000000000000000000000000000000000000000000000000000000000000000000000000000000000000000056000000000000000000000000000000000000000000000000000000000000000000000000000000000000000000000000000000000000000000000000000000000000000000000000000000000000000000000000000000000000000000000000000000000000000000000000000000000000000000000000000000000000000000000000000000000000000000000000000000000000000000000000000000000000000000000000000000000000000000000000000000000000000000000000000000000000000000000000000000000000000000000000000000000000000000000000000000000000000000000000000000000000000000000000000000000000000000000000000000000000000000000000000000000000000000000000000000000000000000000000000000000000000000000000000000000000000000000000000000000000000000000000000000000000000000000000000000000000000000000000000000000000000000000000000000000000000000000000000000000000000000000000000000000000000000000000000000000000000000000000000000000000000000000000000000000000000000000000000000000000000000000000000000000000000000000000000000000000000000000000000000000000000000000000000000000000000000000000000000000000000000000000000000000000000000000000000000000000000000000000000000000000000000000000000000000000000000000000000000000000000000000000000000000000000000000000000000000000000000000000000000000000000000000000000000000000000000000000000000000000000000000000000000000000000000000000000000000000000000000000000000000000000000000000000000000000000000000000000000000000000000000000000000000000000000000000000000000000000000000000000000000000000000000000000000000000000000000000000000000000000000000000000000000000000000000000000000000000000000000000000000000000000000000000000000000000000000000000000000000000000000000000000000000000000000000000000000000000000000000000000000000000000000000000000000000000000000000000000000000000000000000000000000000000000000000000000000000000000000000000000000000000000000000000000000000000000000000000000000000000000000000000000000000000000000000000000000000000000000000000000000000000000000000000000000000000000000000000000000000000000000000000000000000000000000000000000000000000000000000000000000000000000000000000000000000000000000000000000000000000000000000000000000000000000000000000000000000000000000000000000000000000000000000000000000000000000000000000000000000000000000000000000000000000000000000000000000000000000000000000000000000000000000000000000000000000000000000000000000000000000000000000000000000000000000000000000000000000000000000000
#02954:2466246600000000
#02955:000000000023
#03054:000000000000000000000000000000000000000000000064
#03058:000000000000000000000000000013000000000000000014
#03055:000000000000001300000000
#03352:000000000054000000000000000000000054000000000054
#0335a:000000000000006400000000
#03358:000000000064
#03354:000000000064
#03356:000000000000000000000000000000000000000000000054
#03956:64
#0395a:64
#03952:0053
#04057:000000530000000000000000000000000000000000000053
#04056:000000000000000000000000000000000063000000000000
#0345b:000000000000000000630000000000000063000000000000
#0345a:000000000024000000000000000000000000000000000000000000000000000000000000000000000000000000000000
#03456:000000000024000000000000000000000000000000000000000000000000000000006300000000000000000000005400
#03457:000000000000005300000000
#03452:000000000000000000000000000000000000000000000014
#02355:00630000
#02352:0053000000000000
#02358:005300
#0235b:0063
#0135b:000000000000000000000000000000000000000000000063
#01352:000000000053000000000000000000000000000000000000
#01355:000000000063
#01552:000000000000000000000000230000000000000000000053
#01558:0053000000530000
#01555:0000006300000000
#0155b:000000230000000000006300
#01256:000000000000000000000000000000000000000000000063
#01458:000000000053000000000000000000000000000053000000
#01452:000000000000000000000000000000000000000000000053
#0165b:000000000000000000630000000000000063000000000000
#01652:000000000000005300000000
#03152:000000000014000000000000000054000000000000000000
#0315a:000000000014000000000000000000000014000000000000
#03154:000000000000000000000000000000000014000000000000
#03158:000000000000000000000000000054000000000000000054
#02056:63630000
#02057:00005353
#02052:0023000000000000
#0205b:0000000000230000
#01952:000000000000000053000000000000000053000000000000
#01955:0063
#01758:005300
#0175b:0063
#01752:000000000000000000000000000000000053000000000000
#02456:6300000000000063
#0245b:630000000000000000000000000063000000000000630000
#02452:000000000000000000530000000000000053000000000000
#02857:53
#02852:53
#02758:00530000
#0275b:0063000000000000
#02755:006300
#02752:0053
#02658:005300
#02255:006300
#03254:000000000000006400000000
#0325a:000000000014000000000000000064000000000000000000
#03258:000000000000000000000000000000000014000000000000
#03252:000000000014000000000000000000000014000000000000
#03556:000000000000000000000000000000000064000000000064
#03552:000000000000000000000000000000000000002400000000
#03656:000000000000000000000000000000000054000000000000
#0365a:000000000000000000000000000000000000000000000064
#03752:000000000054000000000000000000000000000054000000
#03756:000000000000000000000000000064000000000054000064
#0375a:000000000000000000000000000000000064000000000064
#03852:000000000024000000000000000000000000000000000000000000000000000000000000000000000000000000000000
#03856:000000000024000000000000000000000000000000000000000000000000000000000000000000000000000000000000
#0415b:000000000023000000000000000000000000000000000000000000000000000000000000000000000000000000000000
#04158:0053
#04155:000000000000000000000000000000000000000000000063
#04456:000000630000000000000000000000000000000000000063
#04457:000000000000000000000000000000000053000000000000
#0435b:0063
#04552:000000000023000000000000000000000000000000000000000000000000000000005300000000000000000000000000
#0455b:000000630063
#0015b:000000000023000023000023
#00158:56005656
#00258:5656
#0025b:000000000023000000000023
#00358:56005656
#0035b:000000000023000023000000
#00552:660000000023660023660023
#00652:660000000023660000000023
#00752:660000000023660023660000
#00852:53
#0085b:63
#00452:53
#0045b:0063
#0505b:000000000063
#05052:000000000000000000000000000000000053000000000000
#05055:000000000000000000000000630000000000000000000063
#05255:000000000000000000000000000063000000000000000063
#05252:00000053
#0485b:000000000000000000000000000000000000000000000063
#04858:000000000000000000000000000000000053000000000000
#04852:000000000000005300000000
#001380:16005656
#0013b0:000000000053000053000053
#002380:5656
#0023b0:000000000053000000000053
#003380:56005656
#0033b0:000000000053000053000000
#0043b0:23
#004321:13
#004361:00230000
#0043b1:0013
#004371:00000023
#005321:160000000053560053560053
#006321:560000000053560000000053
#007321:560000000053560053560000
#008321:53
#008351:0023
#0083b0:13
#008380:0023
#012360:000000000000000000000000000000000000000000000013
#013320:0023000000000000
#013320:000000000013000000000000000000000000000000000000
#013360:002300
#013380:000000000000000000132300
#013351:000000000013
#013321:000000000000000000000000000000000000000000000023
#0133b0:000000000000000000000000000000000000000000000013
#014380:0023000000000000
#014351:000000130023000000000000000000000000000000000000
#014380:000000000013000000000000000000000000000000000000
#0143b0:002300
#014350:000000000000000000132300
#014381:000000000013
#0143b1:000000000000000000000000000000000000000000000023
#014320:000000000000000000000000000000000000000000000013
#015350:0023000000000000
#015381:0013002300000000
#0153b1:00530000
#015350:0000001300230000
#015320:0053
#015381:0000000000130000
#0153b1:00000023
#0153b1:000000000013
#015381:000000000000000000000000000000000000000000000023
#015320:000000000000000000000000000000000000000000000013
#016350:0023000000000000
#0163b0:0000001300000000
#016370:0023
#016320:000000000000001300000000
#016360:000000000000000000000000000000000023000000000000
#0163b1:000000000000000000000000000000000013000000000000
#016371:000000000023
#017381:000000133300000000000000
#0173b1:000000000000000000000023000000000000000000000000
#0173b1:0013
#017381:0000000000230000
#017320:000000000000000000000000000000130033000000000000
#017350:000000000023
#018380:0000000013230000
#019380:000000132300000000000000
#019321:001300
#019351:000000000000000000000023000000000000000000000000
#019351:0013
#019321:0000000000230000
#019380:000000000000000000000000000000130023000000000000
#019321:000000000000000000000000000000000013000000000000
#019351:000000000023
#020361:13530000
#020321:0053000023000000
#020370:00001353
#0203b0:0000000000530000
#0213b0:23
#021320:000000132300000000000000
#021371:000000000000000013000023000000000000000000000000
#022381:000000130023000000000000000000000000000000000000
#0223b1:000000132300000000000000
#022350:001300
#022320:000000000000000000000023000000000000000000000000
#023320:0013000000000000
#023350:000000000023000000000000000000000000000000000000
#023350:00130000
#023320:002300
#023381:001300
#0233b1:000000000000000000000023000000000000000000000000
#0233b1:0013
#023381:000000000000002300000000
#0243b1:13
#024371:00230000
#024360:13
#024320:00230000
#024320:0000001300000000
#024360:0023
#0243b0:000000000000001300000000
#024370:000000000000000000000000000000000023000000000000
#024321:000000000000000000000000000000000013000000000000
#024361:0000000000000053
#025321:23
#0243b0:0000000000000013
#025370:23
#0253b0:000000132300000000000000
#025361:000000000000000013000023000000000000000000000000
#026351:000000130023000000000000000000000000000000000000
#026321:000000132300000000000000
#026380:001300
#0263b0:000000000000000000000023000000000000000000000000
#0273b0:0013000000000000
#027380:000000000023000000000000000000000000000000000000
#027380:00130000
#0273b0:002300
#027351:001300
#027321:000000000000000000000023000000000000000000000000
#027321:0013
#027351:000000000000002300000000
#028321:13
#028361:00230000
#028370:13
#0283b0:00230000
#028320:0000001434343434
#029340:3456545624000000
#0283a1:0000001434343434
#029381:34542400
#029361:000000000000000000000000000000000000000000000000000000000000000000000000000000000000000000000000000000000000000000000000000000000000000000000000000000000000000000000000000000000000000000000000000000000000000000000000000000000000000000000000000000000000000000000000000000000000000000000000000000000000000000000000000000000000000000000000000000000000000000000000000000000000000000000000000000000000000000000000000000000000000000000000000000000000000000000000000000000000000000000056000000000000000000000000000000000000000000000000000000000000000000000000000000000000000000000000000000000000000000000000000000000000000000000000000000000000000000000000000000000000000000000000000000000000000000000000000000000000000000000000000000000000000000000000000000000000000000000000000000000000000000000000000000000000000000000000000000000000000000000000000000000000000000000000000000000000000000000000000000000000000000000000000000000000000000000000000000000000000000000000000000000000000000000000000000000000000000000000000000000000000000000000000000000000000000000000000000000000000000000000000000000000000000000000000000000000000000000000000000000000000000000000000000000000000000000000000000000000000000000000000000000000000000000000000000000000000000000000000000000000000000000000000000000000000000000000000000000000000000000000000000000000000000000000000000000000000000000000000000000000000000000000000000000000000000000000000000000000000000000056000000000000000000000000000000000000000000000000000000000000000000000000000000000000000000000000000000000000000000000000000000000000000000000000000000000000000000000000000000000000000000000000000000000000000000000000000000000000000000000000000000000000000000000000000000000000000000000000000000000000000000000000000000000000000000000000000000000000000000000000000000000000000000000000000000000000000000000000000000000000000000000000000000000000000000000000000000000000000000000000000000000000000000000000000000000000000000000000000000000000000000000000000000000000000000000000000000000000000000000000000000000000000000000000000000000000000000000000000000000000000000000000000000000000000000000000000000000000000000000000000000000000000000000000000000000000000000000000000000000000000000000000000000000000000000000000000000000000000000000000000000000000000000000000000000000000000000000000000000000000000000000000000000000000000000000000000000000000000000000000000000000000000000000000000000000000000000000000000000000000000000000000000000000000000000000000000000000000000000000000000000000000000000000000000000000000000000000000000000000000000000000000000000000000000000000000000000000000000000000000000000000000000000000000000000000000000000000000000000000000000000000000000000000000000000000000000000000000000000000000000000000000000000000000000000000000000000000000000000000000000000000000000000000000000000000000000000000000000000000000000000000000000000000000000000000000000000000000000000000000000000000000000000000000000000000000000000000000000000000000000000000000000000000000000000000000000000000000000000000000000000000000000000000000000000000000000000000000000000000000000000000000000000000000000000000000000000000000000000000000000000000000000000000000000000000000000000000000000000000000000000000000000000000000000000000000000000000000000000000000000000000000000000000000000000000000000000000000000000000000000000000000000000000000000000000000000000000000000000000000000000000000000000000000000000000000000000000000000000000000000000000000000000000000000000000000000000000000000000000000000000000000000000000000000000000000000000000000000000000000000000000000000000000000000000000000000000000000000000000000000000000000000000000000000000000000000000000000000000000000000000000000000000000000000000000000000000000000000000000000000000000000000000000000000000000000000000000000000000000000
#029381:000000000000000000135300
#0293b1:000000000000000000000000000000000000000000000023
#029350:000000000013
#029320:000000000000000000000000000000000000000000000023
#030350:000000000000000000130000330023000000000000000000
#030381:000000000000132300000000
#030381:000000000000000000000000000000000000000000140024
#030340:000000000000000000000000000000000000000000000014
#031320:000000340024000000000000000000000000000000000000
#0313a1:000000140024000000000000000000000000000000000000
#031321:000000000000143400000000
#031341:000000000000000000000000000000000024000000000000
#031380:000000000000001400000000
#0313a0:000000000000000000000000000000000024000000000000
#031340:000000000000000000000000000000000000000000140024
#031381:000000000000000000000000000000000000000000000014
#0323a1:000000340024000000000000000000000000000000000000
#032320:000000140024000000000000000000000000000000000000
#0323a0:000000000000143400000000
#032380:000000000000000000000000000000000024000000000000
#032341:000000000000001400000000
#032321:000000000000000000000000000000000024000000000000
#033321:000000000014000000000000000000000000000000000000
#033341:002400
#0333a1:000000000000000000000014000034000000000000000000
#033381:000000000000000000000000000000000034000034000000
#033361:000000000000000000000000000000000000000000000034
#0343a1:000000000054000000000000000000000000000000000000000000000000000000000000000000000000000000000000
#034361:00240000
#033320:000000000000000000000000140034000034000000000034
#033340:000000000034
#034360:000000000054000000000000000000000000000000000000000000000000000000000000000000000000000000000000
#034320:00240000
#0343b0:0000001300000000
#034370:0023
#034321:000000000000132300000000
#034370:000000000000001300002300
#0343b0:000000000000000000000000000000000033000000000000
#034361:000000000000000000000000000000000013000000000000
#034321:000000000023
#034361:000000000000000000000000000000000000000000000014
#0353a1:0024000000000000
#035361:000000000014000024000000000000000000000000000000
#0353a1:000000000000000000000000000014000024000000000000
#035360:000000000000000000000000000000000014000000240000
#035320:000000000000000000000000000000000000005400000000
#035360:000000000000000000000000000000000000000000000014
#036320:0024000000000000
#036360:000000000014000024000000000000000000000000000000
#036320:000000000000000000000000000014000024000000000000
#036361:000000000000000000000000000000000014000000000000
#0363a1:000000000024
#0363a1:000000000000000000000000000000000000000000000014
#037361:0024000000000000
#037321:000000000014000000000000000000000000000000000000
#037361:002400
#0373a1:000000000000000000000014000034000034000000000034
#037361:000000000034
#038361:000000000054000000000000000000000000000000000000000000000000000000000000000000000000000000000000
#0383a1:00240000
#037360:000000000000000000000000140034000000000000000034
#037320:000000000000000000000000000000000034000034000000
#038320:000000000054000000000000000000000000000000000000000000000000000000000000000000000000000000000000
#038360:00240000
#039360:14
#039320:00240000
#0393a1:14
#039361:00240000
#039321:0013
#039361:0000000000230000
#039321:000000000000000000000000000000000000000000000013
#040321:0023000000000000
#040370:0013000000000000
#0403b0:0000002300000000
#040361:0000001323000000
#0403b1:000000000000000000000000000013000023000000000000
#040360:000000000000000000000000000000000013000000000000
#040320:0000000000000023
#040370:000000000000000000000000000000000000000000000013
#0413b0:000000000053000000000000000000000000000000000000000000000000000000000000000000000000000000000000
#041370:00230000
#041380:0013
#0413b0:0000000000230000
#041350:000000000000000000000000000000000000000000000013
#042320:0023000000000000
#0433b0:0013
#043370:0000000000230000
#0433b0:000000000000000000000000000000000000000000000013
#0443b0:0023000000000000
#044361:0013000000000000
#044321:0000002300000000
#044370:0000001323000000
#044320:000000000000000000000000000013000023000000000000
#044371:000000000000000000000000000000000013000000000000
#0443b1:0000000000000023
#044361:000000000000000000000000000000000000000000000013
#045321:000000000053000000000000000000000000000000000000000000000000000000000000000000000000000000000000
#045361:00230000
#0453b1:0013
#045371:0000000000230000
#045321:000000000000000000000000000000000013000000000000
#045361:000000000023
#0453b0:000000000013
#045370:000000000000000000000000000000000000000000000023
#048380:000000000000132300000000
#048321:000000000000001300000000
#048351:000000000000000000000000000000000023000000000000
#048380:000000000000000000000000000000000013000000000000
#0483b0:0000000000000023
#048351:000000000000000000000000000000000000000000130023
#0483b0:000000000000000000000000000000000000000000000013
#049370:00230000
#050350:0013
#050320:0000000000230000
#050320:000000000000000000000000000000000013000000000000
#050350:000000000023
#0503b1:000000000013
#050381:000000000000000000000000000000000000000000000023
#050350:000000000000000000000000000000000000000000000013
#051320:0023000000000000
#052380:000000000000132300000000
#052351:000000000000001300000000
#052321:000000000000000000000000000000000023000000000000
#052321:00000013
#052351:0000000000000023
#0523b0:000000000000000000000000000000000000000000130023
#052351:000000000000000000000000000000000000000000000013
#053321:00230000
#0139b0:000000000000000013000053000000000000000000000000
#013980:000000000000000000000000000000000000000000000000000000000000000000000000000000000000000000000000000000000000000000000000000000000000000000000000000000000000000000000000000000000000000000000000000000000000000000000000000000000000000000000000000000000000000000000000000000000000000000000000000000000000000000000000000000000000000000000000000000000000000000000000000000000000000000000000000000000000000000000000000000000000000000000000000000000000000000000000000000000000000000000000000000000000000000000000000000000000000000000000000000000000000000000000000000000000000000000000000000000000000000000000000000000000000000000000000000000000000000000000000000000000000000000000000000000000000000000000000000000000000000000000000000000000000000000000000000000000000000000000000000000000000000000000000000000000000000000000000000000000000000000000000000000000000000000000000000000000000000000000000000000000000000000000000000000000000000000000000000000000000000000000000000000000000000000000000000000000000000000000000000000000000000000000000000000000000000000000000000000000000000000000000000000000000000000000000000000000000000000000000000000000000000000000000000000000000000000000000000000000000000000000000000000000000000000000000000000000000000000000000000000000000000000000000000000000000000000000000000000000000000000000000000000000000000000000000000000000000000000000000000000000000000000000000000000000000000000000000000000000000000000000000000000000000000000000000000000000000000000000000000000000000000000000000000000000000000000000000000000000000000000000000000000000000000000000000000000000000000000000000000000000000000000000000000000000000000000000000000000000000000000000000000000000000000000000000000000000000000000000000000000000000000000000000000000000000000000000000000000000000000000000000000000000000000000000000000000000000000000000000000000000000000000000000000000000000000000000000000000000000000000000000000000000000000000000000000000000000000000000000000000000000000000000000000000000000000000000000000000000000000000000000000000000000000000000000000000000000000000000000000000000000000000000000000000000000000000000000000000000000000000000000000000000000000000000000000000000000000000000000000000000000000000000000000000000000000000000000000000000000000000000000000000000000000000000000000000000000000000000000000000000000000000000000000000000000000000000000000000000000000005353230000000000000000000000000000000000000000000000000000000000000000000000000000000000000000000000000000000000000000000000000000000000000000000000000000000000000000000000000000000000000000000000000000000000000000000000000000000000000000000000000000000000000000000000000000000000000000000000000000000000000000000000000000000000000000000000000000000000000000000000000000000000000000000000000000000000000000000000000000000000000000000000000000000000000000000000000000000000000000000000000000000000000000000000000000000000000000000000000000000000000000000000000000000000000000000000000000000000000000000000000000000000000000000000000000000000000000000000000000000000000000000000000000000000000000000000000000000000000000000000000000000000000000000000000000000000000000000000000000000000000000000000000000000000000000000000000000000000000000000000000000000000000000000000000000000000000000000000000000000000000000000000000000000000000000000000000000000000000000000000000000000000000000000000000000000000000000000000000000000000000000000000000000000000000000000000000000000000000000000000000000000000000000000000000000000000000000000000000000000000000000000000000000000000000000000000000000000000000000000000000000000000000000000000000000000000000000000000000000000000000000000000000000000000000000000000000000000000000000000000000000000000000000000000000000000000000000000000000000000000000000000000000000000000000000000000000000000000000000000000
#014920:000000000000000013000053000000000000000000000000
#014950:000000000000000000000000000000000000000000000000000000000000000000000000000000000000000000000000000000000000000000000000000000000000000000000000000000000000000000000000000000000000000000000000000000000000000000000000000000000000000000000000000000000000000000000000000000000000000000000000000000000000000000000000000000000000000000000000000000000000000000000000000000000000000000000000000000000000000000000000000000000000000000000000000000000000000000000000000000000000000000000000000000000000000000000000000000000000000000000000000000000000000000000000000000000000000000000000000000000000000000000000000000000000000000000000000000000000000000000000000000000000000000000000000000000000000000000000000000000000000000000000000000000000000000000000000000000000000000000000000000000000000000000000000000000000000000000000000000000000000000000000000000000000000000000000000000000000000000000000000000000000000000000000000000000000000000000000000000000000000000000000000000000000000000000000000000000000000000000000000000000000000000000000000000000000000000000000000000000000000000000000000000000000000000000000000000000000000000000000000000000000000000000000000000000000000000000000000000000000000000000000000000000000000000000000000000000000000000000000000000000000000000000000000000000000000000000000000000000000000000000000000000000000000000000000000000000000000000000000000000000000000000000000000000000000000000000000000000000000000000000000000000000000000000000000000000000000000000000000000000000000000000000000000000000000000000000000000000000000000000000000000000000000000000000000000000000000000000000000000000000000000000000000000000000000000000000000000000000000000000000000000000000000000000000000000000000000000000000000000000000000000000000000000000000000000000000000000000000000000000000000000000000000000000000000000000000000000000000000000000000000000000000000000000000000000000000000000000000000000000000000000000000000000000000000000000000000000000000000000000000000000000000000000000000000000000000000000000000000000000000000000000000000000000000000000000000000000000000000000000000000000000000000000000000000000000000000000000000000000000000000000000000000000000000000000000000000000000000000000000000000000000000000000000000000000000000000000000000000000000000000000000000000000000000000000000000000000000000000000000000000000000000000000000000000000000000000000000000000000000005353230000000000000000000000000000000000000000000000000000000000000000000000000000000000000000000000000000000000000000000000000000000000000000000000000000000000000000000000000000000000000000000000000000000000000000000000000000000000000000000000000000000000000000000000000000000000000000000000000000000000000000000000000000000000000000000000000000000000000000000000000000000000000000000000000000000000000000000000000000000000000000000000000000000000000000000000000000000000000000000000000000000000000000000000000000000000000000000000000000000000000000000000000000000000000000000000000000000000000000000000000000000000000000000000000000000000000000000000000000000000000000000000000000000000000000000000000000000000000000000000000000000000000000000000000000000000000000000000000000000000000000000000000000000000000000000000000000000000000000000000000000000000000000000000000000000000000000000000000000000000000000000000000000000000000000000000000000000000000000000000000000000000000000000000000000000000000000000000000000000000000000000000000000000000000000000000000000000000000000000000000000000000000000000000000000000000000000000000000000000000000000000000000000000000000000000000000000000000000000000000000000000000000000000000000000000000000000000000000000000000000000000000000000000000000000000000000000000000000000000000000000000000000000000000000000000000000000000000000000000000000000000000000000000000000000000000000000000000000000000000
#0179b0:000000000000000000000000000000000000000013000023
#045920:000000000000000000000000000000000000000000000014
#046960:00540054
#046920:000000000000000000000000000000000000000000000000000000000000000000000000000000000000000000000000000000000000000000000000000000000000000000000000000000000000000000000000000000000000000000000000000000000000000000000000000000000000000000000000000000000000000000000000000000000000000000000000000000000000000000000000000000000000000000000000000000000000000000000000000000000000000000000000000000000000000000000000000000000000000000000000000000000000000000000000000000000000000000000000000000000000000000000000000000000000000000000000000000000000000000000000000000000000000000000000000000000000000000000000000000000000000000000000000000000000000000000000000000000000000000000000000000000000000000000000000000000000000000000000000000000000000000000000000000000000000000000000000000000000000000000000000000000000000000000000000000000000000000000000000000000000000000000000000000000000000000000000000000000000000000000000000000000000000000000000000000000000000000000000000000000000000000000000000000000000000000000000000000000000000000000000000000000000000000000000000000000000000000000000000000000000000000000000000000000000000000000000000000000000000000000000000000000000000000000000000000000000000000000000000000000000000000000000000000000000000000000000000000000000000000000000000000000000000000000000000000000000000000000000000000000000000000000000000000000000000000000000000000000000000000000000000000000000000000000000000000000000000000000000000000000000000000000000000000000000000000000000000000000000000000000000000000000000000000000000000000000000000000000000000000000000000000000000000000000000000000000000000000000000000000000000000000000000000000000000000000000000000000000000000000000000000000000000000000000000000000000000000000000000000000000000000000000000000000000000000000000000000000000000000000000000000000000000000000000000000000000000000000000000000000000000000000000000000000000000000000000000000000000000540000000000000000000000000000000000000000000000000000000000000000000000000000000000000000000000000000000000000000000000000000000000000000000000000000000000000000000000000000000000000000000000000000000000000000000000000000000000000000000000000000000000000000000000000000000000000000000000000000000000000000000000000000000000000000000000000000000000000000000000000000000000000000000000000000000000000000000000000000000000000000000000000000000000000000000000000000000000000000000000000000000000000000000000000000000000000000000000000000000000000000000000000000000000000000000000000000000000000000000000000000000000000000000000000000000000000000000000000000000000000000000000000000000000000000000000000000000000000000000000000000000000000000000000000000000000000000000000000000000000000000000000000000000000000000000000000000000000000000000000000000000000000000000000000000000000000000000000000000000000000000000000000000000000000000000000000000000000000000000000000000000000000000000000000000000000000000000000000000000000000000000000000000000000000000000000000000000000000000000000000000000000000000000000000000000000000000000000000000000000000000000000000000000000000000000000000000000000000000000000000000000000000000000000000000000000000000000000000000000000000000000000000000000000000000000000000000000000000000000000000000000000000000000000000000000000000000000000000000000000000000000000000000000000000000000000000000000000000000000000000000000000000000000000000000000000000000000000000000000000000000000000000000000000000000000000000000000000000000000000000000000000000000000000000000000000000000000000000000000000000000000000000000000000000000000000000000000000000000000000000000000000000000000000000000000000000000000000000000000000000000000000000000000000000000000000000000000000000000000000000000000000000000000000000000000000000000000000000000000000000000000000000000000000000000000000000000000000000000005454
#047920:24
#0479b0:0013
#048980:000000000000000000000000000000000000000000000000000000000000000000000000000000000000000000000000000000000000000000000000000000000000000000000000000000000000000000000000000000000000000000000000000000000000000000000000000000000000000000000000000000000000000000000000000000000000000000000000000000000000000000000000000000000000000000000000000000000000000000000000000000000000000000000000000000000000000000000000000000000000000000000000000000000000000000000000000000000000000000000000000000000000000000000000000000000000000000000000000000000000000000000000000000000000000000000000000000000000000000000000000000000000000000000000000000000000000000000000000000000000000000000000000000000000000000000000000000000000000000000000000000000000000000000000000000000000000000000000000000000000000000000000000000000000000000000000000000000000000000000000000000000000000000000000000000000000000000000000000000000000000000000000000000000000000000000000000000000000000000000053230000000000000000000000000000000000000000000000000000000000000000000000000000000000000000000000000000000000000000000000000000000000000000000000000000000000000000000000000000000000000000000000000000000000000000000000000000000000000000000000000000000000000000000000000000000000000000000000000000000000000000000000000000000000000000000000000000000000000000000000000000000000000000000000000000000000000000000000000000000000000000000000000000000000000000000000000000000000000000000000000000000000000000000000000000000000000000000000000000000000000000000000000000000000000000000000000000000000000000000000000000000000000000000000000000000000000000000000000000000000000000000000000000000000000000000000000000000000000000000000000000000000000000000000000000000000000000000000000000000000000000000000000000000000000000000000000000000000000000000000000000000000000000000000000000000000000000000000000000000000000000000000000000000000000000000000000000000000000000000000000000000000000000000000000000000000000000000000000000000000000000000000000000000000000000000000000000000000000000000000000000000000000000000000000000000000000000000000000000000000000000000000000000000000000000000000000000000000000000000000000000000000000000000000000000000000000000000000000000000000000000000000000000000000000000000000000000000000000000000000000000000000000000000000000000000000000000000000000000000000000000000000000000000000000000000000000000000000000000000000000000000000000000000000000000000000000000000000000000000000000000000000000000000000000000000000000000000000000000000000000000000000000000000000000000000000000000000000000000000000000000000000000000000000000000000000000000000000000000000000000000000000000000000000000000000000000000000000000000000000000000000000000000000000000000000000000000000000000000000000000000000000000000000000000000000000000000000000000000000000000000000000000000000000000000000000000000000000000000000000000000000000000000000000000000000000000000000000000000000000000000000000000000000000000000000000000000000000000000000000000000000000000000000000000000000000000000000000000000000000000000000000000000000000000000000000000000000000000000000000000000000000000000000000000000000000000000000000000000000000000000000000000000000000000000000000000000000000000000000000000000000000000000000000000000000000000000000000000000000000000000000000000000000000000000000000000000000000000000000000000000000000000000000000000000000000000000000000000000000000000000000000000000000000000000000000000000000000000000000000000000000000000000000000000000000000000000000000000000000000000000000000000000000000000000000000000000000000000000000000000000000000000000000000000000000000000000000000000000000000000000000000000000000000000000000000000000000000000000000000000000000000000000000000000000000000000000000000000000000000000000000000000000000000000000000000000000000000000000000000
#049920:00130000
#049950:000000000000000000000000000000000000000000000000000000000000000000000000000000000000000000000000000000000000000000000000000000000000000000000000000000000000000000000000000000000000000000000000000000000000000000000000000000000000000000000000000000000000000000000000000000000000000000000000000000000000000000000000000000000000000000000000000000000000000000000000000000000000000000000000000000000000000000000000000000000000000000000000000000000000000000000000000000000000000000000000000000000000000000000000000000000000000000000000000000000000000000000000000000000000000000000000000000000000000000000000000000000000000000000000000000000000000000000000000000000000000000000000000000000000000000000000000000000000000000000000000000000000000000000000000000000000000000000000000000000000000000000000000000000000000000000000000000000000000000000000000000000000000000000000000000000000000000000000000000000000000000000000000000000000000000000000000000000000000000000000000000000000000000000000000000000000000000000000000000000000000000000000000000000000000000000000000000000000000000000000000000000000000000000000000000000000000000000000000000000000000000000000000000000000000000000000000000000000000000000000000000000000000000000000000000000000000000000000000000000000000000000000000000000000000000000000000000000000000000000000000000000000000000000000000000000000000000000000000000000000000000000000000000000000000000000000000000000000000000000000000000000000000000000000000000000000000000000000000000000000000000000000000000000000000000000000000000000000000000000000000000000000000000000000000000000000000000000000000000000000000000000000000000000000000000000000000000000000000000000000000000000000000000000000000000000000000000000000000000000000000000000000000000000000000000000000000000000000000000000000000000000000000000000000000000000000000000000000000000000000000000000000000000000000000000000000000000000000000000000000000000000000000000000000000000000000000000000000000000000000000000000000000000000000000000000000000000000000000000000000000000000000000000000000000000000000000000000000000000000000000000000000000000000000000000000000000000000000000000000000000000000000000000000000000000000000000000000000000000000000000000000000000000000000000000000000000000000000000000000000000000000000000000000000000000000000000000000000000000000000000000000000000000000000000000000000000000000000000000000000000000000000000000000000000000000000000000000000000000000000000000000000000000000000000000000000000000000000000000000000000000000000000000000000000000000000000000000000000000000000000000000000000000000000000000000000000000000000000000000000000000000000000000000000000000000000000000000000000000000000000000000000000000000000000000000000000000000000000000000000000000000000000000000000000000000000000000000000000000000000000000000000000000000000000000000000000000000000000000000000000000000000000000000000000000000000000000000000000000000000000000000000000000000000000000000000000000000000000000000000000000000000000000000000000000000000000000000000000000000000000000000000000000000000000000000000000000000000000000000000000000000000000000000000000000000000000000000000000000000000000000000000000000000000000000000000000000000000000000000000000000000000000000000000000000000000000000000000000000000000000000000000000000000000000000000000000000000000000000000000000000000000000000000000000000000000000000000000000000000000000000000000000000000000000000000000000000000000000000000000000000000000000000000000000000000000000000000000000000000000000000000000000000000000000000000000000000000000000000000000000000000000000000000000000000000000000000000000000000000000000000000000000000000000000000000000000000000000000000000000000000000000000000000000000000000000000000000000000000000000000000000000000000000000000000000000000000000000000000000053
#050950:23
#051980:00130000
#0519b0:000000000000000000000000000000000000000000000000000000000000000000000000000000000000000000000000000000000000000000000000000000000000000000000000000000000000000000000000000000000000000000000000000000000000000000000000000000000000000000000000000000000000000000000000000000000000000000000000000000000000000000000000000000000000000000000000000000000000000000000000000000000000000000000000000000000000000000000000000000000000000000000000000000000000000000000000000000000000000000000000000000000000000000000000000000000000000000000000000000000000000000000000000000000000000000000000000000000000000000000000000000000000000000000000000000000000000000000000000000000000000000000000000000000000000000000000000000000000000000000000000000000000000000000000000000000000000000000000000000000000000000000000000000000000000000000000000000000000000000000000000000000000000000000000000000000000000000000000000000000000000000000000000000000000000000000000000000000000000000000000000000000000000000000000000000000000000000000000000000000000000000000000000000000000000000000000000000000000000000000000000000000000000000000000000000000000000000000000000000000000000000000000000000000000000000000000000000000000000000000000000000000000000000000000000000000000000000000000000000000000000000000000000000000000000000000000000000000000000000000000000000000000000000000000000000000000000000000000000000000000000000000000000000000000000000000000000000000000000000000000000000000000000000000000000000000000000000000000000000000000000000000000000000000000000000000000000000000000000000000000000000000000000000000000000000000000000000000000000000000000000000000000000000000000000000000000000000000000000000000000000000000000000000000000000000000000000000000000000000000000000000000000000000000000000000000000000000000000000000000000000000000000000000000000000000000000000000000000000000000000000000000000000000000000000000000000000000000000000000000000000000000000000000000000000000000000000000000000000000000000000000000000000000000000000000000000000000000000000000000000000000000000000000000000000000000000000000000000000000000000000000000000000000000000000000000000000000000000000000000000000000000000000000000000000000000000000000000000000000000000000000000000000000000000000000000000000000000000000000000000000000000000000000000000000000000000000000000000000000000000000000000000000000000000000000000000000000000000000000000000000000000000000000000000000000000000000000000000000000000000000000000000000000000000000000000000000000000000000000000000000000000000000000000000000000000000000000000000000000000000000000000000000000000000000000000000000000000000000000000000000000000000000000000000000000000000000000000000000000000000000000000000000000000000000000000000000000000000000000000000000000000000000000000000000000000000000000000000000000000000000000000000000000000000000000000000000000000000000000000000000000000000000000000000000000000000000000000000000000000000000000000000000000000000000000000000000000000000000000000000000000000000000000000000000000000000000000000000000000000000000000000000000000000000000000000000000000000000000000000000000000000000000000000000000000000000000000000000000000000000000000000000000000000000000000000000000000000000000000000000000000000000000000000000000000000000000000000000000000000000000000000000000000000000000000000000000000000000000000000000000000000000000000000000000000000000000000000000000000000000000000000000000000000000000000000000000000000000000000000000000000000000000000000000000000000000000000000000000000000000000000000000000000000000000000000000000000000000000000000000000000000000000000000000000000000000000000000000000000000000000000000000000000000000000000000000000000000000000000000000000000000000000000000000000000000000000000000000000000000000000000000000000000000000000000000000000000000000000000000053
#0529b0:23
#053980:00130000
#0549b0:53530000
#054980:000000000000000000000000000000000000000000000000000000000000000000000000000000000000000000000000000000000000000000000000000000000000000000000000000000000000000000000000000000000000000000000000000000000000000000000000000000000000000000000000000000000000000000000000000000000000000000000000000000000000000000000000000000000000000000000000000000000000000000000000000000000000000000000000000000000000000000000000000000000000000000000000000000000000000000000000000000000000000000000000000000000000000000000000000000000000000000000000000000000000000000000000000000000000000000000000000000000000000000000000000000000000000000000000000000000000000000000000000000000000000000000000000000000000000000000000000000000000000000000000000000000000000000000000000000000000000000000000000000000000000000000000000000000000000000000000000000000000000000000000000000000000000000000000000000000000000000000000000000000000000000000000000000000000000000000000000000000000000000000000000000000000000000000000000000000000000000000000000000000000000000000000000000000000000000000000000000000000000000000000000000000000000000000000000000000000000000000000000000000000000000000000000000000000000000000000000000000000000000000000000000000000000000000000000000000000000000000000000000000000000000000000000000000000000000000000000000000000000000000000000000000000000000000000000000000000000000000000000000000000000000000000000000000000000000000000000000000000000000000000000000000000000000000000000000000000000000000000000000000000000000000000000000000000000000000000000000000000000000000000000000000000000000000000000000000000000000000000000000000000000000000000000000000000000000000000000000000000000000000000000000000000000000000000000000000000000000000000000000000000000000000000000000000000000000000000000000000000000000000000000000000000000000000000000000000000000000000000000000000000000000000000000000000000000000000000000000000000000000000000000000000000000000000000000000000000000000000000000000000000000000000000000000000000000000000000000000000000000000000000000000000000000000000000000000000000000000000000000000000000000000000000000000000000000000000000000000000000000000000000000000000000000000000000000000000000000000000000000000000000000000000000000000000000000000000000000000000000000000000000000000000000000000000000000000000000000000000000000000000000000000000000000000000000000000000000000000000000000000000000000000000000000000000000000000000000000000000000000000000000000000000000000000000000000000000000000000000000000000000000000000000000000000000000000000000000000000000000000000000000000000000000000000000000000000000000000000000000000000000000000000000000000000000000000000000000000000000000000000000000000000000000000000000000000000000000000000000000000000000000000000000000000000000000000000000000000000000000000000000000000000000000000000000000000000000000000000000000000000000000000000000000000000000000000000000000000000000000000000000000000000000000000000000000000000000000000000000000000000000000000000000000000000000000000000000000000000000000000000000000000000000000000000000000000000000000000000000000000000000000000000000000000000000000000000000000000000000000000000000000000000000000000000000000000000000000000000000000000000000000000000000000000000000000000000000000000000000000000000000000000000000000000000000000000000000000000000000000000000000000000000000000000000000000000000000000000000000000000000000000000000000000000000000000000000000000000000000000000000000000000000000000000000000000000000000000000000000000000000000000000000000000000000000000000000000000000000000000000000000000000000000000000000000000000000000000000000000000000000000000000000000000000000000000000000000000000000000000000000000000000000000000000000000000000000000000000000000000000000000000000000000000000000000000000000000000000000000000000000000053
#055980:53
#0569c0:52
#0579d0:21
#054921:000000000000000000000000000000000000000000000000000000000000000000000000000000000000000000000000000000000000000000000000000000000000000000000000000000000000000000000000000000000000000000000000000000000000000000000000000000000000000000000000000000000000000000000000000000000000000000000000000000000000000000000000000000000000000000000000000000000000000000000000000000000000000000000000000000000000000000000000000000000000000000000000000000000000000000000000000000000000000000000000000000000000000000000000000000000000000000000000000000000000000000000000000000000000000000000000000000000000000000000000000000000000000000000000000000000000000000000000000000000000000000000000000000000000000000000000000000000000000000000000000000000000000000000000000000000000000000000000000000000000000000000000000000000000000000000000000000000000000000000000000000000000000000000000000000000000000000000000000000000000000000000000000000000000000000000000000000000000000000000000135353000000000000000000000000000000000000000000000000000000000000000000000000000000000000000000000000000000000000000000000000000000000000000000000000000000000000000000000000000000000000000000000000000000000000000000000000000000000000000000000000000000000000000000000000000000000000000000000000000000000000000000000000000000000000000000000000000000000000000000000000000000000000000000000000000000000000000000000000000000000000000000000000000000000000000000000000000000000000000000000000000000000000000000000000000000000000000000000000000000000000000000000000000000000000000000000000000000000000000000000000000000000000000000000000000000000000000000000000000000000000000000000000000000000000000000000000000000000000000000000000000000000000000000000000000000000000000000000000000000000000000000000000000000000000000000000000000000000000000000000000000000000000000000000000000000000000000000000000000000000000000000000000000000000000000000000000000000000000000000000000000000000000000000000000000000000000000000000000000000000000000000000000000000000000000000000000000000000000000000000000000000000000000000000000000000000000000000000000000000000000000000000000000000000000000000000000000000000000000000000000000000000000000000000000000000000000000000000000000000000000000000000000000000000000000000000000000000000000000000000000000000000000000000000000000000000000000000000000000000000000000000000000000000000000000000000000000000000000000000000000000000000000000000000000000000000000000000000000000000000000000000000000000000000000000000000000000000000000000000000000000000000000000000000000000000000000000000000000000000000000000000000000000000000000000000000000000000000000000000000000000000000000000000000000000000000000000000000000000000000000000000000000000000000000000000000000000000000000000000000000000000000000000000000000000000000000000000000000000000000000000000000000000000000000000000000000000000000000000000000000000000000000000000000000000000000000000000000000000000000000000000000000000000000000000000000000000000000000000000000000000000000000000000000000000000000000000000000000000000000000000000000000000000000000000000000000000000000000000000000000000000000000000000000000000000000000000000000000000000000000000000000000000000000000000000000000000000000000000000000000000000000000000000000000000000000000000000000000000000000000000000000000000000000000000000000000000000000000000000000000000000000000000000000000000000000000000000000000000000000000000000000000000000000000000000000000000000000000000000000000000000000000000000000000000000000000000000000000000000000000000000000000000000000000000000000000000000000000000000000000000000000000000000000000000000000000000000000000000000000000000000000000000000000000000000000000000000000000000000000000000000000000000000000000000000000000000000000000000000000000000000000000000000000000000000000000000000000000000000
#054951:000000000000000000000000000000000000000000000000000000000000000000000000000000000000000000000000000000000000000000000000000000000000000000000000000000000000000000000000000000000000000000000000000000000000000000000000000000000000000000000000000000000000000000000000000000000000000000000000000000000000000000000000000000000000000000000000000000000000000000000000000000000000000000000000000000000000000000000000000000000000000000000000000000000000000000000000000000000000000000000000000000000000000000000000000000000000000000000000000000000000000000000000000000000000000000000000000000000000000000000000000000000000000000000000000000000000000000000000000000000000000000000000000000000000000000000000000000000000000000000000000000000000000000000000000000000000000000000000000000000000000000000000000000000000000000000000000000000000000000000000000000000000000000000000000000000000000000000000000000000000000000000000000000000000000000000000000000000000000000000000000000000000000000000000000000000000000000000000000000000000000000000000000000000000000000000000000000000000000000000000000000000000000000000000000000000000000000000000000000000000000000000000000000000000000000000000000000000000000000000000000000000000000000000000000000000000000000000000000000000000000000000000000000000000000000000000000000000000000000000000000000000000000000000000000000000000000000000000000000000000000000000000000000000000000000000000000000000000000000000000000000000000000000000000000000000000000000000000000000000000000000000000000000000000000000000000000000000000000000000000000000000000000000000000000000000000000000000000000000000000000000000000000000000000000000000000000000000000000000000000000000000000000000000000000000000000000000000000000000000000000000000000000000000000000000000000000000000000000000000000000000000000000000000000000000000000000000000000000000000000000000000000000000000000000000000000000000000000000000000000000000000000000000000000000000000000000000000000000000000000000000000000000000000000000000000000000000000000000000000000000000000000000000000000000000000000000000000000000000000000000000000000000000000000000000000000000000000000000000000000000000000000000000000000000000000000000000000000000000000000000000000000000000000000000000000000000000000000000000000000000000000000000000000000000000000000000000000000000000000000000000000000000000000000000000000000000000000000000000000000000000000000000000000000000000000000000000000000000000000000000000000000000000000000000000000000000000000000000000000000000000000000000000000000000000000000000000000000000000000000000000000000000000000000000000000000000000000000000000000000000000000000000000000000000000000000000000000000000000000000000000000000000000000000000000000000000000000000000000000000000000000000000000000000000000000000000000000000000000000000000000000000000000000000000000000000000000000000000000000000000000000000000000000000000000000000000000000000000000000000000000000000000000000000000000000000000000000000000000000000000000000000000000000000000000000000000000000000000000000000000000000000000000000000000000000000000000000000000000000000000000000000000000000000000000000000000000000000000000000000000000000000000000000000000000000000000000000000000000000000000000000000000000000000000000000000000000000000000000000000000000000000000000000000000000000000000000000000000000000000000000000000000000000000000000000000000000000000000000000000000000000000000000000000000000000000000000000000000000000000000000000000000000000000000000000000000000000000000000000000000000000000000000000000000000000000000000000000000000000000000000000000000000000000000000000000000000000000000000000000000000000000000000000000000000000000000000000000000000000000000000000000000000000000000000000000000000000000000000000000000000000000000000000000000000000000000000000000000000000053
#055951:53
#056921:52
#057921:21
