This file was generated by Ched 2.7.0.0.
#TITLE ""
#ARTIST ""
#DESIGNER ""
#DIFFICULTY 0
#PLAYLEVEL
#SONGID ""
#WAVE ""
#WAVEOFFSET 0
#JACKET ""
#REQUEST "ticks_per_beat 480"
#00002: 4
#BPM01: 103
#00008: 01
#TIL00: ""
#VOLUME: ""
#HISPEED 00
#MEASUREHS 00
#0251f:11
#02512:0000130013000023
#02518:0013000000001300
#02515:000013000000000000000000000000130000000000000000
#0251b:1300001300000023
#04812:0000000000130000
#0481b:00530013
#04815:0000001300000013
#04818:0013
#0481a:53
#04918:13
#04915:00130000
#04914:0053
#04913:00000053
#05212:0000000000130000
#05218:5300001300000013
#0521b:00000013
#05215:0013
#05315:13
#05312:00130000
#05313:0053
#05314:00000053
#04118:000000000000000000000000130000000033000033000000
#04112:0000001300000000
#0271b:1300001300130000
#02715:001300000000000000230000
#02718:0013000000000023
#02712:00131300
#02615:0013000000001300
#0261b:0000130013000023
#02618:000013000000000000000000000000130000000000000000
#02612:1300001300000023
#02312:0000001300130000
#0231b:00131300
#02318:001300000000000000230000
#02315:0013000000000023
#0501b:0000000000130000
#05012:53000013
#05018:0000001300000013
#05015:0013
#02212:0000130013000023
#02215:000013000000000000000000000000130000000000000000
#0221b:0000001300000023
#02218:0013000000002300
#0211b:0000130013000023
#02115:0013000000001300
#02118:000013000000000000000000000000130000000000000000
#02112:0000001300000023
#02110:41
#0511b:00130000
#05115:13
#0511a:0053
#05119:00000053
#03918:1400001300000000
#03912:000000000000000000000000130000000033000033000033
#03914:24
#03910:41
#03415:0000001300000000
#03412:000000000000000000000000000000000000000000000014
#03712:000000000000140000000000000014000000000000000014
#03716:0014001400000000
#0371a:140000000000000000000000000014000000000000000014
#03714:000000000014
#03718:000000000014
#03612:000000000000001400000000
#03614:000000000000000000000000000000000014000000000000
#0351a:000000000000000000000000000014000000000000000014
#03514:0000000000000014
#03216:0000000000000014
#03218:000000000000001400000000
#03214:0000001400000000
#03210:41
#03316:0014001400000000
#0331a:000000140000243400000000
#03312:140000000000003400000000
#03314:000000000000000000000000000000000034000034000000
#03318:000000000000000000000000000000000034000034000000
#03018:00130014
#03012:0013
#03015:0000001300000000
#0301b:0013000000000000
#03114:000000000000001400000000
#03118:0000001400000000
#0311f:21
#01918:0013001300001300
#01915:0000130000130013
#0191b:0013
#01912:13
#01818:0013001300002300
#01815:0000130000230000
#0181b:1300000000000023
#01812:0023
#01715:0000130000130013
#01718:0013001300001300
#01712:0013
#0171b:13
#01415:0013000000001300
#01418:0000130000130000
#0141b:1313
#01412:1313
#01312:1313
#01315:0013000000001300
#01318:0000130000130000
#0131b:1313
#0151b:00130000
#01512:13
#01518:00000013
#01515:0013
#01510:41
#01612:1300000000000023
#0161b:1323
#01615:00000023
#01618:0000000000230000
#01118:130000000000000000000000330000000033000000000000
#01215:130000000000000000000000330000000033000000000000
#01012:130000000000000000000000330000000033000000000000
#05418:13530000
#0541a:00000053
#05419:0053
#05413:00000053
#05415:53530000
#05414:0053
#04718:0013
#04719:00000053
#04515:000000000000000000000000130000000013000000000013
#04512:000000000013
#0451b:0000001300000000
#04518:0000000000130000
#04510:41
#04412:000000000000000000000000000000000000000000000013
#0431b:000000000000000000000000130000000033000033000033
#04315:0000001300000000
#04313:33
#04319:33
#04219:0013
#04214:0000000000130000
#04212:0000001300000000
#0421b:0000000000001323
#04213:0023
#0421a:0000000000230000
#04215:00000023
#04218:0000002300000000
#0401b:000000000000000000000000000000000000000000000013
#02918:2300000000130000
#02915:000000000000000000000000000000000000000000000023
#02818:0000000000002313
#02815:0000000000001323
#02814:0000000000130000
#02813:0013
#02812:2300001300000000
#02819:0000000000230000
#0281a:0023
#0281b:0000002300000000
#02415:000000000000001300000000
#02418:000000000000001300000000
#02412:000000000000000000230000000000000013000000000000
#0241b:230000000000000000000000000000000013000000000000
#02015:0013
#0201b:0013
#02018:13
#02012:13
#00815:13
#00712:13
#0071b:0023002300230023
#00615:13
#00618:0023002300230023
#00512:13
#0051b:0023002300230023
#00418:1313
#0041b:00130000
#0031b:13
#00312:0023002300230023
#00218:13
#00215:0023002300230023
#0011b:13
#00112:0023002300230023
#03813:0000000024000014
#0381a:0000000000241400
#03812:0000000000142400
#03819:0000000014000024
#03814:0000001400000000
#03818:0000002400000000
#0091b:130000000000000000000000330000000033000000000000
#00910:41
#0551b:53
#05512:53
#03458:000000000000000000000000000000000013000000000000
#03452:000000000000000000000000000000000000000000000054
#03652:000000000000005400001400
#03658:000000000014000000000000000000000000000000000000
#03654:000000000000000000000000000000000064000000000000
#03558:000000000000000000000000000000000014000000000000
#03554:000000000014000000000000000000000000000000000000
#0355a:000000000000000000000000000064000000000000000064
#03154:000000000014000000000000000064000000000000000000
#03152:000000000000000000000000000000000014000000000000
#0325a:000000000000000000000000000000000014000000000000
#03258:000000000014000000000000000054000000000000000000
#02955:000000000000000000000000000000000000000000000013
#03954:64
#03958:54
#03952:0053
#04158:0053
#0155b:00630000
#01552:53
#01558:00000053
#01555:0063
#01652:53
#0165b:63
#04555:000000000000000000000000000000000063000000000063
#04552:000000000053
#04452:000000000000000000000000000000000000000000000053
#0435b:0063
#0405b:000000000000000000000000000000000000000000000063
#03752:000000000000000000000000000054000000000000000054
#03754:000000000064
#0375a:000000000000000000000000000064000000000000000064
#03758:000000000054
#02455:000000000000006300000000
#02458:000000000000005300000000
#02452:000000000000000000000000000000000053000000000000
#0245b:000000000000000000000000000000000063000000000000
#02055:0063
#0205b:0063
#02058:53
#02052:53
#00855:63
#00458:5353
#0045b:00630000
#004380:1333
#0043b0:00330023
#008350:13
#008320:0023
#0093b0:000000130000000000000000330000000033000000230000
#009380:003300
#010320:000000130000000000000000330000000033000000230000
#010350:003300
#011380:000000130000000000000000330000000033000000230000
#0113b0:003300
#012350:000000130000000000000000330000000033000000230000
#012320:003300
#015320:13
#015350:0023000000000000
#0153b0:00130000
#015380:0000002300000000
#015350:0013
#015320:0000000000230000
#015380:00000013
#0153b0:0000000000000023
#016320:13
#016350:00230000
#0163b1:13
#016381:00230000
#020381:13
#0203b1:00230000
#020320:13
#020350:00230000
#020350:0013
#020320:00000023
#0203b1:0013
#020381:00000023
#0243b1:13230000
#0243b1:000000000000000000130000000000000033000000000000
#024381:000000000000000000000000330033000000000000230000
#024320:000000000000000000130000000000000033000000000000
#024350:000000000000000000000000330033000000000000230000
#028320:13230000
#029350:13230000
#029381:13230000
#029351:000000000000000000000000000000000000130033000023
#030321:000000000000000000000000000000000000000000140034
#031341:000000340024000000000000000000000000000000000000
#031341:000000000000143400000000
#031321:000000000000000000000000000000000024000000000000
#0313a1:000000000000000000000000000000000000000000140034
#032381:000000340024000000000000000000000000000000000000
#032381:000000000000143400000000
#0323a1:000000000000000000000000000000000024000000000000
#0333a1:000000000000143400000000
#033381:000000000000000000000000000000000034000034000034
#034381:00240000
#033320:000000000000143400000000
#033340:000000000000000000000000000000000034000034000034
#034340:00240000
#034380:000000000000000000000000130033000023000000000000
#034320:000000000000000000000000000000000000000000000014
#035340:000000340024000000000000000000000000000000000000
#035380:000000000000000000140000000000000024000000000000
#0353a0:000000000000343400000000
#0353a0:000000000000000000000000000000000000000000000014
#036380:000000340024000000000000000000000000000000000000
#036340:000000000000000014000000000000000034000000000000
#036320:000000000000343400002400
#037320:000000000000000000000000140034000000000000000034
#037340:000000000000000000000000000000000034000034000000
#038340:00240000
#0373a1:000000000000000000000000140034000000000000000034
#037381:000000000000000000000000000000000034000034000000
#038381:00240000
#039381:14
#0393a1:00240000
#039340:14
#039320:00240000
#039320:000000000000000000000000130000000033000033000033
#039350:0000000000330000
#040320:0023000000000000
#040380:000000000000000000130000000000000033000000000000
#0403b0:000000000000000000000000330033000000000000330033
#041380:00230000
#041380:000000000000000000000000130000000033000033000033
#0413b0:0000000000330000
#0423b0:000000330023000000000000000000000000000000000000
#042350:0000000000000013
#043330:33
#043320:000000330023000000000000000000000000000000000000
#0423b1:0000000000000013
#043391:33
#043381:000000330023000000000000000000000000000000000000
#0433b1:000000000000000000000000130000000033000033000033
#043381:0000000000330000
#0443b1:0023000000000000
#044351:000000000000000000130000000000000033000000000000
#044321:000000000000000000000000330033000000000000330033
#045351:00230000
#045351:000000000000000000000000000000000013000000000033
#045321:000000000033
#047321:23
#047980:0013
#047990:00000053
#0489a0:53
#0489b0:00230000
#049950:00130000
#049940:0053
#049930:00000053
#050920:23
#0519b0:00130000
#0519a0:0053
#051990:00000053
#052980:23
#053920:00130000
#053930:0053
#053940:00000053
#054950:53530000
#054940:0053
#055920:53
#056960:52
#057970:21
#054981:13530000
#0559b1:53
#056981:52
#057981:21
