This file was generated by Ched 2.7.0.0.
#TITLE ""
#ARTIST ""
#DESIGNER ""
#DIFFICULTY 0
#PLAYLEVEL
#SONGID ""
#WAVE ""
#WAVEOFFSET 0
#JACKET ""
#REQUEST "ticks_per_beat 480"
#00002: 4
#BPM01: 130
#00008: 01
#TIL00: ""
#VOLUME: ""
#HISPEED 00
#MEASUREHS 00
#00117:12121200
#00116:00000014
#00217:0000000000000014
#0021a:24
#00214:24
#00212:0024
#00218:0024
#00415:0000000000000014
#00412:24
#00418:24
#0041a:0024
#00414:0024
#0061b:00131300
#00612:13000013
#00615:00130000
#00618:00000013
#0061a:24
#00712:13000013
#00716:00130000
#0071b:00131300
#00717:00000013
#0081b:0000130013131300
#00812:2400000000000013
#00816:0000000000000014
#0161a:0000000000240014
#01616:13
#01612:0013000014002400
#0161b:13130000
#01617:0013000000000000
#01812:14000024
#01814:00140000
#01816:0014
#01818:00000014
#01815:0000000000000014
#01817:23
#01819:00230000
#0181b:0023
#01912:00130000
#0191b:00000013
#01915:0013
#01910:41
#02018:1300130013000013
#02015:0013001300000000
#02012:0000000013000013
#0211b:23130000
#02112:00000013
#02118:0013
#02115:23
#02216:00000014
#0221a:00002414
#02215:13130000
#02218:0013001300000000
#02212:0014
#02312:24000013
#0231b:00130000
#02318:0013
#02415:1300130013000013
#02412:0013001300000000
#02418:0013001300000000
#0241b:0000130013000013
#02512:23130000
#0251b:00000013
#02515:0013
#02518:23
#02712:00130000
#02717:00130000
#0271b:00000013
#02716:00000013
#02710:41
#02719:54
#02713:64
#02819:0013000000000000
#0281b:0000130000232300
#02816:0000130000232300
#02814:0000001300000000
#02812:0013
#02817:0013
#03514:0013001300000000
#03516:00130000
#0351b:0013
#03512:13
#03614:00130000
#03615:0000001300000000
#03613:0013000000000000
#03616:0013
#0361b:0013
#03719:0013001300000000
#03717:00130000
#0371b:13
#03712:0013
#0371f:11
#0381b:0013
#03816:0013
#03812:1300130000140000
#03815:0013000000002400
#03817:0000130000140000
#0381a:00000024
#03917:1313
#03919:0013000000130000
#03916:00130013
#03914:0000001300000013
#03912:2323
#0391b:00230023
#04019:0013000000000000
#04014:0000001300000000
#04012:23002323
#04017:23002323
#0401b:0000230000230000
#04016:0000230000230000
#04116:1313
#04114:0013000000130000
#04117:00130013
#04119:0000001300000013
#04112:00230023
#0411b:0023
#0421b:0000001300000000
#04216:00000014
#04212:0000000000232300
#04317:0000000012320000
#04316:24
#01116:1300000000130000
#0111b:1300000000130000
#01112:0013000013000000
#01117:0013000013000000
#01110:41
#01216:13
#0121b:13
#01212:0013000014002400
#01217:0013000000000000
#0121a:0000000000240000
#0141a:00001424
#01417:13
#01412:1300000000240000
#0141b:0013000000000000
#01416:0013000000000000
#01317:1300000000130000
#01312:1300000000130000
#0131b:0013000013000000
#01316:0013000013000000
#01516:1300000000130000
#01512:0013000013001300
#0151b:1300130000130000
#01517:0013000013000000
#01717:1300000000130000
#0171b:0013000013001300
#01712:1300130000130000
#01716:0013000013000000
#03014:0013000000000000
#03012:0000130000232300
#03017:0000130000232300
#03019:0000001300000000
#0301b:0013
#03016:0013
#0291b:00130000
#02916:00130000
#02912:23000013
#02917:23000013
#03219:0013001300000000
#03214:0013001300000000
#03212:0000130000232300
#03217:0000130000232300
#03216:1313
#0321b:0013
#0311b:00130000
#03116:00130000
#03117:00001313
#03119:0000001300000000
#03112:24000013
#03114:0000000000000013
#0311a:24
#03312:00130000
#03317:00130000
#03316:23001313
#03314:0000001300000000
#0331b:23000013
#03319:0000000000000013
#03310:41
#03417:13
#03412:0013000013232300
#0341b:0000131300232300
#03415:000000000053530000000000000000000000000000000000
#03418:000000000000000000000053530000000000000000000000
#04415:2300130000000014
#0441a:0000000000000014
#04418:0000001300130000
#0441f:21
#04512:0014000000140000
#04513:00140000
#04514:0000001400000000
#0451a:00001424
#04515:00001424
#04517:0000000000140000
#04510:41
#04618:13130000
#04615:0000001300130000
#04617:0000000000000014
#04612:0000000000000014
#0471a:0014000000140000
#04719:00140000
#04718:0000001400000000
#04717:0000000014002413
#04712:0000000014002413
#04715:0000000000140000
#0481b:0000232300001313
#04816:0000232300001313
#04912:0000232300001300
#04917:0000232300001300
#04914:0000000000000013
#04919:0000000000000013
#05016:1300000000000013
#0501b:1300000000000013
#05017:0000001300000000
#05012:0000001300000000
#05117:00130000000000000000000000000000
#05112:00130000000000002400000000000000
#05116:00001424
#05118:0000000000140000
#0511a:00000014
#05114:0000000000240000
#05212:2300130000000014
#05217:0000000000000014
#0521b:0000001300130000
#05315:0014000000140000
#05314:00140000
#05313:0000001400000000
#05312:00001424
#05317:00001424
#0531a:0000000000140000
#0541a:0000000000000014
#05415:0000000000000014
#0541b:13130000
#05412:0000001300130000
#05517:0014000000140000
#05518:00140000
#05519:0000001400000000
#0551a:0000000014002414
#05515:0000000014002414
#05512:0000000000140000
#05712:0000000000000013
#05717:0000000000000013
#0571a:0000242400000000
#05715:0000242400000000
#05816:13000013
#05812:0000130000000013
#0581b:0000001300001300
#05817:0000000000130013
#05916:13130024
#05917:0013000013000000
#0591b:00130000
#05912:0000000013000024
#0591a:0000000000240000
#0601a:1400001400140024
#06012:1400001400140024
#06018:0014000000000000
#06014:00140000
#06017:0014
#06015:00000014
#06112:00142400
#06116:00140000000000000000000000000000
#06114:0000001400000000
#06117:000000000000000000000000000000000000000000000000000000000000000000000000000000000000000000000000000000000000000000000000000000000000000000000000000000000000000000000000000000000000000000000000000000000000000000000000000000000000000000000000000000000000000000000000000000000000000000000000000000000000000000000000000000000000000000000000000000000000000000000000000000000000000000000000000000000000000000000000000000000000000000000000000000000000000000000000000000000000000000000000000000000000000000000000000000000000000000000000000000000000000000000000000000000000000000000000000000000000000000000000000000000000000000000000000000000000000000000000000000000000000000000000000000000000000000000000000000000000000000000000000000000000000000000000000000000000000000000000000000000000000000000000000000000000000000000000000000000000000000000000000000000000000000000000000000000000000000000000000000000000000000000000000000000000000000000000000000000000000000000000000000000000000000000000000000000000000000000000000000000000000000000000000000000000000000000000000000000000000000000000000000000000000000000000000000000000000000000000000000000000000000000000000000000000000000000000000000000000000000000000000000000000000000000000000000000000000000000000000000000000000000000000000000000000000000000000000000000000000000000000000000000000000000000000000000000000000000000000000000000000000000000000000000000000000000000000000000000000000000000000000000000000000000000000000000000000000000000000000000000000000000000000000000000000000000000000000000000000000000000000000000000000000000000000000000000000000000000000000000000000000000000000000000000000000000000000000000000000000000000000000000000000000000000000000000000000000000000000000000000000000000000000000000000000000000000000000000000000000000000000000000000000000000000000000000000000000000000000000000000000000000000000000000000000000000000000000000000000000000000000000000000000000000000000000000000000000000000000000000000000000000000000000000000000000000000000000000000000000000000000000000000000000000000000000000000000000000000000000000000000000000000000000000000000000000000000000000000000000000000000000000000000000000000000000000000000000000000000000000000000000000000000000000000000000000000000000000000000000000000000000000000000000000000000000000000000000000000000000000000000000000000000000000000000000000000000000000000000000000000000001400000000000000000000000000000000000000000000000000000000000000000000000000000000000000000000000000000000000000000000000000000000000000000000000000000000000000000000000000000000000000000000000000000000000000000000000000000000000000000000000000000000000000000000000000000000000000000000000000000000000000000000000000000000000000000000000000000000000000000000000000000000000000000000000000000000000000000000000000000000000000000000000000000000000000000000000000000000000000000000000000000000000000000000000000000000000000000000000000000000000000000000000000000000000000000000000000000000000000000000000000000000000000000000000000000000000000000000000000000000000000000000000000000000000000000000000000000000000000000000000000000000000000000000000000000000000000000000000000000000000000000000000000000000000000000000000000000000000000000000000000000000000000000000000000000000000000000000000000000000000000000000000000000000000000000000000000000000000000000000000000000000000000000000000000000000000000000000000000000000000000000000000000000000000000000000000000000000000000000000000000000000000000000000000000000000000000000000000000000000000000000000000000000000000000000000000000000000000000000000000000000000000000000000000000000000000000000000000000000000000000000000000000000000000000000000000000000000000000000000000000000000000000000000000000000000000000000000000000000000000000000000000000000000000000000000000000000000000000000000
#06115:0000000000140000
#0611a:0024
#06416:00000000000000000000000000000000000000000000000000000000000000000000001400000000000000000000000000000000000000000000000000000000
#06614:0013000000000014
#06612:0000131314000000
#0661a:0014
#0661b:13
#06616:13000024
#06618:0000000000240000
#0651b:1300000000001313
#06516:13
#06514:0013000000000000
#06512:0000131313000000
#06517:0013
#06519:0000000000130000
#06510:41
#06717:1300000000001313
#06712:14
#06714:0013000000000000
#06716:0000131313000000
#0671b:0013
#06719:0000000000130000
#0681a:00001424
#06812:1300000014240000
#06817:13
#06814:0013000000000000
#06816:0000131300000000
#07012:0013000014000014
#0701b:13
#07017:0013000000000000
#07016:13130024
#07014:0000001300000000
#0701a:0000000014240000
#0691b:1300000000130000
#06917:0013000013001300
#06916:1300130000130000
#06912:0013000013000000
#06914:0000001300000000
#06919:0000000000000013
#07117:1300000000130000
#0711b:0013000013000000
#07112:1400130000130000
#07116:0013000013000000
#07114:0000001300000000
#0711a:00000024
#05612:0000242400001414
#05617:0000242400001414
#07316:00160000
#07312:2468
#0721a:14141414
#07219:0014000000000000
#07218:0000001400000000
#07217:0000000000140000
#07216:2400000000000014
#07215:00240000
#07214:0024
#07213:00000024
#01016:00000000000000000000000000000000000000000000000000000000000000000000001400000000000000000000000000000000000000000000000000000000
#0031a:24
#00314:24
#00512:24
#00518:24
#02616:24
#00916:24
#0091b:23
#06216:24
#00156:00000014
#00552:00000014
#00558:00000014
#00652:53
#00655:00230000
#0065b:0063
#00658:00000023
#00752:53
#00756:00230000
#0075b:0063
#00757:00000023
#0085b:43
#00852:54
#01052:0000001c
#01056:00000000000000000000000000000000000000000000000000000000000000000000002400000000000000000000000000000000000000000000000000000000
#01452:5300130000140000
#0145a:00000014
#01457:53130000
#0145b:0023000000000000
#01456:0023000000000000
#01852:14000054
#01854:00140000
#01856:0014
#01858:00000014
#01855:0000000000000024
#01952:34
#01955:0013
#0195b:0013
#02052:0053
#02058:0053
#0245b:0063
#02455:0063
#0225a:00000054
#02652:13
#02656:0000000000140000
#02555:0013
#0255b:0013
#02152:0013
#02158:0013
#02352:1413
#02358:0013
#02752:00630000
#02756:00001353
#02757:00630000
#0275b:00001353
#03656:0053
#0365b:0053
#03657:00000013
#03652:00000013
#0385b:1363
#03856:0063
#03855:0023000000001400
#0385a:00000014
#03852:6300630000240000
#03857:0000630000240000
#03557:00000013
#0355b:0053
#03756:00000013
#03752:0063
#03952:13
#04057:00000063
#0415b:13
#0425b:0000005300000000
#04255:0000001300000000
#04256:00000064
#04357:0022
#04356:54
#04354:00000018
#00956:64
#01156:6300130000230000
#0115b:6300130000230000
#01152:0023000053001300
#01157:0023000053001300
#01256:63130000
#0125b:63130000
#01252:0023000000000000
#01257:0023000000000000
#01357:5300130000230000
#01352:5300130000230000
#0135b:0023000063001300
#01356:0023000063001300
#01556:63130000
#01552:0023000000001300
#01557:00005313
#0155b:0000130000230000
#01656:63130000
#01652:0023000000000000
#0165b:00130000
#01757:53130000
#0175b:0023000000001300
#01756:00006313
#01752:0000130000230000
#02952:13001363
#02957:13001363
#0295b:00530000
#02956:00530000
#03152:1413
#0315a:14
#03156:00530000
#03157:00001363
#03356:13001353
#0335b:1313
#03357:00630000
#04455:1300000000000014
#04458:0000001300000000
#0445a:0000000000000064
#04555:00005414
#0455a:00005414
#04552:0000000000240000
#04557:0000000000240000
#04658:13
#04655:0000001300000000
#04657:0000000000000014
#04652:0000000000000054
#04757:0000000054001453
#04752:0000000054001453
#0475a:0000000000240000
#04755:0000000000240000
#04856:0000131300000063
#0485b:0000131300000063
#04952:0000131300000000
#04957:0000131300000000
#05056:6300000000130063
#0505b:6300000000130063
#05057:0000005300000000
#05052:0000005300000000
#05152:00230000000000000000000000000000
#05157:00230000000000000000000000000000
#05156:00130014
#0515a:00000014
#0515b:00130000
#05252:1300000000000014
#05257:0000000000000054
#0525b:0000001300000000
#05352:00006414
#05357:00006414
#0535a:0000000000240000
#05355:0000000000240000
#05652:0000141400000054
#05657:0000141400000064
#0545a:0000000000000014
#05455:0000000000000064
#05452:0000001300000000
#0545b:13
#0555a:0000000054001464
#05555:0000000054001454
#05552:0000000000240000
#05557:0000000000240000
#05956:23
#05852:0000000000000063
#06052:0000001400000034
#0605a:0000000000140054
#06156:00240000000000000000000000000000
#0615a:00005444
#06152:00005434
#06155:0000000000240000
#06157:000000000000000000000000000000000000000000000000000000000000000000000000000000000000000000000000000000000000000000000000000000000000000000000000000000000000000000000000000000000000000000000000000000000000000000000000000000000000000000000000000000000000000000000000000000000000000000000000000000000000000000000000000000000000000000000000000000000000000000000000000000000000000000000000000000000000000000000000000000000000000000000000000000000000000000000000000000000000000000000000000000000000000000000000000000000000000000000000000000000000000000000000000000000000000000000000000000000000000000000000000000000000000000000000000000000000000000000000000000000000000000000000000000000000000000000000000000000000000000000000000000000000000000000000000000000000000000000000000000000000000000000000000000000000000000000000000000000000000000000000000000000000000000000000000000000000000000000000000000000000000000000000000000000000000000000000000000000000000000000000000000000000000000000000000000000000000000000000000000000000000000000000000000000000000000000000000000000000000000000000000000000000000000000000000000000000000000000000000000000000000000000000000000000000000000000000000000000000000000000000000000000000000000000000000000000000000000000000000000000000000000000000000000000000000000000000000000000000000000000000000000000000000000000000000000000000000000000000000000000000000000000000000000000000000000000000000000000000000000000000000000000000000000000000000000000000000000000000000000000000000000000000000000000000000000000000000000000000000000000000000000000000000000000000000000000000000000000000000000000000000000000000000000000000000000000000000000000000000000000000000000000000000000000000000000000000000000000000000000000000000000000000000000000000000000000000000000000000000000000000000000000000000000000000000000000000000000000000000000000000000000000000000000000000000000000000000000000000000000000000000000000000000000000000000000000000000000000000000000000000000000000000000000000000000000000000000000000000000000000000000000000000000000000000000000000000000000000000000000000000000000000000000000000000000000000000000000000000000000000000000000000000000000000000000000000000000000000000000000000000000000000000000000000000000000000000000000000000000000000000000000000000000000000000000000000000000000000000000000000000000000000000000000000000000000000000000000000000000000000000002400000000000000000000000000000000000000000000000000000000000000000000000000000000000000000000000000000000000000000000000000000000000000000000000000000000000000000000000000000000000000000000000000000000000000000000000000000000000000000000000000000000000000000000000000000000000000000000000000000000000000000000000000000000000000000000000000000000000000000000000000000000000000000000000000000000000000000000000000000000000000000000000000000000000000000000000000000000000000000000000000000000000000000000000000000000000000000000000000000000000000000000000000000000000000000000000000000000000000000000000000000000000000000000000000000000000000000000000000000000000000000000000000000000000000000000000000000000000000000000000000000000000000000000000000000000000000000000000000000000000000000000000000000000000000000000000000000000000000000000000000000000000000000000000000000000000000000000000000000000000000000000000000000000000000000000000000000000000000000000000000000000000000000000000000000000000000000000000000000000000000000000000000000000000000000000000000000000000000000000000000000000000000000000000000000000000000000000000000000000000000000000000000000000000000000000000000000000000000000000000000000000000000000000000000000000000000000000000000000000000000000000000000000000000000000000000000000000000000000000000000000000000000000000000000000000000000000000000000000000000000000000000000000000000000000000000000000000000000000000
#06452:0000001c
#06456:00000000000000000000000000000000000000000000000000000000000000000000002400000000000000000000000000000000000000000000000000000000
#0655b:63
#06557:00130000
#06552:0053
#06556:00000013
#06757:53
#0675b:00130000
#06756:0063
#06752:00000013
#06852:0000000000140000
#0685a:00000014
#06857:53
#0685b:00130000
#0695b:63130000
#06957:0023000000000000
#06952:00005313
#06956:0000000000230000
#07157:53130000
#0715b:0023000000000000
#07156:00006313
#07152:0000000000230000
#0705b:63130000
#07057:0023000000000000
#0665b:63
#06657:00130000
#0575a:0000141400000000
#05755:0000141400000000
#07256:3400000000000024
#07255:00340000
#07254:0034
#07253:00000034
#0725a:64646464
#07259:0024000000000000
#07258:0000002400000000
#07257:0000000000240000
#0735a:44
#07356:00260000
#07352:64
#0033a0:14000024
#003341:14000024
#005321:14000024
#005380:14000024
#006320:1323
#006350:00530000
#0063b1:0013
#006381:00000053
#0073b1:23
#007320:1323
#007360:00530000
#0073b1:0013
#007371:00000053
#0083b1:23
#008320:14
#008360:0000005400002400
#009360:14000054000000000000000000000000000000000000000000000000000000005400005400000000000000000000000000000000000000000000000000000000
#009340:00540000000000000000000000000000000000000000000000000000000000000054000000000000000000000000000000000000000000000000000000000000
#009380:0054000000000000000000000000000000540000000000000000000000000000
#010360:54000054000000000000000000000000000000000000000000000000000000005400005400000000000000000000000000000000000000000000000000000000
#010340:00540000000000000000000000000000000000000000000000000000000000000054000000000000000000000000000000000000000000000000000000000000
#010380:0054000000000000000000000000000000540000000000000000000000000000
#010320:0000002c
#0113b0:13230000
#011370:0053000000000000
#011361:13230000
#011321:0053000000000000
#011321:00001323
#011361:0000000000530000
#011370:00001323
#0113b0:0000000000530000
#0123b0:13230000
#012370:0053000000000000
#012361:13230000
#012321:0053000000000000
#013321:13230000
#013361:0053000000000000
#013370:13230000
#0133b0:0053000000000000
#0133b0:00001323
#013370:0000000000530000
#013361:00001323
#013321:0000000000530000
#014321:13230000
#014361:0053000000000000
#014370:13230000
#0143b0:0053000000000000
#015360:13230000
#015320:0053000000000000
#015370:00001323
#0153b0:0000000000530000
#016360:13230000
#016320:0053000000000000
#017370:13230000
#0173b0:0053000000000000
#017360:00001323
#017320:0000000000530000
#018320:00000014
#018350:0000000000000054
#019320:24
#019380:00130000
#0193b0:00000000005300002300000000000000
#019350:00000013
#019320:00000000000000000000000000530000
#020320:23
#020320:0013
#020350:00000023
#020381:0013
#0203b1:00000023
#021351:00130000
#021321:00000000005300002300000000000000
#021381:00000013
#0213b1:00000000000000000000000000530000
#0223b1:23
#0223a1:00001434
#023361:24
#023351:00130000
#023321:00000000005300002300000000000000
#023381:00000013
#0233b1:00000000000000000000000000530000
#0243b1:23
#0243b1:0013
#024381:00000023
#024350:0013
#024320:00000023
#025380:00130000
#0253b0:00000000005300002300000000000000
#025350:00000013
#025320:00000000000000000000000000530000
#026320:23
#026361:1400000000240000
#027321:00130000
#027361:0023
#027370:00130000
#0273b0:0023
#0273b0:00000013
#028370:23
#027361:00000013
#028321:23
#0293b1:00130000
#029371:0023
#029360:00130000
#029320:0023
#029320:00000013
#030360:23
#029371:00000013
#0303b1:23
#031361:00130000
#031321:0023
#031371:00000013
#0323b1:23
#033371:00130000
#0333b1:0023
#033361:00000013
#034321:23
#0353b1:13333300
#035371:000000000000000000000000000000000033230000000000
#035320:00001333
#036320:23
#0363b1:13333300
#036371:000000000000000000000000000000000033230000000000
#036360:0013
#036320:000000000000000000000000000000000033230000000000
#037320:13333300
#037360:000000000000000000000000000000000033230000000000
#0373b1:00001333
#0383b1:23
#038320:1300330000540000
#038350:0053000000002400
#038360:0033
#038371:0000130000540000
#0383b1:0033
#0383a1:00000024
#040371:00000013
#0413b1:23
#0423b1:130000000000005300330000000000000000000000000000
#042381:000053000033000000000000000000000000000000000000
#042361:0000000000343400
#0433a1:24
#042350:130000000000005300230000000000000000000000000000
#042320:000053000033000000000000000000000000000000000000
#043360:14
#043370:0000000032320000
#043340:00000028
#0443b0:13230000
#044320:0000001300230000
#0443a0:0000000000000014
#045370:0034000000540000
#045380:00340000
#045390:0000003400000000
#0453a0:00003424
#045351:00001424
#045321:0000000000540000
#046321:13230000
#0463b1:0000001300230000
#046321:0000000000000014
#047351:0034000000540000
#047341:00340000
#047331:0000003400000000
#047321:00003424
#047370:00001424
#0473a0:0000000000540000
#047370:0000000000000013
#0483b0:0053230000000000
#047321:0000000000000013
#048361:0053230000000000
#048361:0000000000000013
#049321:0053230000000000
#0483b0:0000000000000013
#049370:0053230000000000
#0503b0:13
#050370:00230000
#050361:13
#050321:00230000
#050321:0000001300000000
#050361:0000000000230000
#050370:0000001300000000
#0503b0:0000000000230000
#0503b0:0000000000000013
#051370:00530000000000000000000000000000
#0513b0:00230000
#050361:0000000000000013
#051321:00530000000000000000000000000000
#051361:00230000
#052381:13230000
#052351:0000001300230000
#052371:0000000000000014
#0533a1:0034000000540000
#053391:00340000
#053381:0000003400000000
#053371:00003424
#053320:00001424
#053350:0000000000540000
#054350:13230000
#054380:0000001300230000
#054350:0000000000000014
#055320:0034000000540000
#055330:00340000
#055340:0000003400000000
#055350:00003424
#0553a1:00001424
#055371:0000000000540000
#055351:0000000000000014
#056321:0054240000000000
#0553a0:0000000000000014
#056370:0054240000000000
#056370:0000000000000014
#0573a0:0054240000000000
#056321:0000000000000014
#057351:0054240000000000
#0583b1:13
#058371:00230000
#058361:0000001300000000
#058321:0000000000230000
#058321:0000000000000013
#059361:53
#059321:0023000000000000
#0603a1:0000000000000014
#061361:00540000000000000000000000000000
#0613a1:00240000
#061321:00001424
#061351:0000000000540000
#0613a0:00001424
#061370:000000000000000000000000000000000000000000000000000000000000000000000000000000000000000000000000000000000000000000000000000000000000000000000000000000000000000000000000000000000000000000000000000000000000000000000000000000000000000000000000000000000000000000000000000000000000000000000000000000000000000000000000000000000000000000000000000000000000000000000000000000000000000000000000000000000000000000000000000000000000000000000000000000000000000000000000000000000000000000000000000000000000000000000000000000000000000000000000000000000000000000000000000000000000000000000000000000000000000000000000000000000000000000000000000000000000000000000000000000000000000000000000000000000000000000000000000000000000000000000000000000000000000000000000000000000000000000000000000000000000000000000000000000000000000000000000000000000000000000000000000000000000000000000000000000000000000000000000000000000000000000000000000000000000000000000000000000000000000000000000000000000000000000000000000000000000000000000000000000000000000000000000000000000000000000000000000000000000000000000000000000000000000000000000000000000000000000000000000000000000000000000000000000000000000000000000000000000000000000000000000000000000000000000000000000000000000000000000000000000000000000000000000000000000000000000000000000000000000000000000000000000000000000000000000000000000000000000000000000000000000000000000000000000000000000000000000000000000000000000000000000000000000000000000000000000000000000000000000000000000000000000000000000000000000000000000000000000000000000000000000000000000000000000000000000000000000000000000000000000000000000000000000000000000000000000000000000000000000000000000000000000000000000000000000000000000000000000000000000000000000000000000000000000000000000000000000000000000000000000000000000000000000000000000000000000000000000000000000000000000000000000000000000000000000000000000000000000000000000000000000000000000000000000000000000000000000000000000000000000000000000000000000000000000000000000000000000000000000000000000000000000000000000000000000000000000000000000000000000000000000000000000000000000000000000000000000000000000000000000000000000000000000000000000000000000000000000000000000000000000000000000000000000000000000000000000000000000000000000000000000000000000000000000000000000000000000000000000000000000000000000000000000000000000000000000000000000000000000000000000005400000000000000000000000000000000000000000000000000000000000000000000000000000000000000000000000000000000000000000000000000000000000000000000000000000000000000000000000000000000000000000000000000000000000000000000000000000000000000000000000000000000000000000000000000000000000000000000000000000000000000000000000000000000000000000000000000000000000000000000000000000000000000000000000000000000000000000000000000000000000000000000000000000000000000000000000000000000000000000000000000000000000000000000000000000000000000000000000000000000000000000000000000000000000000000000000000000000000000000000000000000000000000000000000000000000000000000000000000000000000000000000000000000000000000000000000000000000000000000000000000000000000000000000000000000000000000000000000000000000000000000000000000000000000000000000000000000000000000000000000000000000000000000000000000000000000000000000000000000000000000000000000000000000000000000000000000000000000000000000000000000000000000000000000000000000000000000000000000000000000000000000000000000000000000000000000000000000000000000000000000000000000000000000000000000000000000000000000000000000000000000000000000000000000000000000000000000000000000000000000000000000000000000000000000000000000000000000000000000000000000000000000000000000000000000000000000000000000000000000000000000000000000000000000000000000000000000000000000000000000000000000000000000000000000000000000000000000000000000000
#062360:14000000000000000000000000000000000000000000000000000000000000005400005400000000000000000000000000000000000000000000000000000000
#062380:00000000000000000000000000000000000000000000000000000000000000000054000000000000000000000000000000000000000000000000000000000000
#062340:0000000000000000000000000000000000540000000000000000000000000000
#063360:54000054000000000000000000000000000000000000000000000000000000005400005400000000000000000000000000000000000000000000000000000000
#063380:00540000000000000000000000000000000000000000000000000000000000000054000000000000000000000000000000000000000000000000000000000000
#063340:0054000000000000000000000000000000540000000000000000000000000000
#064360:54000054000000000000000000000000000000000000000000000000000000005400005400000000000000000000000000000000000000000000000000000000
#064380:00540000000000000000000000000000000000000000000000000000000000000054000000000000000000000000000000000000000000000000000000000000
#064340:0054000000000000000000000000000000540000000000000000000000000000
#064320:0000002c
#0653b0:13
#065370:00230000
#065320:0013
#065360:00000023
#0663b0:13
#066370:00230000
#067370:13
#0673b0:00230000
#067360:0013
#067320:00000023
#068370:13
#0683b0:00230000
#0693b0:13230000
#069370:0053000000000000
#069320:00001323
#069360:0000000000530000
#0703b0:13230000
#070370:0053000000000000
#071370:13230000
#0713b0:0053000000000000
#071360:00001323
#071320:0000000000530000
#0713a1:00000014
#0723a1:34343434
#072391:0054000000000000
#072381:0000005400000000
#072371:0000000000540000
#072361:0000000000000054
#0733a1:24
#073320:1428
#073360:00560000
#034920:0013000000000000
#034950:000000000053230000000000000000000000000000000000
#0349b0:0000001300000000
#034980:000000000000000000000053230000000000000000000000
