This file was generated by Ched 2.7.0.0.
#TITLE ""
#ARTIST ""
#DESIGNER ""
#DIFFICULTY 0
#PLAYLEVEL
#SONGID ""
#WAVE ""
#WAVEOFFSET 0
#JACKET ""
#REQUEST "ticks_per_beat 480"
#00002: 4
#BPM01: 130
#00008: 01
#TIL00: ""
#VOLUME: ""
#HISPEED 00
#MEASUREHS 00
#03812:13001324
#03816:00130000
#03815:0000000000140000
#04316:0014
#04314:18
#04317:0000000000320000
#0271b:00000013
#02712:00130000
#02710:41
#03216:0014001400000000
#03212:00140000
#0321a:0014
#03217:0000000000140000
#05818:13000013
#05815:0000001300000013
#00215:0000130000000013
#00218:2600001300001300
#00212:0026
#00418:0000130026000013
#00415:0000001300001300
#00412:26
#0061b:13
#00612:0013
#0071b:13
#00712:0013
#0081a:14
#00817:0000001400000000
#0111a:14140000
#01114:0014000000000000
#01112:00001414
#01118:0000000000140000
#01110:41
#0121a:14140000
#01214:0014000000000000
#01217:0014
#01212:0014
#01312:14140000
#01318:0014000000000000
#0131a:00001414
#01314:0000000000140000
#01412:1400140000260000
#01418:0014000014002600
#01512:14140000
#01518:0014000000000000
#0151a:00001414
#01514:0000000000140000
#01612:14140000
#01618:0014000000000000
#01615:0014
#0161a:0014
#0171a:14140000
#01714:0014000000000000
#01712:00001414
#01718:0000000000140000
#02014:0014000000000000
#02018:00140000
#02012:0000001400000000
#0201a:0014
#02218:0014000000000000
#02214:00140000
#0221a:0000001400000000
#02212:0014
#02414:0014000000000000
#02418:00140000
#02412:0000001400000000
#0241a:0014
#02315:00140000
#02317:00000014
#02318:26
#02612:00000000000000000000000000140000
#0261a:00000000000000000000240000140000
#02812:0013001300000000
#02817:00131300
#02912:24000013
#0291b:00130000
#0301b:0013001300000000
#03016:00131300
#03112:00140000
#03115:0000001400000000
#0311a:24000014
#03117:0000000000000014
#0331a:00140000
#03317:0000001400000000
#03312:24000014
#03315:0000000000000014
#03310:41
#03416:0014001400000000
#0341a:00140014
#03412:0014
#0351b:00000013
#03515:00000013
#03612:00000013
#03618:00000013
#03715:00000013
#0371b:00000013
#0371f:11
#03916:0014001400000000
#0391a:14
#03912:00140000
#0411b:13
#04115:0013000000000000
#04118:00130000
#04112:0000001300000000
#04215:000000000014000000000000000000000000000000000000
#04212:2400001400000000
#04812:13
#04818:13
#04815:0000002300000013
#0481b:0000002300000013
#04915:0000000000000013
#04912:0000002300001300
#04918:0000002300000000
#05018:1300000000130000
#05012:0000130000130000
#0501b:0000001300000013
#05015:0000001300000013
#05118:00130000000000000000000000000000
#05112:00130000000000002400000000000000
#05116:0000000000240000
#0511a:00000024
#05612:13
#05618:13
#05615:0000002300000013
#0561b:0000002300000013
#0571b:00000013
#05712:0000002300001300
#05715:0000000000000013
#05718:0000002300000000
#05912:00130000000000000000000000000000
#0591b:0000000000230000
#05918:00000023
#05915:0000000000000023
#06018:13
#06015:0013000000000000
#06012:0000130000140000
#0601a:0000001400000024
#06116:00000014000000000000000000000000
#06315:0000001300000000
#06318:0013
#06415:13
#06418:13
#0641a:00000024
#06412:00000024
#0651a:14140000
#06515:0014000000000000
#06512:00001414
#06517:0000000000140000
#06510:41
#0661a:1400140000140000
#06615:0014000000140000
#06617:0014
#06612:0014
#06712:14140000
#06717:0014000000000000
#0671a:00001414
#06715:0000000000140000
#06812:1400140000260000
#06817:0014000000000000
#06818:00001426
#06912:14140000
#06917:0014000000000000
#0691a:00001414
#06915:0000000000140000
#07012:1400140000140000
#07017:0014000000140000
#07015:0014
#0701a:0014
#0711a:14140000
#07115:0014000000000000
#07112:00001414
#07117:0000000000140000
#07315:00160000
#07318:2666
#00318:26
#00512:26
#01012:00000026
#01818:26
#01816:00260000
#01814:0026
#01812:00000026
#01918:26
#01910:41
#02112:26
#02512:26
#04012:2424
#04016:0024002400000000
#0401a:00240000
#04415:23
#0441b:23
#04414:0023
#0441a:0023
#0441f:21
#04513:23
#04519:23
#04512:0023
#04518:0023
#04510:41
#04619:23
#04612:23
#04614:0023
#0461b:0023
#04719:23
#04712:23
#04714:0023
#0471b:0023
#0531a:00000024
#05514:00000024
#0551a:00000024
#07218:26
#07216:00260000
#07214:0026
#07212:00000026
#03852:63006314
#03856:00630000
#03855:0000000000240000
#04356:0024
#04352:0000001c
#04354:68
#04252:5400006400000000
#04255:000000000064000000000000000000000000000000000000
#02952:14000063
#0295b:00530000
#0275b:00000053
#02755:13
#02758:13
#02752:00630000
#03352:14000064
#0335a:00540000
#03357:0000002400000000
#03355:0000000000000024
#0515a:00000014
#05158:00230000000000000000000000000000
#05152:00230000000000000000000000000000
#05855:0000006300000063
#05858:53
#00552:00000016
#0065b:63
#00652:0053
#0075b:63
#00752:0053
#0085a:64
#00857:0000002400000000
#0095a:14
#01052:00000016
#0115a:00140000
#01152:00000014
#0125a:00140014
#01257:0064
#01252:0064
#01255:00000014
#01352:00140000
#0135a:00000014
#01452:00140000
#01552:00140000
#0155a:00000014
#01652:00140014
#01655:0054
#0165a:0054
#01657:00000014
#0175a:00140000
#01752:00000014
#01958:16
#01952:0014
#0205a:1464
#0215a:0014
#02252:1454
#02255:00000014
#02358:16
#02352:0014
#02355:00540000
#02357:00000064
#0245a:1464
#0255a:0014
#02652:14000000000000000000000000240000
#0265a:00000000000000000000000000240000
#02857:0063
#03056:0053
#03052:00000013
#0315a:14000054
#03152:00640000
#03155:0000002400000000
#03157:0000000000000024
#0325a:0054
#03257:0000000000240000
#03452:0014
#0345a:00000014
#03552:0013
#03558:0013
#0365b:0013
#03655:0013
#03752:0013
#03758:0013
#0395a:00000014
#04052:00000014
#0415a:00000014
#04552:00000013
#04558:00000013
#04754:00000013
#0475b:00000013
#04852:63
#04858:63
#04855:0000001300000053
#0485b:0000001300000053
#04952:0000001300000000
#04958:0000001300000000
#05058:13
#0505b:0000000000000053
#05055:0000000000000053
#05252:00140000
#0525a:00000014
#05352:00140000
#0535a:00000014
#05452:00140000
#0545a:00000014
#05454:00000014
#05458:00140000
#05554:00000014
#05552:00140000
#05558:00140000
#0555a:00000014
#05652:63
#05658:63
#0565b:0000001300000053
#05655:0000001300000053
#05952:00230000000000000000000000000000
#0605a:0000001400000054
#06052:0000000000140000
#06156:00000024000000000000000000000000
#0615a:00000014
#06358:0053
#06455:63
#06458:53
#0645a:00000014
#06452:00000014
#0655a:00140000
#06552:00000014
#0665a:0000140000240000
#06657:00006414
#06652:00006414
#06655:0000000000240000
#06752:00140000
#0675a:00000014
#06852:0000140000160000
#06858:00000016
#06952:00140000
#0695a:00000014
#07052:0000140000240000
#07055:00005414
#0705a:00005414
#07057:0000000000240000
#0715a:00140000
#07152:00000014
#07258:16
#07256:00160000
#07254:0016
#07252:00000016
#07358:66
#07355:00260000
#05752:0000001300000000
#05758:0000001300000000
#003380:16000026
#005320:16000026
#0063b0:13
#006370:0023
#006321:0013
#007361:23
#0073b0:13
#007370:0023
#007321:0013
#008361:23
#0083a0:1400000000003434
#008370:0000005400000000
#0093a0:24
#012370:0014
#0123a0:00000024
#012321:0014
#012351:00000024
#016351:0014
#016321:00000024
#0163a0:0014
#016370:00000024
#019320:00142400
#0193a0:00000014
#0203a0:24
#0203a0:0014
#020370:00000024
#0213a0:00142400
#021320:00000014
#022320:24
#022320:0014
#022350:00000024
#023350:00140000
#023320:0024
#023370:00000014
#0243a0:24
#0243a0:0014
#024370:00000024
#0253a0:00142400
#025320:00000014
#026320:24
#026320:00000000000000000000140000540000
#027350:23
#0263a1:00000000000000000000140000540000
#027381:23
#027321:00130000
#027361:0023
#0273b1:00000013
#028371:23
#028371:0013
#0283b1:00000023
#0293b1:00130000
#029371:0023
#029321:00000013
#030361:23
#030361:0013
#030321:00000023
#031321:00142400
#031351:0000005400000000
#0313a1:00000014
#031371:0000000000000054
#0323a1:24
#0323a1:00001424
#032371:0000000000540000
#0333a1:00142400
#033371:0000005400000000
#033321:00000014
#033351:0000000000000054
#034321:24
#035321:1323
#035380:00132300
#0363b0:1323
#036351:00132300
#037381:1323
#037320:00132300
#038320:13003324
#038360:00330000
#038350:0000000000540000
#0393a0:00001424
#040320:00001424
#0413a0:00001424
#042320:1400003400000000
#042350:000000000034000000000000000000000000000000000000
#043340:38
#043360:0034
#043370:0000000000320000
#043320:0000002c
#0443b0:13230000
#044351:13230000
#0443a1:00001323
#044340:00001323
#045390:13230000
#045331:13230000
#045381:00001323
#045320:00001323
#046320:13230000
#046340:0053000000000000
#046391:13230000
#046371:0053000000000000
#0463b1:00001323
#046391:0000000000530000
#046340:00001323
#046360:0000000000530000
#047320:13230000
#047340:0053000000000000
#047391:13230000
#047371:0053000000000000
#0473b1:00001323
#047391:0000000000530000
#047340:00001323
#047360:0000000000530000
#048380:13
#0483b0:0000332300000000
#048321:13
#048351:0000332300000000
#048351:0000000000001333
#049321:0000332300000000
#0483b0:0000000000001333
#049380:0000332300000000
#0503b0:0000000000000013
#051380:00530000000000000000000000000000
#0513b0:00230000
#050351:0000000000000013
#051321:00530000000000000000000000000000
#051351:00230000
#052321:14240000
#0523a1:00001424
#053321:14240000
#0533a1:00001424
#054321:14240000
#054380:14240000
#0543a0:00001424
#054341:00001424
#055321:14240000
#055380:14240000
#055340:00001424
#0553a1:00001424
#056381:13
#0563b1:0000332300000000
#056320:13
#056350:0000332300000000
#056350:0000000000001333
#057320:0000332300000000
#0563b1:0000000000001333
#057381:0000332300000000
#058381:13
#0583b1:00230000
#058351:0000001300000000
#058321:0000000000230000
#058351:0000000000000013
#059321:00530000000000000000000000000000
#059351:00230000
#0603a1:0000000000000014
#061361:00000054000000000000000000000000
#0613a1:00003424
#063381:0013
#0633b1:0000000000000023
#064351:13
#064321:00000024
#064380:13
#0643a0:00000024
#066370:00001424
#0663a0:0000000000540000
#066321:00001424
#066351:0000000000540000
#070351:00001424
#070321:0000000000540000
#0703a0:00001424
#070370:0000000000540000
#073380:1626
#073350:00560000
