This file was generated by Ched 2.7.0.0.
#TITLE ""
#ARTIST ""
#DESIGNER ""
#DIFFICULTY 0
#PLAYLEVEL
#SONGID ""
#WAVE ""
#WAVEOFFSET 0
#JACKET ""
#REQUEST "ticks_per_beat 480"
#00002: 4
#BPM01: 130
#00008: 01
#TIL00: ""
#VOLUME: ""
#HISPEED 00
#MEASUREHS 00
#0021a:14
#00212:0014
#00412:14
#0041a:0014
#0061a:14
#00612:14
#00614:0014
#00716:14
#00718:0014
#01112:1414
#01110:41
#01218:1414
#01314:1414
#0141a:1414
#01512:14
#01518:0014
#01612:14
#01618:0014
#01714:14
#0171a:0014
#01918:0014
#01910:41
#02012:14
#02018:0014
#02112:14
#0211a:0014
#02212:14
#02216:0014
#0231a:14
#02314:0014
#0241a:14
#02414:0014
#0251a:14
#02512:0014
#02712:2414
#0271a:24
#02710:41
#02818:1414
#02814:00140000
#02912:14
#0291a:1414
#03014:1414
#03018:00140000
#0311a:14
#03112:14
#03114:0014
#0321a:1414
#03214:00140000
#03312:14
#0331a:14
#03318:0014
#03310:41
#03412:14
#03418:00140000
#03414:0014
#0341a:00000014
#03912:1414
#03918:00140000
#04112:14
#04118:00140000
#04114:0014
#0421a:14
#04214:00140000
#04418:00140014
#04412:2414
#0441f:21
#04514:14000024
#0451a:00140000
#04510:41
#0461a:1414
#04614:00140014
#04718:14000024
#04712:00140000
#05214:00140014
#0521a:2414
#05318:14000024
#05312:00140000
#05412:1414
#05418:00140014
#05514:14000024
#0551a:00140000
#05618:00140000
#0561a:14
#05714:00140000
#05712:14
#0501a:14
#05112:14
#0581a:14
#05814:00140000
#05818:0014
#05812:00000014
#05918:00140000
#0591a:14
#0601a:0000000000140000
#06012:5400000000000024
#06013:0054000000000000
#06014:00540000
#06015:0000005400000000
#06518:00140000
#06512:24001414
#06510:41
#0661a:14001414
#06614:00140000
#06712:1414
#06718:00140014
#06814:14
#0681a:00140000
#06914:00140000
#0691a:14001414
#07012:14001414
#07018:00140000
#0711a:1414
#07114:00140014
#0371f:11
#00318:24
#00514:24
#01018:00000026
#0401a:2424
#04014:00240000
#04318:00000026
#07218:26
#07215:00260026
#07212:0026
#07318:26
#0731a:0064
#01812:00343434
#01058:00000016
#01952:14
#0235a:14
#0265a:0000000000140000
#04358:00000016
#04554:00000014
#04758:00000014
#05358:00000014
#05554:00000014
#05658:00240000
#0565a:54
#05754:00240000
#05752:64
#05152:54
#0505a:54
#05958:00240000
#0595a:54
#06155:00000014
#06052:0000000000000054
#0645a:00000014
#07358:56
#0083a0:14
#0093a0:34
#010380:00000026
#018340:14
#018320:00343434
#019320:24
#0263a0:1400000000240000
#035320:14
#035340:0034
#036340:34
#036320:0024
#0373a0:14
#037380:0034
#038380:34
#038390:00340000
#0383a0:0024
#042380:0014
#043380:34000026
#045340:00001424
#047380:00001424
#048320:14
#048340:0034
#049340:34
#049320:0024
#0503a0:14
#050380:0024
#051320:14
#051340:0024
#053380:00001424
#055340:00001424
#0563a0:1424
#056380:00540000
#057320:1424
#057340:00540000
#0593a0:1424
#059380:00540000
#060320:0000000000000014
#061350:00003424
#0643a0:14000024
#068340:00001424
#073380:16
#0733a0:0024
#060920:14
#060950:0000002400000000
