This file was generated by Ched 2.7.0.0.
#TITLE ""
#ARTIST ""
#DESIGNER ""
#DIFFICULTY 0
#PLAYLEVEL
#SONGID ""
#WAVE ""
#WAVEOFFSET 0
#JACKET ""
#REQUEST "ticks_per_beat 480"
#00002: 4
#BPM01: 180
#BPM02: 170
#BPM03: 160
#BPM04: 140
#BPM05: 130
#BPM06: 120
#BPM07: 150
#BPM08: 146
#BPM09: 100
#BPM0A: 115
#00708: 01
#07408: 02
#07608: 07020000
#07508: 0300000004000506
#07908: 0308
#08308: 0609
#08008: 07
#00008: 09
#08408: 0A
#TIL00: ""
#VOLUME: ""
#HISPEED 00
#MEASUREHS 00
#0011a:00000000000000000000000000000000000000000000000000000000000000000000000000000000000000000000000000000000000000000000000000000012
#00218:0000000000000000000000000000000000000000000000000000000000000012
#00416:12
#0071b:13
#00712:00130000
#00718:0013
#00715:00000013
#00710:41
#02015:0000000000000013
#02018:13
#04612:1323
#04618:00130000
#04615:00000013
#0461b:2313
#0471b:13
#04715:0013
#04718:00130000
#04712:13000013
#02315:13130000
#02318:0013001300000000
#0391a:14
#03916:00140014
#03912:0014
#04412:13
#04415:0013
#04418:00130013
#0441b:13
#0081b:13
#00815:00130000
#00818:0013
#00812:00000013
#01112:13
#01118:00131300
#01115:0000001300130000
#0111b:0000000000000013
#0121b:00000013
#01212:13
#01218:00130000
#01215:0000001300000000
#0091b:13000013
#00915:00130000
#00918:0000001300000000
#01915:0000000000000013
#01913:24
#01919:24
#01912:0024
#0191a:0024
#02118:13
#02112:00130000
#0211b:0000001300000000
#0221b:00000013
#02212:13
#02415:13
#02412:0013
#02818:0000000000000013
#02815:13
#02915:13
#0291b:00130000
#02912:0000001300000000
#03012:00000013
#0301b:13
#03118:1300000000130000
#03112:0000000000000013
#03115:0000001300000000
#05112:14
#0511a:14
#05612:0014
#0561a:14
#05714:0014
#05718:14
#06012:2400000000000013
#06018:00130000
#06015:0000001300000000
#0611b:0000000000000013
#06115:00130000
#06118:0000001300000000
#0611a:24
#06218:00130000
#06215:0000001300000000
#06212:24
#0621a:0000000000240000
#06216:0000000000000024
#0681b:00130000
#06815:00001313
#06818:2600000000130013
#06812:26
#06918:00130000
#06915:0000001300000000
#06912:26
#07518:13
#0751b:0033333333333333
#08418:0013
#08415:0013
#03318:0013
#03312:13
#03315:00000013
#03215:0013
#0321b:13
#03218:00000013
#01018:13
#01312:13
#01318:00130000
#01612:13
#0161b:23
#01610:41
#02518:13
#0251b:0013
#02612:13
#02615:0013
#02610:41
#0271b:13
#02718:0013
#03418:13000023
#03415:0013
#0371b:00130000
#03718:0013
#03715:00000013
#03812:13
#0401a:14
#04012:00000013
#0451b:13
#04515:00130013
#04518:0013
#04512:13
#05215:00130000
#05212:0000000000000013
#0521b:0000000000000013
#05218:0000001300000000
#0521a:24
#0521f:21
#0531b:0000000000000013
#05315:0000001300000000
#05318:0000001300000000
#05310:41
#05415:13
#05418:00130000
#0541b:0000000000000013
#05412:0000001300000000
#05518:0013000000000000
#05515:0000001300000000
#05512:0000000000130000
#05818:13000013
#05815:0000130000000013
#0581b:0000001300000000
#05812:0000000000130000
#0631a:0014
#06312:0024000014000000
#06318:0000002400000000
#06314:0000002400000000
#0721b:00130013
#07212:6c130013
#07218:0013
#07215:0000000000130000
#07210:41
#07312:00130013
#0731b:00130013
#07315:0013
#07318:1300000000130000
#0741b:1333333333333333
#04118:13000013
#04215:13
#07116:00000000000000001454000000000000
#07114:00000000000000000000000058580000
#07115:00000000000000000000565600000000
#07113:00000000000000000000000000005a5a
#0431f:11
#0431a:0000002400000000
#04312:24000024
#01814:0023
#01819:0023
#01815:23
#03518:0023
#03515:23
#04818:24
#04814:0024
#04918:25
#04913:0025
#05018:26
#05012:0026
#05918:0000002300230000
#05915:0023
#06416:0022
#06412:24
#0641a:24
#06518:22
#06516:0022
#06612:24
#0661a:24
#07012:26
#07018:26
#06718:0033333333333333
#06715:0033333333333333
#03610:41
#08812:0072000000000000
#0881c:0072000000000000
#0095b:00000063
#00958:0000005300000000
#02058:53
#02358:0000005300000000
#02455:63
#02452:0053
#02855:63
#03158:53
#05152:54
#0515a:64
#05154:0014
#05158:0014
#05652:0054
#05654:00000014
#0565a:64
#05658:00140000
#05754:0064
#05752:00000014
#05758:54
#0575a:00140000
#07558:53
#08458:0053
#08455:0053
#01854:0013
#01859:0013
#01855:13
#01858:13
#01058:53
#0165b:63
#01652:53
#01953:14
#01959:14
#01952:0014
#0195a:0014
#02252:53
#0215b:0000006300000000
#02558:53
#0255b:0063
#02652:53
#02655:0063
#0275b:63
#02758:0053
#02952:0000005300000000
#0325b:63
#03352:53
#03458:53
#03852:53
#03855:0013
#0405a:64
#03555:63
#04858:14
#04854:0014
#04958:15
#04953:0015
#05058:16
#05052:0016
#0525a:14
#05258:0000005300000000
#0525b:0000000000000023
#05252:0000000000000023
#05355:0000006300000000
#05358:0000005300000000
#05452:0000005300000000
#05855:0000000000000063
#06055:0000006300000000
#06052:14
#0615a:14
#06158:0000005300000000
#06252:14
#06358:0000005400000000
#0635a:0024
#06352:0024
#06354:0000006400000000
#06858:16
#06852:16
#06952:16
#07052:16
#07058:16
#07252:1c
#0745b:63
#04158:53
#04255:63
#0435a:0000001400000000
#04352:14000014
#0665a:14
#06652:14
#06452:14
#0645a:14
#0305b:63
#005340:12
#006340:0022
#009380:0000001300000000
#0093b0:00000033
#010380:33
#0103b0:0023
#013350:0000001300330000
#013320:0000000000000033
#014320:0033000000000000
#014350:0000003300330000
#015320:53
#016320:33
#018350:23
#0163b1:13
#018381:23
#020381:13
#0203b1:0000003323000000
#0213b1:0000001300000000
#021381:00000023
#022321:13
#022351:0023
#023381:0000001300000000
#0233b1:0000000000230000
#024351:13000023
#024321:0000003333000000
#025381:13000023
#0253b1:0000003333000000
#026321:13000023
#026351:0000003333000000
#0273b1:13000023
#027381:0000003333000000
#028351:13
#028321:0000003323000000
#029321:0000001300000000
#029351:00000023
#0303b1:13
#030381:0023
#031381:13
#0313b1:00230000
#0323b1:13
#032381:0000002300000000
#033321:13
#033351:0000002300000000
#034381:13
#0343b1:0000002300000000
#035351:13
#035321:0000002300000000
#036351:1300000000330000
#036321:0000003300000023
#038321:13
#038351:0000003323000000
#0403a1:14
#040361:0024
#041381:13
#0413b1:0000002300000000
#042351:13
#043321:24
#051321:14
#051341:0024
#0513a0:14
#051380:0024
#052380:0000001300000000
#0523b0:0000000000230000
#052320:0000000000000013
#053350:0033003300000000
#053320:0000000000230000
#0523b1:0000000000000013
#053381:0033003300000000
#0533b1:0000000000230000
#054321:0000001300000000
#054351:0000000000230000
#0563a1:14
#056381:00240000
#056321:0014
#056341:00000024
#057381:14
#0573a1:00240000
#057341:0014
#057321:00000024
#058351:0000000000000013
#059321:00230000
#060351:0000001300000000
#060321:0000000000230000
#061381:0000001300000000
#0613b1:0000000000230000
#063381:0000001400240000
#0633a1:0054
#063340:0000001400240000
#063320:0054
#066380:0000133300330033
#067380:3333333333333333
#068380:26
#066351:00133333
#067351:3333333333333333
#068321:26
#069321:00000013
#070321:26
#0693b0:00000013
#070380:26
#0743b0:1333333333333333
#075380:33
#0753b0:0033333333333333
#076380:26
#076351:13
#077351:23
#077380:13
#078380:23
#078321:13
#080351:23
#080380:13
#0813b0:23
#081351:13
#082321:23
#0823b0:13
#083380:23
#083321:13
#084351:5333
#086321:0052
#088321:0022000000000000
#084380:0013
#0863c0:0052
#0883c0:0022000000000000
#071960:00000000000000001454000000000000
#071950:00000000000000000000565600000000
#071940:00000000000000000000000058580000
#071930:00000000000000000000000000005a5a
#072920:2c
