This file was generated by Ched 2.7.0.0.
#TITLE ""
#ARTIST ""
#DESIGNER ""
#DIFFICULTY 0
#PLAYLEVEL
#SONGID ""
#WAVE ""
#WAVEOFFSET 0
#JACKET ""
#REQUEST "ticks_per_beat 480"
#00002: 4
#BPM01: 86
#00008: 01
#TIL00: ""
#VOLUME: ""
#HISPEED 00
#MEASUREHS 00
#0251f:11
#02518:00000000000000000000130000000013
#02515:00000000000000000000001300001300
#0251b:23232323
#0251b:23
#02512:23
#02514:00000000003300330000000000000000
#00318:13000000000013130000001300000000
#0031b:0013000000000013
#00315:00000013000000000000000013000000
#00312:13000000000000130000000000000013
#00515:00000013000000130000130000130000
#00518:00001300001300000000001300000013
#0231b:13000000000000000000001300000000
#02318:00000000000000331300000000130000
#02316:0000000000130000
#02312:23232323
#02312:23
#0231a:00000000003300000000000000000000
#02319:0000003300000000
#02617:0000000000000000001300000000000000000000000000000000000000000000
#0261b:00130000000000000000000000000000
#02612:23232323
#0071b:00000000001300000013000000001300
#00712:00000013000000000000001300000013
#00715:13000000000013000000000000130000
#00718:00001300000000130000000013000000
#0321b:0013000000130023
#03212:1300131300000023
#03216:0013
#03218:00000000001300000000000023000000
#03215:00000000000000000000000000230000
#02216:0000000000000000001300000000000000000000000000000000000000000000
#02212:00130000000000000000000000000000
#0221b:23232323
#02115:00000000000000000000130000000013
#02118:00000000000000000000001300001300
#02112:23232323
#0211b:23
#02119:00000000003300330000000000000000
#02110:41
#02012:2300130000230013
#02018:23000000000013000000230000130000
#02015:0023000023001300
#0201b:0023000023000000
#0191b:2300130000230013
#01915:23000000000013000000230000130000
#01918:0023000023001300
#01912:0023000023000000
#0361b:0000231300130000
#03615:0000231300000000
#03612:2313000023131400
#03618:2313000023000000
#03616:00000000000000000000000000140000
#0361a:0000000000000014
#0351b:0000130013000013
#03515:00000013000000000013000000001300
#03518:0013000000130000
#03512:0000001300001300
#03510:41
#03412:00000000002300000000130000001300
#03417:0013
#03415:0023000000001300
#03418:2300000000000013
#0341b:0000232300001300
#0281b:0013000000000000
#02812:0013141415151612
#0281c:0000000000000012
#0281a:0000141400000000
#02819:0000000015150000
#02818:00000016
#00818:13000000000000130000000000000000
#00812:00000000000013130000000014000000
#0081b:00000013000000000000000000000000
#00815:0013000000000000
#00816:00000000000000000000000000140000
#0081a:0000000000000014
#04016:3313330000000000
#0401b:3313330000002300
#04014:0000001300000000
#04019:0000001300000000
#04012:00000000000000003300000000000023
#04015:0000000000000023
#04018:00000000000000000000000000230000
#04017:0033
#03917:0000000033133300
#03912:0000000033133300
#03916:3313330000000000
#0391b:3313330000000000
#03914:0000001300000013
#03919:0000001300000013
#03817:0000000033133300
#03812:0000000033133300
#03816:3313330000000000
#0381b:3313330000000000
#03814:0000001300000013
#03819:0000001300000013
#03717:0000000033133300
#03712:0000000033133300
#03716:2313330000000000
#0371b:2313330000000000
#03719:0000001300000013
#03714:0000001300000013
#03112:13000013
#03115:00001300000000130013000000000000
#03118:00001300000000000000000000130000
#0311b:1300000013130000
#0301b:1300131300000000
#03015:00000000001300000000001300000000
#03018:00000013
#03012:00001300000000000000000000130000
#03017:0000000000000000000000000000000000130000000000000000000000000000
#02918:26000000160012002600000000130000
#02916:0000001200000000
#02912:26162613
#02915:00000000000000000000000000000013
#0291f:21
#02910:0041
#02718:00002612
#02716:00000012
#02712:24252600
#0271a:24
#02719:00250000
#02412:23000000001300000000000000000000
#02415:0013000000000000
#0241b:00130000230000002300000023000000
#01818:0000001300000013
#0181b:23132313
#01815:0013000000130000
#01812:13231323
#01718:2300130000230013
#01715:0023001323001300
#0171b:0023000023000000
#01712:2300000000230000
#01710:41
#01615:2323001300001313
#01618:00000000130000002300230000130000
#0161b:2323000000000000
#01612:0000000023230000
#01518:2323001300001313
#01515:00000000130000002300230000130000
#01512:2323000000000000
#0151b:0000000023230000
#01415:23002300130000002300230000130013
#01418:0000001300001313
#0141b:2323000023230000
#01318:23002300130000002300230000130013
#01315:0000001300001313
#01312:2323000023230000
#01310:41
#01215:0000000000001313
#01218:00000000000000000000000000130000
#01212:1414
#0121a:00000014000000000000000000000000
#01216:1414000000000000
#01217:0013
#01116:14001400000000001300000000140000
#01112:00000014000000000000000000001400
#0111a:14001414
#01016:14001400000000000000000000140000
#0101a:00000014000000000000000000001400
#01012:14001414
#01017:0013
#00916:14001400000000001300000000140000
#00912:00000014000000000000000000001400
#0091a:24001414
#00910:41
#00618:00001300001300000000000000000013
#00615:00000013000000000000000000001300
#0061b:00000000000000001300000000130000
#00612:00000000000000131300000013000000
#00418:00000013000000000000000000000013
#00415:0013000000000013
#0041b:13000000000000130000000000130000
#00412:00000000000013130000000013000000
#00215:00001300130000000000000000000013
#00218:1300130000000013
#00212:00000000000000130000000000130000
#0021b:00000000000013130000000013000000
#0011b:13000000000000130000000013000000
#00118:00000013000000000000000000001300
#00115:23000000000013130000000000130000
#00112:00001300000000000000000000000013
#03312:00000000230000000023000023000000
#0331b:0000002300230000
#03318:00000023000000002300000000002300
#03315:00002300000000230000000000000023
#03152:53130000
#0315b:6300130000630000
#03155:0023000000000000
#03158:00002300000000000000000000530000
#02852:1300000000005622
#0285b:13
#0285c:0000000000000022
#02858:00000066
#03358:16
#03352:16530000
#0335b:0000000000630000
#02552:13
#03652:1353000013000000
#03658:1353000013000000
#0365b:0000136300000000
#03655:0000136300000000
#0345b:0000006300000000
#03455:0063000000000000
#03458:53
#03457:0023
#02958:16000000560022001600000000530000
#02952:16661600
#02956:0000002200000000
#02758:00006652
#02752:0056
#02756:00000062
#01852:00130013
#0185b:1313
#0095a:1464
#00952:00000054000000000000000000000000
#00956:6463
#0325b:0063000000000063
#03252:5300005300000053
#03256:0023
#0215b:13
#00555:00000063000000000000000000630000
#00558:00000000005300000000005300000000
#02657:0000000000000000002300000000000000000000000000000000000000000000
#0265b:00630000000000000000000000000000
#0075b:00000000000000000063000000000000
#00758:00000000000000530000000000000000
#00752:00000053000000000000000000000000
#00755:63
#02358:00000000000000005300000000530000
#0235b:00000000000000000000006300000000
#02256:0000000000000000002300000000000000000000000000000000000000000000
#02252:00530000000000000000000000000000
#0355b:0000630000000063
#03555:0000000000000063
#03558:0000000000530000
#03552:0000005300000000
#00858:53000000000000530000000000000000
#00852:00000000000000530000000000000000
#0085b:00000063000000000000000000000000
#04056:0023000000000000
#0405b:0023000000000000
#04054:0000006300000000
#04059:0000006300000000
#03957:0000000000230000
#03952:0000000000230000
#03956:0023000000000000
#0395b:0023000000000000
#03954:0000006300000053
#03959:0000006300000053
#03857:0000000000230000
#03852:0000000000230000
#03856:0023000000000000
#0385b:0023000000000000
#03854:0000006300000053
#03859:0000006300000053
#03757:0000000000230000
#03752:0000000000230000
#03756:0023000000000000
#0375b:0023000000000000
#03759:0000006300000053
#03754:0000006300000053
#0305b:6300006300000000
#03057:0000000000000000000000000000000000230000000000000000000000000000
#03052:0053000000000000
#02452:00000000002300000000000000000000
#02455:0063000000000000
#0125a:00000064000000000000000000000000
#01256:54
#01252:0054
#01257:0053
#01152:00000054000000000000000000000000
#01156:6463
#0115a:0064
#0105a:00000064000000000000000000000000
#01056:54
#01052:0054
#01057:0053
#0065b:0063
#00652:0053
#00658:00000000005300000000000000000000
#00655:00000063000000000000000000000000
#0045b:63000000000000630000000000000000
#00458:00000053000000000000000000000000
#00452:00000000000000530000000000000000
#00355:00000063000000000000000063000000
#00352:53000000000000530000000000000000
#00358:00000000000000530000000000000000
#0015b:63000000000000630000000000000000
#00155:00000000000000630000000000000000
#00158:00000053000000000000000000000000
#00252:00000000000000530000000000000000
#0025b:00000000000000630000000000000000
#00255:00630000
#00258:53
#0013b0:13
#001380:0023000000000000
#001380:00000013000000000000230000000000
#0013b0:00000000000033330000000000000000
#001351:00000000000000130000000000000000
#001321:0000000000230000
#002381:13
#0023b1:0023000000000000
#002351:0000130000230000
#002321:00000000000033330000000000000000
#0023b0:00000000000000130000000000000000
#002380:0000000000230000
#003320:13
#003350:0023000000000000
#003350:00000013000000000000230000000000
#003320:00000000000033330000000000000000
#003381:00000000000000130000000000000000
#0033b1:0000000000230000
#003351:00000013
#003321:0000000000000023
#0043b1:13
#004381:0023000000000000
#004381:00000013000000000000230000000000
#0043b1:00000000000033330000000000000000
#004320:00000000000000130000000000000000
#004350:0000000000230000
#005320:1323000000000000
#005350:00000013000000000000000000000000
#005320:00000000002300000000000000000000
#005381:00000000001300000000000000000000
#0053b1:00000000000000230000000000000000
#0053b1:0000000013230000
#005381:00000000000000000000001300000000
#0053b1:00000000000000000000000000230000
#005350:00000000000000000000000000130000
#005320:00000000000000000000000000000023
#006320:1323000000000000
#006350:00000013000000000000000000000000
#006320:00000000002300000000000000000000
#006381:00000000001300000000230000000000
#0063b1:00000000000000333300000000000000
#006320:0013
#006350:0000000000230000
#007350:13
#007320:0023000000000000
#007320:00000013000000000000000000000000
#007350:00000000002300000000000000000000
#007380:00000000000000130000002300000000
#0073b0:00000000000000000033000000000000
#008380:13
#0083b0:0023000000000000
#0083b0:00000013000000000000230000000000
#008380:00000000000033330000000000000000
#008321:00000000000000130000000000000000
#008351:0000000000230000
#009361:14
#009321:0024000000000000
#009321:00000014000000000000000000000000
#009361:0000002400000000
#0093a0:0000001434000000
#009360:0000000000240000
#009361:0013
#009321:0000000000230000
#010361:14
#0103a1:0024000000000000
#0103a1:00000014000000000000000000000000
#010361:0000002400000000
#010320:0000001434000000
#010360:0000000000240000
#010371:0013
#0103b1:0000000000230000
#011361:14
#011321:0024000000000000
#011321:00000014000000000000000000000000
#011361:0000002400000000
#0113a0:0000001434000000
#011360:0000000000240000
#011361:0013
#011321:0000000000230000
#012361:14
#0123a1:0024000000000000
#0123a1:00000014000000000000000000000000
#012361:0000002400000000
#012320:0000001434000000
#012360:0000000000240000
#012371:0013
#0123b1:0000000000230000
#0213b1:00132300
#021391:00000000003300330000000000000000
#021381:0000003300000000
#022321:00130000000000002300000000000000
#022361:0000000000000000005300000000000000000000000000000000000000000000
#0233b1:0000130000230000
#0233a1:00000000003300000000000000000000
#023391:0000003300000000
#023381:00000000000000333300000000000000
#0233b1:00000000000000000000001300000000
#023381:00000000000000000000000000330000
#0243b1:23
#024351:0013000023000000
#024321:00000000005300000000000000000000
#025321:00132300
#025341:00000000003300330000000000000000
#025351:0000003300000000
#0263b1:00130000000000002300000000000000
#026371:0000000000000000005300000000000000000000000000000000000000000000
#027321:0016
#027361:00000052
#028321:23
#027380:00001652
#0283b0:23
#028320:0000000000001652
#029320:26
#028381:00000016
#0283c1:0000000000000052
#029381:26
#029381:0000165226000000
#029320:00162600
#029360:0000005200000000
#029380:00000000000000000000000000130000
#0293b0:00000000000000000000000000000023
#0303b0:13
#030380:0023000000000000
#030321:0013000000000000
#030351:00230000
#0303b1:00000000000013000000002300000000
#030371:0000000000000000000000000000000000530000000000000000000000000000
#031321:13230000
#031351:0053000000000000
#0313b0:13230000
#031380:0053000000000000
#0313b0:0000000000130000
#031380:00000023
#031380:00000000000000000000000000130000
#0323b0:23
#032321:13
#032351:0023000000000000
#0323b0:0013000000000000
#032380:00230000
#032320:0000001300230000
#032360:0053
#0323b0:0000000000000013
#033380:26
#032321:0000000000000013
#033321:26
#033321:00130000
#033351:0000002300000000
#0333b1:0000000000130000
#033381:00000023
#034381:13
#0343b1:0023000000000000
#034350:0013000000000000
#034320:00230000
#0343b0:0000001300230000
#034370:0053
#0353b0:00130000
#035380:0000002300000000
#035321:0000001300000000
#035351:0023
#035381:0000000000130000
#0353b1:00000023
#035351:0000000000000013
#036321:23
#0353b0:0000000000000013
#036380:23
#036380:0013000000000000
#0363b0:00230000
#036321:0013000000000000
#036351:00230000
#036351:0000001300000000
#036321:0023
#0363b0:0000001300000000
#036380:0023
#037360:1353330000000000
#037340:0000005300000053
#037320:0000000033533300
#038360:3353330000000000
#038340:0000005300000053
#038320:0000000033533300
#039360:3353330000000000
#039340:0000005300000053
#039320:0000000033533300
#040360:3353330000000000
#040340:0000005300000000
#040320:0000000033230000
#0373b1:1353330000000000
#037391:0000005300000053
#037371:0000000033533300
#0383b1:3353330000000000
#038391:0000005300000053
#038371:0000000033533300
#0393b1:3353330000000000
#039391:0000005300000053
#039371:0000000033533300
#0403b1:3353330000000000
#040391:0000005300000000
#040371:0000000033230000
