This file was generated by Ched 2.7.0.0.
#TITLE ""
#ARTIST ""
#DESIGNER ""
#DIFFICULTY 0
#PLAYLEVEL
#SONGID ""
#WAVE ""
#WAVEOFFSET 0
#JACKET ""
#REQUEST "ticks_per_beat 480"
#00002: 4
#BPM01: 86
#00008: 01
#TIL00: ""
#VOLUME: ""
#HISPEED 00
#MEASUREHS 00
#02118:00000000130013001300001300000000
#02112:2300000000131300
#0211b:2300000000000013
#02115:00000000001300130000000000000013
#02110:41
#0311b:13
#03112:13
#03118:00000000000000130013000013000000
#03115:00000000000000001300130000130000
#01812:13000000000000000000000000000033
#01815:0013000000000000
#01818:00130000
#0181b:0000001300000000
#01814:00000000000000000000000000330000
#01813:0000000000000033
#0281a:0000000014140000
#0281b:0000131300000000
#02819:00000015
#02812:0000131314141500
#00118:0013000000001300
#00115:00000013000000000000000000001300
#00112:23000000000000130000000000000000
#0011b:23
#00218:00000013
#00215:00000000000000130000000000001300
#00212:00130000
#0021b:13
#00412:13000013
#00418:00000000000000130000000000001300
#0041b:00000013000000000000000013000000
#00415:00000000000000000000000000000013
#02718:00000013
#02715:00000013
#0271a:00230000
#0271b:23
#02713:00230000
#02712:23
#02719:0023
#02714:0023
#00718:00001300001300130000000000000000
#00712:13000000000013000000000000003333
#0071b:13
#00715:00000013000000000000000000000000
#00714:00000033
#00713:00000000000000000000000000330000
#01918:00001300001300000000000000001300
#01915:00000013000013000000000000000000
#01912:0000000000000013
#0191b:00000000000000130000000000000000
#02018:0000001313000000
#02013:00130000
#02015:13
#02014:0013000000000000
#02012:0000001313000000
#02019:00130000
#0201b:13
#0201a:0013000000000000
#0221b:13
#02218:00000013
#02215:00130000000000000000000000000000
#0131b:13000000000000130000000000000000
#01315:00001300000000000000000000003333
#01318:00000013000000000000000000000000
#01312:13
#01313:00000033
#01314:00000000000000000000000000330000
#01310:41
#01618:0013000000001313
#01612:13000013000000000000000000000000
#01615:00000000000000130000000000130000
#0161b:13
#01712:13
#0171b:13
#01715:00001333000000001300000000000000
#01718:00000000000000130000133300000000
#01710:41
#0051b:13000000000000000000133300000000
#00518:00000000000000130000000000000000
#00512:00001333000000001300000000000000
#00515:00000000000000000000000000000013
#0061b:13
#00618:00000000000000130000000013000000
#00615:0000000013000013
#00612:00001333000000000000000000000000
#03012:13
#03015:00000000001300000000001300130000
#0301b:0000131300000000
#03018:00000013
#02918:00000000000000002300000000000013
#0291b:23000013
#02915:00000000000000002300000000130000
#02912:23150000
#02919:00150000
#0291f:21
#02910:0041
#0321b:13
#03218:00000000001300000000000023000000
#03212:0000131300000000
#03215:0000000000000023
#03718:00140014
#03716:0014
#0371a:24
#03712:24
#0381a:14
#03818:00140014
#03816:0014
#03914:00140014
#03916:0014
#03912:14
#04012:14
#04014:0000140000000064
#0401a:00000064
#04016:00000064
#04019:00000000000000000000000000640000
#04015:00000000000000000000000000640000
#04018:0000000000000064
#04013:00000000000000000000000000000064
#04017:00000000000000000000000000000064
#01418:00001300000000000000000000000033
#01415:00000013000000000000000000000000
#01412:00000000000000130000000000000000
#0141a:00000000000000000000000000330000
#01419:0000000000000033
#01515:0013000000000000
#0151b:00000013000000000000000000000000
#01518:00000000000000130000000000000000
#00818:0013000000001414
#00815:00000013000000000000000000000000
#00812:00000000000000130000000000000000
#00814:00000000000000000000000000140000
#00914:0000000000001414
#00918:00000000000000000000000000140000
#00912:14
#0091a:0014
#00915:0034000014000000
#00910:41
#01218:0000000000001313
#01215:00000000000000000000000000130000
#0121a:14
#01212:0014
#01217:0034000014000000
#01018:0000000000001414
#01014:00000000000000000000000000140000
#0101a:14
#01012:0014
#01017:0034000014000000
#01114:0000000000001414
#01118:00000000000000000000000000140000
#01112:14
#0111a:0014
#01115:0034000014000000
#00015:00000013
#00018:0000000000000013
#0351b:00130000
#03518:00001300000000000013000000001300
#03515:00000013000000001300000000000000
#03512:0000000000130000
#03510:41
#03614:0000000000001414
#03618:00000000130013000000000000140000
#03615:13000000001300000000000000000000
#0361b:0023
#03418:23000013
#03415:0000000000000013
#0341b:00000000002300000000000000000000
#03412:0000232300000000
#0031b:13000000000000130000000000000000
#00312:13
#00318:00000013000000000000000000001300
#00315:0013000000001300
#02415:00130000000000000000000013000000
#0241b:1313000000000000
#02315:0000131313000000
#02318:00000000001300130000130000000000
#0231b:23
#02312:23
#02518:00000000000013000000001300000000
#02512:2300000000130000
#0251b:2300130013000013
#02515:00000000001300130000000013000013
#0251f:11
#02618:13000013
#02612:00130000000000000000000000000000
#02615:0000000000000013
#03315:00000023000023000000230000000023
#03318:00002300000000230000000000002300
#0331b:00000000230000000023000000000000
#03312:0023
#0315b:63
#03158:00130000
#03152:53
#03155:00130000
#02758:00000053
#02759:0063
#02755:00000063
#02754:0053
#0285b:13
#02852:13000065
#02859:00000055
#00758:00000000000000530000000000000000
#00155:00000063000000000000000000000000
#00152:00000000000000530000000000000000
#00252:00530000
#00255:00000000000000630000000000000000
#0025b:63
#0045b:00000063000000000000000000000000
#00458:00000000000000530000000000000000
#00452:53
#03052:53
#0305b:0000006300000000
#0325b:63
#03252:0000005300000000
#03255:0000000000000063
#0375a:24
#03756:0024
#03758:00540054
#0385a:24
#03858:00540054
#03856:0024
#03954:00640064
#03956:0024
#03952:24
#04052:24
#04054:00640000
#0295b:13
#02952:13550000
#02955:0013
#02959:00650000
#02958:0013
#01358:00000053000000000000000000000000
#0135b:00000000000000630000000000000000
#01455:00000063000000000000000000000000
#01452:00000000000000530000000000000000
#0155b:00000063000000000000000000000000
#01558:00000000000000530000000000000000
#01652:00000053000000000000000000000000
#01655:00000000000000630000000000000000
#02058:0053
#02052:0053
#0195b:00000000000000630000000000000000
#0055b:0000000000630000
#00552:0053000000000000
#00652:0053000000000000
#00855:00000063000000000000000000000000
#00852:00000000000000530000000000000000
#01758:0000000000530000
#01755:0063000000000000
#0185b:0000006300000000
#0355b:00630000
#03552:0000000000530000
#03655:63
#03658:0000005300000000
#0365b:0013
#03455:0000000000000063
#03458:53
#03452:0000005300000000
#03355:0000000000630000
#03352:13
#00952:54
#0095a:0064
#00955:0064
#0105a:64
#01052:0054
#01057:0054
#01152:54
#0115a:0064
#01155:0064
#0125a:64
#01252:0054
#01257:0054
#0245b:0063000000000000
#02652:00530000000000000000000000000000
#02255:00630000000000000000000000000000
#0035b:00000000000000630000000000000000
#00358:00000053000000000000000000000000
#001350:00000013000000000000230000000000
#001320:00000000000033330000000000000000
#0023b0:13
#002380:0023000000000000
#002320:0000130000230000
#002350:00000000000033330000000000000000
#003380:00000013000000000000230000000000
#0033b0:00000000000033330000000000000000
#004320:13
#004350:0023000000000000
#0043b0:00000013000000000000230000000000
#004380:00000000000033330000000000000000
#005320:00001333000000000000000000000000
#005350:00000000002300000000000000000000
#0053b0:00000000000000000000133300000000
#005380:00000000000000000000000000230000
#006320:00001333000000000000000000000000
#006350:00000000002300000000000000000000
#007380:00000000000000130000000000000000
#0073b0:00000000000000000023000000000000
#007350:00000000000000000000001300000000
#007340:00000033
#007330:00000000000000000000000000330000
#007320:00000000000000000000000000003333
#008320:23
#008350:00000013000000000000230000000000
#008320:00000000000033330000000000000000
#009320:1400000000240000
#009350:00003434000034003400000000000000
#0093a1:0000001434000000
#009371:0000000000240000
#0103a1:1400000000240000
#010371:00003434000034003400000000000000
#010320:0000001434000000
#010350:0000000000240000
#011320:1400000000240000
#011350:00003434000034003400000000000000
#0113a1:0000001434000000
#011371:0000000000240000
#0123a1:1400000000240000
#012371:00003434000034003400000000000000
#012320:0000001434000000
#012350:0000000000240000
#013380:00000013000000000023000000000000
#0133b0:00000000000033330000000000000000
#013320:00000000000000000000001300000000
#013330:00000033
#013340:00000000000000000000000000330000
#013350:00000000000000000000000000003333
#014350:23
#014350:00000013000000000000230000000000
#014320:00000000000033330000000000000000
#0143b0:00000013
#0143a0:00000000000000000000000000330000
#014390:0000000000000033
#014380:00000000000000000000000000000033
#015380:23
#0153b0:00000013000000000023000000000000
#015380:00000000000033330000000000000000
#015350:00000000000000000000001300000000
#015340:00000033
#015330:00000000000000000000000000330000
#015320:0000000000000023
#016320:00000013000000000000230000000000
#016350:00000000000033330000000000000000
#017350:00001333000000000000000000000000
#017320:00000000002300000000000000000000
#017380:00000000000000000000133300000000
#0173b0:0000000000000023
#0183b0:0000001300000000
#018380:0000000000230000
#018350:00000013
#018340:00000000000000000000000000330000
#018330:0000000000000033
#018320:00000000000000000000000000000033
#019320:23
#0193b0:00000000000000130000000000000000
#019380:00000023
#020320:0013
#020350:00000023
#020381:0013
#0203b1:00000023
#022351:00130000000000000000000000000000
#022321:0023
#023351:00000000000000000000001300230000
#0243b1:0013000000000000
#024381:0023
#026321:00130000000000000000000000000000
#026351:0023
#027391:0013
#027381:00000053
#0283b1:23
#027340:0013
#027350:00000053
#028320:23
#028390:00000015
#0293b0:23
#028321:00000015
#029321:23
#029321:00150000
#029351:0023
#029390:00150000
#029380:0023
#030320:13
#030350:0023000000000000
#0303b0:0000001300000000
#030380:0023
#0313b0:13
#031380:00230000
#031321:13
#031351:00230000
#0323b1:13
#032381:0023000000000000
#032321:0000001300000000
#032351:0000000000230000
#032351:0000000000000013
#033321:23
#033351:0000000000130000
#033321:00000023
#034381:13
#0343b1:0023000000000000
#034321:0000001300000000
#034351:0000000000230000
#034351:0000000000000013
#035321:23
#0353b1:00130000
#035381:0000002300000000
#035321:0000000000130000
#035351:00000023
#036351:13
#036321:0023000000000000
#036381:0000001300000000
#0363b1:0023
#0373a1:14
#037381:00340034
#037361:0034
#0383a1:34
#038381:00340034
#038361:0034
#0393a1:3434
#0403a1:34003424
#037320:1434
#038320:3434
#039320:34
#039340:00340034
#039360:0034
#040320:34
#040340:00340000
#040360:00003424
#0409a0:00000014
#040970:00000000000000000000000000000024
#040961:00000014
#040931:00000000000000000000000000000024
