This file was generated by Ched 2.7.0.0.
#TITLE ""
#ARTIST ""
#DESIGNER ""
#DIFFICULTY 0
#PLAYLEVEL
#SONGID ""
#WAVE ""
#WAVEOFFSET 0
#JACKET ""
#REQUEST "ticks_per_beat 480"
#00002: 4
#BPM01: 86
#00008: 01
#TIL00: ""
#VOLUME: ""
#HISPEED 00
#MEASUREHS 00
#00612:00000012001200121200000000120000
#0061c:00000000000000121200000000000000
#00618:1212000000000012
#00614:00000000000000000000000000000012
#0061a:00240024
#00418:12000000000000120000000000120012
#00416:00000012000000000000000000001200
#00412:00000000240012120000000024000000
#0041c:0012000000000000
#00816:00000012000012120000000000000000
#00818:12001200000012120000000000130000
#0081a:00120000
#00815:0000000000000013
#0081b:00000013
#00812:00240024
#00718:00000012000000000000001200000000
#00716:1212001200000012
#0071a:00000000001200000000000000000012
#0071c:00000000000000000000000000120000
#00712:00240024
#0031a:00000012000000000000000000000012
#00316:00001200000012120000001200001200
#00312:12240024
#0031c:00000000000000120000000000000000
#00318:0000000000120000
#00514:00000000000000000000001200120012
#00516:00000012001200120000000000000000
#0051a:0000240012122400
#0051c:1212000000000000
#03912:1400000000120000
#03918:0012000000000000
#0391a:24
#03916:0024
#04018:0012000000002600
#04012:24000000000000000032323200000026
#04014:0000000000000026
#04016:00000000000000002400000000260000
#0381c:0000000000120000
#03816:0012000024000000
#0381a:24
#0371c:0000000000120000
#03716:0012000024000000
#0371a:24
#03712:24
#03618:0000000000000000000000000000000026000013000013000000000000001400
#03616:0014001400000014
#03612:26001414
#03615:00000000260000000013130000000000
#0361a:00000014
#03614:00000000000000000000000000140000
#03517:0000130000130000
#03512:0000131300130000
#03516:0013000000001300
#0351b:0013000013000000
#03514:00000013000000000013000000000000
#03519:00000013000000000013000000000000
#03515:0000000000000013
#03518:00000000000000000000000000000013
#03510:41
#03412:2323230013000013
#0341b:00130000000023000000130000001300
#03418:00000013
#03415:00000013
#03416:2400242400000000
#03419:00000000002300000000000000000000
#03414:00000000002300000000000000000000
#03215:00000000000000000000000000000013
#03218:00000000000000000000000000000013
#03217:0013
#0321b:0013001300000023
#03212:13000000130000001300000025242300
#03216:0000001300000000
#03219:00000000001300000000000025000000
#03214:00000000001300000000000000000000
#0321a:00000000000000000000000000240000
#03116:00001300131300000000000000130000
#0311b:13000000001300130000130013130000
#03112:0000000000130000
#03118:00000000000000000013000000000000
#03115:0013
#02917:00000000000000000000130013130000
#02912:26000000230000001300000000130000
#02916:00000000000013000000000000000013
#0291b:00132300
#02918:26
#0291f:21
#02910:0041
#03017:00001300000013000000000000130000
#03016:13000000130000000000001300000000
#03012:00000000000013000000000000130000
#03014:00000000001300000000000013000000
#03019:00000000001300000000000013000000
#0301b:13000000000000000000001300000000
#02818:0000000000161612
#02812:0012131415161600
#02816:0000000000000012
#02819:0015
#0281a:0000001400000000
#0281b:00130000
#0281c:0012000000000000
#01213:00000012
#01215:00000000000000000000000000120000
#01217:0000000000000012
#01219:00000000000000000000000000000012
#01218:0000000000001200000000001200000000000012000012000000000000000000
#01216:00001200240000120012120000000000
#01214:0012
#0121a:12122400
#0121b:00000012
#01212:24
#02015:00000000000000120000000000000000
#02017:0000001223230000
#02019:00000000001200000000000000000000
#0201b:2323120000000000
#02018:0000000000000014
#02016:23002300000000000000000000140000
#02014:00000014
#02012:0000000023230000
#01814:00001400000000000000000000000012
#01816:0000230000000012
#01818:00000000000000000000140000120000
#0181a:00000012
#01815:00000000000000000014000000000000
#01812:14001423
#0181c:00120000
#01819:0000001200000000
#0181b:0023
#01817:23
#0171a:00000014
#01718:00000000000000120000000000140000
#01716:2323001200000014
#01714:00000000001200000000000000000014
#01712:0000120023230000
#01717:0000000023230000
#0171b:2323000000000000
#01710:41
#01619:00000000001200000000000000000000
#01617:0000121223230000
#01615:00000000000000120000000000000000
#0161a:0000000000000014
#01616:23002300000000000000000000140000
#01612:0000000023231400
#0161b:2323000000000000
#01513:00000000000000000000000000000014
#01515:0000000000000014
#01517:00000000000000002300230000140000
#01519:00000014
#0151a:00000000000000120000000000000000
#01514:00120000
#01518:0000001200000000
#01516:23002300001200000000000000000000
#01512:0000000023230000
#0151b:2323000000000000
#01417:00000000000000002300230000140000
#01416:23002300001200000000000000001400
#01418:00000000000012000000000000000014
#01414:00000014
#01415:00000000000000120000000000000000
#01419:00120000
#01412:0000000023230000
#0141b:2323000000000000
#01316:23002300000000000000000000140000
#01318:0000000000000014
#01314:00000014
#01315:0000001200000000
#01319:00120000
#01317:0000000023230000
#01312:0000000023230000
#0131b:2323000000000000
#01310:41
#02112:0016
#02114:1200000000000013
#02117:00000000130000000000000000000013
#0211b:2300000053130000
#02119:00000000000053000000001300000000
#02110:41
#0211a:00000000000000530000000000000000
#02118:00000000005300000000000000000000
#0191a:0000000000000014
#01918:00000000000000000000000000140000
#01916:2323000000001400
#01914:00000000000000000000001400000000
#01915:0000001200000000
#01917:00000000001200002300230000000000
#01919:00120000
#01912:0000000023230000
#0191b:2323000000000000
#02218:00000000000000001600000000120012
#0221a:12
#02216:0000000000001212
#02215:00130000000000000000000000000000
#02319:00000000000053000000001300000000
#02315:00000000000000000000000000130000
#02313:0000000000000013
#02317:00130013
#0231b:2300000053130000
#02312:0016
#02314:12
#0231a:00000000000000530000000000000000
#02318:00000000005300000000000000000000
#02416:1300000000001212
#02418:00000000000000001600000000120012
#0241a:12
#02412:0053000000000000
#02414:00530000000000000000000000000000
#02518:0016
#0251a:12
#02516:00000000130000000000000000000013
#02519:0000000000000013
#02512:2300000053130000
#02514:00000000000053000000001300000000
#0251f:11
#02513:00000000000000530000000000000000
#02515:00000000005300000000000000000000
#02612:0016
#02614:12
#02616:00000000000000000000000000120012
#02618:00130000000000000000000012001200
#01016:00000013000000000000000000000000
#01017:1313
#01012:13001313
#0101b:00001313000000000000000013000000
#01018:00000000000000000000000000130000
#01015:0000000000000013
#01117:00000013000000000000000000000000
#01116:1313
#0111b:13001313
#01112:00001313000000000000000013000000
#01118:0000000000000013
#01115:00000000000000000000000000130000
#00912:23001313000000000000000013000000
#0091b:13001313
#00917:00000013000000000000000000000000
#00916:0013
#00918:0000000000000013
#00915:00000000000000000000000000130000
#00910:41
#02717:000000000000000000000000000000000000000000000000000000000000000000000000000000000000000000000000000000000000000000000000000000000000000000000000000000000000000000000000000000000000000000000000000000000000000000000000000000000000000000000000000000000000000000000000000000000000000000000000000000000000000000000000000000000000000000000000000000000000000000000000000000000000000000000000000000000000000000000000000000000000000000000000000000000000000000000000000000000000000000000000000000000000000000000000000000000000000000000000000000000000000000000000000000000000000000000000000000000000000000000000000000000000000000000000000000000000000000000000000000000000000000000000000000000000000000000000000000000000000000000000000000000000000000000000000000000000000000000000000000000000000000000000000000000000000000000000000000000000000000000000000000000000000000000000000000000000000000000000000000000000000000000000000000000000000000000000000000000000000000000000000000000000000000000000000000000000000000000000000000000000000000000000000000000000000000000000000000000000000000000000000000000000000000000000000000000000000000000000000000000000000000000000000000000000000000000000000000000000000000000000000000000000000000000000000000000000000000000000000000000000000000000000000000000000000000000000000000000000000000000000000000000000000000000000000000000000000000000000000000000000000000000000000000000000000000000000000000000000000000000000000000000000000000000000000000000000000000000000000000000000000000000000000000000000000000000000000000000000000000000000000000000000000000000000000000000000000000000000000000000000000000000000000000000000000000000000000000000000000000000000000000000000000000000000000000000000000000000000000000000000000000000000000000000000000000000000000000000000000000000000000000000000000000000000000000000000000000000000000000000000000000000000000000000000000000000000000000000000000000000000000000000000000000000000000000000000000000000000000000000000000000000000000000000000000000000000000000000000000000000000000000000000000000000000000000000000000000000000000000000000000000000000000000000000000000000000000000000000000000000000000000000000000000000000000000000000000000000000000000000000000000000000000000000000000000000000000000000000000000000000000000000000000000000000000000000000000000000000000000000000000000000000000000000000000000000000000000000000000000000000000000000000000000000000000000000000000000000000000000000000000000000000000000000000000000000000000000000000000000000000000000000000000000000000000000000000000000000000000000000000000000000000000000000000000000000000000000000000000000000000000000000000000000000000000000000000000000000000000000000000000000000000000000000000000000000000000000000000000000000000000000000000000000000000000000000000000000000000000000000000000000000000000000000000000000000000000000000000000000000000000000000000000000000000000000000000000000000000000000000000000000000000000000000000000000000000000000000000000000000000000000000000000000000000000000000000000000000000000000000000000000000000000000000000000000000000000000000000000000000000000000000000000000000000000000000000000000000000000000000000000000000000000000000000000000000000000000000000000000000000000000000000000000000000000000000000000000000000000000000000000000000000000000000000000000000000000000000000000000000012120000000000000000000000000000000000000000000000000000000000000000000000000000000000000000000000000000000000000000000000000000000000000000000000000000000000000000000000000000000000000000000000000000000000000000000000000000000000000000000000000000000000000000000000000000000000000000000000000000000000000000000000000000000000000000000000000000000000000000000000000000000000000000000000000000000000000000000000000000000000000000000000000000000000000000000000000000000000000000000000
#02712:24002612
#0271c:00000012
#02715:0014000000000000
#02716:0000001500000000
#02719:00250000
#0271a:24
#02718:0026
#0021c:00000000000012120000000000000000
#00216:12000000000000120000000000120012
#00212:0012000000000000
#00218:0000000000000012
#0021a:00240024
#00118:00001200000012120000000000001200
#00116:00000000000000000000120000120000
#00114:00000012000000000000000000000012
#00112:00000000000000120000000000000000
#0011a:00240024
#0011c:22
#0331a:00000022000000230000000000000000
#03319:00002200000000000000000000000023
#0331b:0000230000230023
#03316:0000000024242424
#03312:0000232300000000
#03314:00000022000000000000000000000023
#03315:0022000000000000
#03313:00000000000000000023000000000000
#04052:54340000
#04056:0064
#04058:0022000000000000
#03956:00006444
#03952:5400340000220000
#03958:0022000000000000
#03856:0022000054003400
#0385a:64440000
#0385c:0000000000220000
#03756:0022000054003400
#0375a:64440000
#0375c:0000000000220000
#03352:36
#03358:46
#0335b:00630000
#03356:0000000000640000
#03456:5400006400000000
#03452:0000000023000053
#0345b:00230000000000000000000000006300
#03458:00000053
#03455:00000063
#03252:5300000023000053
#0325b:0063006300000063
#03255:00000000000000000000000000000023
#03258:00000000000000000000000000000023
#03257:0023
#03256:0000006300000000
#0125a:0014
#01252:14
#01256:00140000
#01852:00000013
#0185b:0013
#01856:00130000
#01857:13
#0215b:13
#02152:0056
#02154:22
#02952:36335300
#0295b:00634300
#02958:46
#02957:00000000000000000000230000530000
#02956:0000002300000000
#03658:0016
#03655:00160000
#03652:16
#00652:0052
#0065c:0062
#00458:00000000000000520000000000000000
#00452:00000000000000520000000000000000
#03557:0000530000530000
#03552:0000005300000000
#03156:13002300006300000000000000000000
#0315b:63000000000000000000000000630000
#03152:0000000000530000
#03057:00005300000053000000000000530000
#03056:63
#03052:00000000000053000000000000530000
#02858:0000000000006622
#02852:34000056
#02856:0000000000000022
#0285a:44
#00858:00000000000000520000000000000000
#00856:00000000000000620000000000000000
#02258:0066
#0225a:22
#02255:00630000000000000000000000000000
#02458:0066
#0245a:22
#02352:0056
#02354:22
#02558:0066
#0255a:22
#02552:13
#02652:0056
#02654:22
#02658:00530000000000000000000000000000
#01057:0053
#01052:5353
#0105b:00000063000000000000000000000000
#01156:0063
#0115b:6363
#01152:00000053000000000000000000000000
#00952:13000053000000000000000000000000
#0095b:6363
#00956:0063
#02757:000000000000000000000000000000000000000000000000000000000000000000000000000000000000000000000000000000000000000000000000000000000000000000000000000000000000000000000000000000000000000000000000000000000000000000000000000000000000000000000000000000000000000000000000000000000000000000000000000000000000000000000000000000000000000000000000000000000000000000000000000000000000000000000000000000000000000000000000000000000000000000000000000000000000000000000000000000000000000000000000000000000000000000000000000000000000000000000000000000000000000000000000000000000000000000000000000000000000000000000000000000000000000000000000000000000000000000000000000000000000000000000000000000000000000000000000000000000000000000000000000000000000000000000000000000000000000000000000000000000000000000000000000000000000000000000000000000000000000000000000000000000000000000000000000000000000000000000000000000000000000000000000000000000000000000000000000000000000000000000000000000000000000000000000000000000000000000000000000000000000000000000000000000000000000000000000000000000000000000000000000000000000000000000000000000000000000000000000000000000000000000000000000000000000000000000000000000000000000000000000000000000000000000000000000000000000000000000000000000000000000000000000000000000000000000000000000000000000000000000000000000000000000000000000000000000000000000000000000000000000000000000000000000000000000000000000000000000000000000000000000000000000000000000000000000000000000000000000000000000000000000000000000000000000000000000000000000000000000000000000000000000000000000000000000000000000000000000000000000000000000000000000000000000000000000000000000000000000000000000000000000000000000000000000000000000000000000000000000000000000000000000000000000000000000000000000000000000000000000000000000000000000000000000000000000000000000000000000000000000000000000000000000000000000000000000000000000000000000000000000000000000000000000000000000000000000000000000000000000000000000000000000000000000000000000000000000000000000000000000000000000000000000000000000000000000000000000000000000000000000000000000000000000000000000000000000000000000000000000000000000000000000000000000000000000000000000000000000000000000000000000000000000000000000000000000000000000000000000000000000000000000000000000000000000000000000000000000000000000000000000000000000000000000000000000000000000000000000000000000000000000000000000000000000000000000000000000000000000000000000000000000000000000000000000000000000000000000000000000000000000000000000000000000000000000000000000000000000000000000000000000000000000000000000000000000000000000000000000000000000000000000000000000000000000000000000000000000000000000000000000000000000000000000000000000000000000000000000000000000000000000000000000000000000000000000000000000000000000000000000000000000000000000000000000000000000000000000000000000000000000000000000000000000000000000000000000000000000000000000000000000000000000000000000000000000000000000000000000000000000000000000000000000000000000000000000000000000000000000000000000000000000000000000000000000000000000000000000000000000000000000000000000000000000000000000000000000000000000000000000000000000000000000000000000000000000000000000000000000000000000000000000000000000000000000000000000000000000000000000000000000000000000000000000000000000000000000000000000000000022220000000000000000000000000000000000000000000000000000000000000000000000000000000000000000000000000000000000000000000000000000000000000000000000000000000000000000000000000000000000000000000000000000000000000000000000000000000000000000000000000000000000000000000000000000000000000000000000000000000000000000000000000000000000000000000000000000000000000000000000000000000000000000000000000000000000000000000000000000000000000000000000000000000000000000000000000000000000000000000000
#02752:54356652
#0275c:00000062
#02755:0024000000000000
#02756:0000002500000000
#02759:00650000
#0275a:44
#02758:0056
#00356:00000000000000620000000000000000
#0025c:00000000000000620000000000000000
#00256:00000000000000620000000000000000
#00158:00000000000000520000000000000000
#001320:1222000000000000
#001360:0000122200000000
#001380:00000000000000120000000000000000
#0013c0:0000000000220000
#0023a0:1222000000000000
#002360:0000122200000000
#0023c0:00000000000000120000000000000000
#002380:0000000000220000
#002361:00000000000000120000000000000000
#002321:0000000000220000
#0033c1:1222000000000000
#003381:0000122200000000
#003361:00000000000000120000000000000000
#003321:0000000000220000
#0033a1:0000000000001222
#004341:1222000000000000
#004381:0000122200000000
#004381:00000000000000120000000000000000
#0043c1:0000000000220000
#004320:00000000000000120000000000000000
#004360:0000000000220000
#005360:1222000000000000
#005340:0000000012220000
#006320:1222000000000000
#0063c0:0012
#006380:0000000000220000
#006321:0012
#006361:0000000000220000
#0073a1:1222000000000000
#007381:00000000000000120022000000000000
#007360:00000000000000000012002200000000
#008340:1222000000000000
#008380:00000000000000120000000000000000
#0083c0:0000000000220000
#008361:00000000000000120000000000000000
#008321:0000000000220000
#0093b1:13
#009371:0023000000000000
#009321:00000013000000000000000000000000
#009361:0000002300000000
#0093b0:0000001333000000
#009370:0000000000230000
#009361:0013
#009321:0000000000230000
#010321:13
#010361:0023000000000000
#0103b1:00000013000000000000000000000000
#010371:0000002300000000
#010320:0000001333000000
#010360:0000000000230000
#010371:0013
#0103b1:0000000000230000
#0113b1:13
#011371:0023000000000000
#011321:00000013000000000000000000000000
#011361:0000002300000000
#0113b0:0000001333000000
#011370:0000000000230000
#011361:0013
#011321:0000000000230000
#021341:12000022
#021321:0036
#021370:0000000000001323
#0223a0:12000022
#022380:0036
#022321:1323
#022351:00330000000000000000000000000000
#023340:12000022
#023320:0036
#0243a0:12000022
#024380:0036
#024321:0013000023000000
#0253a0:12000022
#025380:0036
#025361:0000000000001323
#026341:12000022
#026321:0036
#0263b0:1323
#026380:00330000000000000000000000000000
#027321:14250000
#027351:0054000000000000
#027390:00150000
#027360:0000005500000000
#027380:0056
#0273c0:00000052
#027370:000000000000000000000000000000000000000000000000000000000000000000000000000000000000000000000000000000000000000000000000000000000000000000000000000000000000000000000000000000000000000000000000000000000000000000000000000000000000000000000000000000000000000000000000000000000000000000000000000000000000000000000000000000000000000000000000000000000000000000000000000000000000000000000000000000000000000000000000000000000000000000000000000000000000000000000000000000000000000000000000000000000000000000000000000000000000000000000000000000000000000000000000000000000000000000000000000000000000000000000000000000000000000000000000000000000000000000000000000000000000000000000000000000000000000000000000000000000000000000000000000000000000000000000000000000000000000000000000000000000000000000000000000000000000000000000000000000000000000000000000000000000000000000000000000000000000000000000000000000000000000000000000000000000000000000000000000000000000000000000000000000000000000000000000000000000000000000000000000000000000000000000000000000000000000000000000000000000000000000000000000000000000000000000000000000000000000000000000000000000000000000000000000000000000000000000000000000000000000000000000000000000000000000000000000000000000000000000000000000000000000000000000000000000000000000000000000000000000000000000000000000000000000000000000000000000000000000000000000000000000000000000000000000000000000000000000000000000000000000000000000000000000000000000000000000000000000000000000000000000000000000000000000000000000000000000000000000000000000000000000000000000000000000000000000000000000000000000000000000000000000000000000000000000000000000000000000000000000000000000000000000000000000000000000000000000000000000000000000000000000000000000000000000000000000000000000000000000000000000000000000000000000000000000000000000000000000000000000000000000000000000000000000000000000000000000000000000000000000000000000000000000000000000000000000000000000000000000000000000000000000000000000000000000000000000000000000000000000000000000000000000000000000000000000000000000000000000000000000000000000000000000000000000000000000000000000000000000000000000000000000000000000000000000000000000000000000000000000000000000000000000000000000000000000000000000000000000000000000000000000000000000000000000000000000000000000000000000000000000000000000000000000000000000000000000000000000000000000000000000000000000000000000000000000000000000000000000000000000000000000000000000000000000000000000000000000000000000000000000000000000000000000000000000000000000000000000000000000000000000000000000000000000000000000000000000000000000000000000000000000000000000000000000000000000000000000000000000000000000000000000000000000000000000000000000000000000000000000000000000000000000000000000000000000000000000000000000000000000000000000000000000000000000000000000000000000000000000000000000000000000000000000000000000000000000000000000000000000000000000000000000000000000000000000000000000000000000000000000000000000000000000000000000000000000000000000000000000000000000000000000000000000000000000000000000000000000000000000000000000000000000000000000000000000000000000000000000000000000000000000000000000000000000000000000000000000000000000000000000000000000000000000000000000000000000000000000000000000000000000000000000000000000000000000000000000000000000000000000000000052000000000000000000000000000000000000000000000000000000000000000000000000000000000000000000000000000000000000000000000000000000000000000000000000000000000000000000000000000000000000000000000000000000000000000000000000000000000000000000000000000000000000000000000000000000000000000000000000000000000000000000000000000000000000000000000000000000000000000000000000000000000000000000000000000000000000000000000000000000000000000000000000000000000000000000000000000000000000000000000000
#0283a0:24
#027321:00001652
#027371:0000000000000052
#028321:24
#028321:00000016
#028361:0000000000000052
#029321:26
#028380:0000000000001652
#029380:26
#0293b0:00132300
#029360:0000005300000000
#029321:00001323
#029371:0000000000530000
#029371:00000000000000000000000000130000
#0293b1:00000000000000000000000000000023
#030361:13
#030321:0023000000000000
#030370:0013000000000000
#0303b0:00230000
#030320:0000001300000000
#030360:0000000000230000
#030371:0000001300000000
#0303b1:0000000000230000
#030321:00000000000000000000000000130000
#031361:23
#030370:00000000000000000000000000130000
#0313b0:33230000
#031360:0053000000000000
#031360:00000000001300000000000000000000
#031320:00000000000000230000000000000000
#031320:0000000000130000
#031360:00000023
#0313b0:00000000000000000000000000130000
#032370:23
#032321:13
#032361:0023000000000000
#0323b0:0013000000000000
#032370:00230000
#032360:0000001300230000
#032320:0053
#0323b1:0000001300230000
#032371:0053
#032321:0000000000000013
#032351:00000000000000000000000000000053
#033321:26
#0323b0:0000000000000013
#032380:00000000000000000000000000000053
#033380:26
#0333b0:00130000
#033360:0000002400000000
#033360:0000000000140000
#033320:00000023
#034360:1424000000000000
#0343b0:00530000000000000000000000000000
#034360:0000001400240000
#034320:0053
#034350:00000013
#034320:0000000000000033
#035350:23
#034381:00000013
#0343b1:0000000000000033
#035381:23
#035371:00130000
#0353b1:0000002300000000
#035320:0000001300000000
#035360:0023
#035370:0000000000130000
#0353b0:00000023
#0363b0:1323000000000000
#036320:0000132300000000
#037320:14003434000034003400000034343400
#038320:34003434000034003400000034343400
#039320:54240000
#039380:0052000000000000
#0373a1:14240000
#037361:0052000000000000
#037361:00001424
#0373c1:0000000000520000
#0383a1:14240000
#038361:0052000000000000
#038361:00001424
#0383c1:0000000000520000
#0393a1:14003434000034003400000034343400
#0403a1:34003434000034002400000000000000
#039360:00001424
#039320:0000000000520000
#040320:14240000
#040380:0052000000000000
#040360:0014
#040320:00000000000000000032323222000000
#021970:00130000
#0219b0:0023
#023970:00130000
#0239b0:0023
#024960:13
#024920:0023000000000000
#025960:00130000
#025920:0023
