This file was generated by Ched 2.7.0.0.
#TITLE ""
#ARTIST ""
#DESIGNER ""
#DIFFICULTY 0
#PLAYLEVEL
#SONGID ""
#WAVE ""
#WAVEOFFSET 0
#JACKET ""
#REQUEST "ticks_per_beat 480"
#00002: 4
#BPM01: 86
#00008: 01
#TIL00: ""
#VOLUME: ""
#HISPEED 00
#MEASUREHS 00
#0311a:14
#03112:0014
#0011a:2414
#00212:1414
#00318:1414
#00414:1414
#00718:1414
#00814:1414
#0091a:14
#00917:00140000
#00910:41
#01012:14
#01015:00140000
#0111a:14
#01117:00140000
#01212:14
#01215:00140000
#0131a:1400140000140000
#01314:0014000014001400
#01310:41
#01418:1400140000140000
#01412:0014000014001400
#0151a:14
#01518:0000140000140000
#01514:0014000000001400
#01512:0014
#01618:1400000000140000
#0161a:00140000
#01614:0014000014000000
#01612:00000014
#0171a:14140000
#01714:0014000000000000
#01712:00001414
#01718:0000000000140000
#01710:41
#0191a:1400000000140000
#01918:00140000
#01912:0014000014000000
#01914:00000014
#02018:14
#0201a:0000140000140000
#02012:0014000000001400
#02014:0014
#02714:00000014
#0271a:24
#02716:00240000
#02712:0024
#02818:00140000
#02814:0014
#0281a:00000024
#0291a:00000014
#02912:00240000
#0291f:21
#02910:0041
#03014:14
#03012:00000014
#03018:00140000
#03218:14
#03214:00140000
#0321a:00000014
#03314:14
#03318:00140000
#03312:0014
#0331a:00000014
#03412:24000014
#03416:00240000
#0341a:0024
#03518:14
#03514:00140000
#0351a:0014
#03512:00000014
#03510:41
#0361a:14000014
#03616:00140000
#03612:0014
#03715:0014
#03712:14
#03812:14
#03917:0014
#0391a:14
#0401a:14
#0251f:11
#02110:41
#0315a:64
#03158:00140000
#03152:0054
#03154:00000014
#0095a:64
#00957:00240000
#01052:54
#01055:00240000
#0115a:64
#01157:00240000
#01252:54
#01255:00240000
#02754:00000064
#02752:0054
#02852:14
#0285a:00000064
#02958:14
#02952:00540000
#02954:0014
#03058:00540000
#03254:00640000
#03755:0064
#03752:54
#03852:54
#03957:0054
#0395a:64
#0405a:64
#0053a0:1424
#006320:1424
#0093a0:1424
#009370:00540000
#010320:1424
#010350:00540000
#0113a0:1424
#011370:00540000
#012320:1424
#012350:00540000
#0183a0:14
#018380:00240000
#018320:0014
#018340:00000024
#0213a0:14000024
#021380:0034
#022320:14000024
#022340:0034
#023380:14000024
#0233a0:0034
#024340:14000024
#024320:0034
#0253a0:14000024
#025380:0034
#026320:14000024
#026340:0034
#027320:0014
#027340:00000034
#028320:24
#0283a0:00000014
#029380:24
#029320:00140000
#029340:0024
#030380:00140000
#0303a0:0024
#0313a0:14
#031380:00240000
#031320:0014
#031340:00000024
#032340:00140000
#032320:0024
#037320:14
#037350:0034
#038320:34
#038350:0024
#0393a0:14
#039370:0034
#0403a0:34000000000000000000000000000024
#040370:00003434
#040380:00000000000000000000000000340000
#040390:0000000000000034
