This file was generated by Ched 2.7.0.0.
#TITLE ""
#ARTIST ""
#DESIGNER ""
#DIFFICULTY 0
#PLAYLEVEL
#SONGID ""
#WAVE ""
#WAVEOFFSET 0
#JACKET ""
#REQUEST "ticks_per_beat 480"
#00002: 4
#BPM01: 190
#00008: 01
#TIL00: ""
#VOLUME: ""
#HISPEED 00
#MEASUREHS 00
#00416:00130000
#00415:0013
#00418:0000000000130000
#00412:2300000000000013
#0041b:0000130000000013
#00518:0013000000001300
#00515:0000130000130000
#00512:0000000013000013
#00514:00000000000000000000000000000053
#00612:0000130000000013
#00615:0013
#00618:0000000000130000
#0061b:1300000000000013
#00617:00130000
#00616:53
#00718:0013001300001300
#00715:0000130000130013
#03315:0013000000000000
#03318:00000013000000000000000000000000
#03316:0000005300000014
#03312:00135300
#0331b:00001353
#03314:00000000005300530000000000000000
#03317:0000000000530000
#03319:00000000000000000053005300000000
#03418:00000013000000000000000000001300
#03415:0013000000001300
#03412:00135300
#0341b:00001353
#03414:00000000005300530000000000000000
#03416:0000005300000000
#03417:0000000000530000
#03419:00000000000000000053005300000000
#0351b:1313
#03519:0013000000130000
#03517:00130013
#03514:0000001300000000
#03516:1313
#03512:00130013
#0361a:1200000000120000
#03618:0012000000001200
#03616:0000120012000012
#0361c:0012
#04018:0013130000000000
#04015:00000013000000000000000000000000
#04012:2300001300000013
#04016:0013
#04017:0000000000130000
#0401b:23000013
#0401f:21
#04115:00130000000013000000000000000000
#04112:00131313
#04118:1313000000000000
#04114:0000000000000013
#0411b:00131300
#04110:00410000
#04216:13
#04212:00130013
#04218:0000001300130013
#04215:0013
#0421b:13130013
#04318:0013001300001300
#04315:00131300
#0431b:0013
#04312:00000013
#04418:0000131300130000
#04412:00131300
#04415:2300001300000013
#0441b:23000013
#0451b:0013000013000000
#04518:0000130000000013
#04515:0000001300001300
#04512:0013
#0461b:13130013
#04618:0013001300130013
#04612:1300001300130013
#04615:0013000013000000
#0471b:0013000000000000
#04718:00130000
#04715:0000001300000000
#04712:00001324
#0471a:0000000000240000
#05312:0013000013000000
#05315:0000130000000013
#05318:0000001300001300
#0531b:0013
#05310:41
#05618:0013130013000023
#05615:00000013000000001300000000000000
#0561b:2300001300000000
#05612:2300001300000023
#05715:1313001300000013
#05718:00130000
#0571b:00130000000000001300000000000000
#05712:00001313
#05818:13130013
#0581b:0013000023000013
#05815:0000001300130000
#05812:23231323
#05918:13001323
#05915:0013001300000000
#05912:23132323
#0591b:0000230000130000
#0641b:0000000000130000
#06512:0000001300130000
#06515:00000013
#06518:0000000000000013
#0661b:1300000000130000
#06612:1300131300000000
#06617:0000001300000053
#0661a:00000000000000000000005300000000
#06619:00000053
#06618:00000000000000000000000000530000
#06717:0013000000000000
#06719:00130000
#0671b:0000001300001300
#06712:0013
#06714:0000000000130000
#06716:0000001300001300
#06816:0013
#06812:0000000000130000
#0681b:0000000013000013
#06817:0000000000130000
#06916:1313000000000000
#06912:0000001300000000
#0691b:0013000000130000
#06918:00000013
#06915:0000000000000013
#06917:0000001300000000
#07012:13
#07015:0013000000000000
#07018:00131300
#0701b:0000001300000000
#00817:00130000
#00818:0013
#00815:0000000000130000
#0081b:2300000000000013
#00812:2300130000000013
#00810:41
#00915:0013000000001300
#00918:0000130000130000
#0091b:0000000013000013
#00919:00000000000000000000000000000053
#0101b:0000130000000013
#01018:0013
#01015:0000000000130000
#01012:1300000000000013
#01016:00130000
#01017:53
#01115:0013001300001300
#01118:0000130000130013
#02016:00130000
#02015:0013
#02018:0000000000130000
#02012:2300000000000013
#0201b:2300130000000013
#02118:0013000000001300
#02115:0000130000130000
#02112:0000000013000013
#02114:00000000000000000000000000000053
#02212:0000130000000013
#02215:0013
#02218:0000000000130000
#0221b:1300000000000013
#02217:00130000
#02216:53
#02318:0013001300001300
#02315:0000130000130013
#02515:00001313
#02512:0000001300130000
#02518:0000000000000013
#0251a:14141414
#0261b:1300000000130000
#02618:0013
#02612:14141414
#02718:0000001300001300
#0271b:00131300
#02712:14141414
#02814:00000013
#02812:1300001300000013
#0281a:14141414
#02810:41
#02914:13130013
#02916:0013000000000000
#02915:0000000000130000
#02913:0000000000000013
#02912:0000001300000000
#0291a:14141414
#03012:1300000000130000
#0301b:00130000
#03018:0000001300000000
#03015:00001313
#0301a:14
#0301f:11
#03112:0013000000000000
#03115:00130013
#03118:0000001300130013
#0311b:0013
#03216:0000000000530014
#0321b:23135300
#03212:23001353
#03219:00000000005300530000000000000000
#03217:0000005300000000
#03214:00000000000000000053005300000000
#03712:1212
#03718:1200001200000000
#03714:0012000000000000
#03716:00120000
#0371a:0012
#03814:1200000000120000
#03816:0012000000001200
#03818:0000120012000012
#03812:0012
#0391a:12
#03916:0012000012000000
#03918:00120000
#03914:0000001200000000
#04815:0013130000000000
#04818:00000013000000000000000000000000
#0481b:2300001300000013
#04817:0013
#04816:0000000000130000
#04812:23000013
#04918:00130000000013000000000000000000
#0491b:00131313
#04915:1313000000000000
#04919:0000000000000013
#04912:00131300
#05017:13
#0501b:00130013
#05015:0000001300130013
#05018:0013
#05012:13130013
#05115:0013001300001300
#05118:13131300
#05112:0013
#0511b:00000013
#05215:0000131300130000
#0521b:00131300
#05218:2300001300000013
#05212:23000013
#05412:13130013
#05415:0013001300130013
#0541b:1300001300130013
#05418:0013000013000000
#05512:0013000013000000
#05515:00130000
#05518:0000001300000000
#0551b:0013
#06015:0013130013000023
#06018:00000013000000001300000000000000
#06012:2300001300000000
#0601b:2300001300000023
#06118:1313001300000013
#06115:00130000
#06112:00130000000000001300000000000000
#0611b:00001313
#06215:13130013
#06212:0013000023000013
#06218:0000001300130000
#0621b:23231323
#06210:41
#06315:13001323
#06318:0013001300000000
#0631b:23132323
#06312:0000230000130000
#0121b:1300001300000000
#01316:0000000000130000
#01312:0013
#0131b:0000000000130000
#01412:1300001300000000
#0141b:0000000000000013
#01512:00120000
#01518:0000001200000000
#01514:0012
#0151a:0000000000120000
#01516:00000012
#0151c:0000000000000012
#01712:0000000000130000
#01712:0000000000130000
#01717:0000000000130000
#0171b:0013
#01916:00130000
#01914:0013
#01912:00000013
#0191b:00130000
#01919:0013
#01917:00000013
#02412:1300000000000013
#02416:00000033000000000000130000000000
#02414:00000013
#0241a:14141414
#01612:1300001300000000
#0181b:1300001300000000
#01812:0000000000000013
#01810:41
#0011a:52
#0011b:00520000000000000000000000000000
#0011c:0052000000000000
#0265b:63
#03052:13
#02852:0000006300000000
#03552:00000013
#04052:1300005300000000
#04057:0000000000530000
#04056:0023
#0405b:13000023
#0415b:0053
#0425b:13
#04355:0013
#0435b:0013
#04358:00000013
#04352:00000013
#04455:0000005300000000
#04452:0023
#0445b:00000023
#04458:0000000000630000
#0455b:0013
#04652:5300000000230000
#0465b:00530000
#04655:0023000053000000
#04658:0000002300000000
#0475a:0000000000440000
#04752:00000034
#0485b:1300006300000000
#04857:0023
#04856:0000000000630000
#04852:13000023
#05152:0013
#05155:00000013
#05158:0013
#0515b:00000013
#0525b:0023
#05258:0000006300000053
#05252:00000023
#05255:0000000000530000
#04952:0063
#05052:13
#0545b:6300000000230000
#05455:0000002300000000
#05458:0023000063000000
#05452:00630000
#0555b:0013
#05552:0013
#0565b:1300005300430000
#05658:0023
#05652:1300006300330000
#05655:0023
#0575b:0053
#06052:1300006300330000
#06055:0023
#0605b:1300005300430000
#06058:0023
#06152:0063
#06452:0000000000130000
#0645b:0000000000130000
#06556:0013000000000000
#0655b:0013000000000000
#06652:0000005300000000
#0665b:53
#06952:0000005300000000
#07055:0000000000000013
#0705b:0000000000000013
#02452:53
#0125b:0000005300000000
#01452:0000005300000000
#01652:0000006300000000
#0185b:0000006300000000
#05352:0013
#0013c0:0012000000000000
#003370:32525252525252525252525232000000
#003380:0052005200520052005200520052005200520052005200520000000000000000
#004370:22
#012320:1300002300000000
#0123b1:0000001300000000
#013371:0023
#014371:1300002300000000
#014320:0000001300000000
#014360:0000000000000023
#0163b0:1300002300000000
#016321:0000001300000000
#017361:0023
#018361:1300002300000000
#0183b0:0000001300000000
#018370:0000000000000023
#024320:13
#024360:00000033000023000000000000000000
#0263b0:13
#026380:00230000
#026380:0000000000000013
#027380:0023000000000000
#028320:0000001300000000
#028360:0000000000230000
#030380:0000000000000013
#031380:0023000000000000
#0323b0:0000000000001323
#033320:0000000000001323
#039320:00000013
#040320:23
#0393b1:00000013
#0403b1:23
#040321:0000001300230000
#040361:0053
#040370:0000000000130023
#0403b0:00000053
#0413b0:0013
#041370:00000023
#042350:0000000000000013
#043350:0023000000000000
#044350:0000001300230000
#044320:0053
#044381:0000000000130023
#0443b1:00000053
#046321:13230000
#046351:0053000000000000
#0463b0:00132300
#046380:0000005300000000
#046351:00001323
#046321:0000000000530000
#0483b1:0000001300230000
#048371:0053
#048360:0000000000130023
#048320:00000053
#049320:0013
#049360:00000023
#052380:0000001300230000
#0523b0:0053
#052351:0000000000130023
#052321:00000053
#052380:0000000000000013
#0533b0:0023000000000000
#0543b0:13230000
#054380:0053000000000000
#054321:00132300
#054351:0000005300000000
#054380:00001323
#0543b0:0000000000530000
#056320:0000001300230000
#056350:0053
#0563b1:0000001300230000
#056381:0053
#0573b1:0013
#057371:00000023
#0603b1:0000001300230000
#060381:0053
#060320:0000001300230000
#060350:0053
#061320:0013
#061360:00000023
#0633b0:0000000000000000000000000000000000000000000000001353535353535353
#0633a0:00000000000000000000000000000000000000000000000000000000000000000000000000000000000000000000000000530053005300530053005300530053
#0643b0:23
#064351:13230000
#064380:0000132300000000
#064321:0000001300230000
#0643b1:0000000000000013
#0653b1:0023000000000000
#064360:0000000000000013
#065360:0023000000000000
#065370:0000001300230000
#0663b0:13
#066370:00230000
#066320:0000001300000000
#066360:0000000000230000
#066320:0000000000000013
#067320:0023000000000000
#068370:13230000
#068321:13230000
#069321:0000001300000000
#069361:0000000000230000
#070351:0000000000130023
#0703b0:0000000000130023
#0019a0:12
#0019c0:0022000000000000
#005920:0000000000000013
#006960:23
#0099b0:0000000000000013
#010970:23
#021920:0000000000000013
#022960:23
#0329b0:00132300
#032970:0000005300000000
#032921:00001323
#032961:0000000000530000
#033921:00132300
#033961:0000005300000000
#0339b0:00001323
#033970:0000000000530000
#034920:00132300
#034960:0000005300000000
#0349b1:00001323
#034971:0000000000530000
#0669b1:0000000000130000
#066971:0000000000000023
