This file was generated by Ched 2.7.0.0.
#TITLE ""
#ARTIST ""
#DESIGNER ""
#DIFFICULTY 0
#PLAYLEVEL
#SONGID ""
#WAVE ""
#WAVEOFFSET 0
#JACKET ""
#REQUEST "ticks_per_beat 480"
#00002: 4
#BPM01: 190
#00008: 01
#TIL00: ""
#VOLUME: ""
#HISPEED 00
#MEASUREHS 00
#00415:0000130000130000
#00418:0013
#0041b:0000000000000013
#00515:0013000000001300
#00518:0000130000130000
#00512:0013
#0051b:0000000000000013
#00615:0013
#00618:0000130000130000
#00612:1300000000000013
#00718:0013001300001300
#00715:0000130000130013
#03512:0013000000130000
#0351b:00130013
#03515:0000001300000000
#03518:1313
#03614:12120000
#03618:0012000000000000
#0361a:00001212
#03616:0000000000120012
#04018:0000001300000000
#0401b:2300000013000013
#04012:0000000000000013
#04015:00130000
#0401f:21
#04118:0013000000001300
#04115:0000130000000013
#04112:0000001300000000
#04110:00410000
#04212:00130013
#04218:0000001300000000
#04215:0013
#0421b:1300000000130000
#04315:00131300
#04318:0000001300001300
#0441b:2300131300000000
#04412:2300131300000000
#04418:0000000000130000
#04415:0000000000130000
#04512:0013000000000000
#04518:0000130000000013
#04515:0000001300001300
#0451b:0013
#04612:1300000000330000
#04615:0033000013000000
#04618:0000003300000013
#0461b:00130000
#04712:0013000000000000
#04718:00130024
#04715:0000001300000000
#0471b:0013
#04714:0000000000240000
#05818:0013000000130000
#05812:0000001300000013
#05815:00230023
#0581b:2323
#05915:0013000000130000
#05912:0000001300002300
#05918:2323
#0591b:00230023
#06518:0000001300000013
#06512:0000000000130000
#06515:00000013
#0661b:13
#06612:0000001300000000
#06715:0000130000130000
#06712:0013
#06718:0000001300001300
#06815:0000000000130000
#0681b:0000000000000013
#06818:0013
#06915:1300000000000013
#06912:0000001300000000
#06918:00000013
#0691b:0013000000000000
#0701b:1313
#07015:0013000000000000
#07018:00130000
#07012:0000001300000000
#03718:1200001200000000
#03714:0012000000000000
#03716:00120000
#0371a:0012
#0551b:0013000000000000
#05515:00130000
#05518:0000001300000000
#05512:0013
#00818:0000130000130000
#00815:0013
#00812:0000000000000013
#0081b:23
#00810:41
#00918:0013000000001300
#00915:0000130000130000
#0091b:0013
#00912:0000000000000013
#01018:0013
#01015:0000130000130000
#0101b:1300000000000013
#01115:0013001300001300
#01118:0000130000130013
#02015:0000130000130000
#02018:0013
#0201b:2300000000000013
#02115:0013000000001300
#02118:0000130000130000
#02112:0013
#0211b:0000000000000013
#02215:0013
#02218:0000130000130000
#02212:1300000000000013
#02318:0013001300001300
#02315:0000130000130013
#02415:0000000000130000
#02418:00000033000000000000000013000000
#02412:0000000000000013
#0241b:13
#02615:0013
#02612:0000000000000013
#02618:0000000000130000
#0271b:0013000000001300
#02715:00130013
#02718:0000001300000000
#02712:0013
#02812:1300001300000000
#0281b:0000000000130000
#02815:00000013
#02818:1300000000000013
#02810:41
#02912:1300000000130000
#02918:0013000000001300
#02915:0000130000000013
#0291b:0000001300000000
#0301b:1300000000130000
#03012:00130000
#03018:0000001300000000
#03015:00001313
#0301f:11
#03112:00130000
#0311b:0000001300000013
#03115:00001313
#03118:0000000000130000
#02518:0000001300000013
#02515:00001313
#0251b:0000000000130000
#01318:0000000000130000
#01212:13
#01415:13
#0151b:00130000
#01518:0013
#01515:00000013
#01715:0000000000130000
#0161b:13
#01818:13
#01810:41
#01912:00130000
#01915:0013
#01918:00000013
#03415:0000000000000013
#03419:0053005300530000
#0341a:00000053005300000000005300000000
#0341b:00530053
#03418:00000000000000530053000000000000
#03417:0053
#0381a:12120000
#03816:0012000000000000
#03814:00001212
#03818:0000000000120012
#03916:1200001200000000
#0391a:0012000000000000
#03918:00120000
#03914:0012
#04815:0000001300000000
#04812:2300000013000013
#0481b:0000000000000013
#04818:00130000
#04915:0013000000001300
#04918:0000130000000013
#0491b:0000001300000000
#0501b:00130000
#05015:0000001300000000
#05018:0000000013000013
#05012:1300000000130000
#05118:00131300
#05115:1300001300001300
#05112:0013000000000000
#05212:2300131300000000
#0521b:2300131300000000
#05215:0000000000130000
#05218:0000000000130000
#0531b:0013000000000000
#05315:0000130000000013
#05318:0000001300001300
#05312:0013
#05310:41
#0541b:1300000000330000
#05418:0033000013000000
#05415:0000003300000013
#05412:00130000
#05618:0000001300000000
#0561b:2300000013000023
#05615:00130000
#05612:0000000000000023
#05718:0013000000001300
#05715:0000130000000013
#05712:0000001300000000
#06215:0013000000130000
#0621b:0000001300000013
#06218:00230023
#06212:2323
#06210:41
#06318:0013000000130000
#0631b:0000001300002300
#06315:2323
#06312:00230023
#06015:0000001300000000
#06012:2300000013000023
#06018:00130000
#0601b:0000000000000023
#06115:0013000000001300
#06118:0000130000000013
#0611b:0000001300000000
#03212:23
#0321b:00530053
#0321a:00000000005300000000005300530000
#03219:0000005300530053
#03218:00000000000000530053000000000000
#03217:0053
#0011a:00330000000000000000000000000000
#03314:0053005300530053
#03313:00000053005300000000005300530000
#03312:00530053
#03315:00000000000000530053000000000000
#03316:0053
#0355b:00000013
#04058:0000005300000000
#0405b:1323
#0425b:13
#04355:0013
#04358:00000013
#0455b:0013
#04652:53
#0465b:00530000
#04655:0053
#05552:0013
#06455:0000000000130000
#06552:0013000000000000
#0655b:0013000000000000
#06652:0000005300000000
#0665b:53
#06952:0000005300000000
#07056:0000000000000014
#0305b:13
#02558:0000000000000063
#01252:53
#01455:53
#0165b:63
#01858:63
#0245b:53
#04155:00630000
#04152:0000002300000000
#0445b:0000005300000000
#04458:0000000000530000
#04452:0000006300000000
#04455:0000000000630000
#04754:0000000000140000
#04758:00000014
#04855:0000006300000000
#04852:1323
#05155:00000013
#05158:0013
#0545b:63
#05458:0063
#05452:00630000
#05052:13
#05352:0013
#04958:00530000
#0495b:0000002300000000
#05252:0000006300000000
#05255:0000000000630000
#0525b:0000005300000000
#05258:0000000000530000
#05658:0000005300000000
#0565b:1323
#05755:00630000
#05752:0000002300000000
#06055:0000006300000000
#06052:1323
#06158:00530000
#0615b:0000002300000000
#0013a0:13330000000000000000000000000000
#0013b0:0033000000000000
#003380:33535353535353535353535333000000
#003390:0053005300530053005300530053005300530053005300530000000000000000
#004380:23
#012320:13
#012350:0000003300000000
#013350:0023
#014350:13
#014320:0000003300000023
#0163b0:13
#016380:0000003300000000
#017380:0023
#018380:13
#0183b0:0000003300000023
#0243b0:13
#024380:00000033000023000000000000000000
#025380:0000000000000013
#0263b0:00230000
#030380:0000000000000013
#031380:0023000000000000
#0393b0:00000013
#0403b0:23
#040380:0000001300230000
#0403b0:0033
#041350:00132300
#041320:0000003300000000
#042380:0000000000000013
#043380:0023000000000000
#0443b0:0000001300000023
#044380:0000000000330000
#044321:0000001300000023
#044351:0000000000330000
#046321:13
#046351:0033230000000000
#0463b0:00130000
#046380:0000003323000000
#046351:0013
#046321:0000000000332300
#048351:0000001300230000
#048321:0033
#049381:00132300
#0493b1:0000003300000000
#052321:0000001300000023
#052351:0000000000330000
#0523b0:0000001300000023
#052380:0000000000330000
#0543b0:13
#054380:0033230000000000
#054321:00130000
#054351:0000003323000000
#054380:0013
#0543b0:0000000000332300
#056380:0000001300230000
#0563b0:0033
#057350:00132300
#057320:0000003300000000
#060350:0000001300230000
#060320:0033
#061380:00132300
#0613b0:0000003300000000
#064380:13230000
#064350:0000001300230000
#0643b0:0000000000000013
#0653b0:0023000000000000
#064321:0000000000000013
#065321:0023000000000000
#0663b1:13
#066381:00230000
#066321:0000001300000000
#066351:0000000000230000
#066381:0000000000000013
#067381:0023000000000000
#068321:13230000
#0683b0:13230000
#069320:0000001300000000
#069350:0000000000230000
#070360:0000000000140024
#0329b0:00130053
#032970:0053
#032990:0000000000000023
#033940:0013000000000023
#033920:00530053
#033960:0053
#034990:0013000000000000
#0349b0:00530023
#034970:0053
