This file was generated by Ched 2.7.0.0.
#TITLE ""
#ARTIST ""
#DESIGNER ""
#DIFFICULTY 0
#PLAYLEVEL
#SONGID ""
#WAVE ""
#WAVEOFFSET 0
#JACKET ""
#REQUEST "ticks_per_beat 480"
#00002: 4
#BPM01: 190
#00008: 01
#TIL00: ""
#VOLUME: ""
#HISPEED 00
#MEASUREHS 00
#00412:0000130013130013
#0041b:0000130000000013
#00417:23
#00518:0013001300000000
#00515:13130000
#00512:0000000014000013
#00516:0000000000140000
#0051a:00000014
#00517:0000000000000013
#0051b:00130000
#00519:00000000000000000000000000000053
#00514:00000000000000000000000000000053
#00612:0000130000000013
#00616:5313
#00618:0000000000130000
#00617:00130000
#0061b:5300000013000013
#00615:00000013
#0071b:0013000000130000
#00717:0000001300000013
#00719:00130013
#0361c:1212
#0361a:0012000000120012
#03618:00120012
#03612:5252525252525252
#03613:00520052005200520052005200520052
#04016:00000012000000000000000000000000
#04018:00120000
#04012:2300001300001323
#0401b:2300001313130000
#0401f:21
#04115:0000001300000013
#04112:00131300
#04116:0012000000000000
#04118:00120000000013000000000000001300
#0411b:00131300
#04110:00410000
#04212:13130013
#04218:0000001300130013
#04215:0000000013000013
#0421b:13131313
#0431b:0013001300001300
#04315:00130000
#04316:00001414
#04312:0013
#04318:00000000001300000000000000000000
#0441b:23131313
#04417:0000001300000000
#04412:23131313
#04415:0000000000000013
#04418:0013000000000000
#04416:0000000000130000
#04518:00001300001300130000000013000000
#04515:0000131300000013
#04512:13001313
#0451b:1313
#0461b:13131313
#04618:0013001300130013
#04612:1300130013000013
#04615:0013001300130000
#0581b:13132323
#05817:0013001300000000
#05812:23231313
#05816:0000000000130013
#05917:13130000
#0591b:0013001300000000
#05912:23231323
#05915:0000000000130000
#05918:00002323
#06512:0000131300130000
#0651b:0000001300000013
#06513:00000000000000000000005300000000
#06514:00000053
#06515:00000000000000000000000000530000
#06516:0000000000000053
#0661b:13
#06617:13
#06616:0000001300130000
#06612:0000001300000053
#06615:00000000000000000000005300000000
#06614:00000053
#06613:00000000000000000000000000530000
#06712:0013000013000000
#0671b:00130013
#06714:0000001300000013
#06716:00141414
#06719:0000000000130000
#06816:1413000013000000
#06812:1300000000130013
#0681b:00001313
#06817:0000000000130013
#0681a:0014000000000000
#06814:0000001300000000
#06914:13
#06915:0000000000130013
#06916:0013001300000000
#06912:00131313
#06919:13
#0691b:00001300000013000000001300000000
#06918:00000000000000000013000000000000
#07018:1300130013160000
#0701b:0013001300000000
#07015:00130000001300000000000000000000
#07012:00000013000000130000160000000000
#03214:0000000000000018
#0321c:0000121212120000
#03217:00000000001200120012001200000000
#03212:24
#0321a:24
#03517:12121212
#03718:1200001200000000
#0371c:0012000012000000
#0371a:00120000
#03712:5252525252525252
#03713:00520052005200520052005200520052
#03818:1212
#0381a:0012000000120012
#0381c:00120012
#03812:5252525252525200
#03813:00520052005200520052005200000000
#03918:1200001200000000
#03914:0012000000000000
#03916:00120000
#0391a:0012
#03912:00000013
#0391b:00000013
#05415:0013001300130013
#05412:13131313
#0541b:13131300
#05418:0013001300130013
#05515:0000131300001300
#0551b:0013
#05512:0013
#05518:00000000001300130000130000001300
#0081b:2300130013130013
#00812:0000130000000013
#00816:23
#00810:41
#00915:0013001300000000
#00918:13130000
#0091a:0014
#00916:0000000000140013
#00912:00130014
#0091b:0000000000000013
#00919:00000000000000000000000000000053
#00914:00000000000000000000000000000053
#0101b:0000130000000013
#01017:5313
#01015:0000000000130000
#01016:00130000
#01012:5300000013000013
#01018:00000013
#02012:2400130013130013
#0201b:0000130000000013
#0201a:24
#02118:0013001300000000
#02115:13130000
#02112:0000000014001413
#02116:0000000000140000
#0211a:00000014
#02117:0000000000000013
#0211b:00130000
#02114:00000000000000000000000000000053
#02119:00000000000000000000000000000053
#02212:0000130000000013
#02216:5313
#02218:0000000000130000
#02217:00130000
#0221b:5300000013000013
#02215:00000013
#02416:0000001400000000
#02412:1400000000130013
#02415:00000013
#02414:00000014000000000000000000000000
#0241b:23131313
#0251b:1300001300130013
#02518:00131313
#02515:23131313
#02615:0000000013130013
#02612:13130000
#02618:23131313
#0271b:00131300
#02718:0013001300001300
#02712:23131313
#02812:1400000000130013
#02815:0000001300001300
#0281a:24141414
#02810:41
#0291b:1300130000130000
#02918:0013000000000000
#02919:00000013
#02917:0000000000000013
#02916:0000001400000000
#02912:24141414
#0301b:1300130000000013
#03018:0000001300000000
#03016:0000130000000013
#03017:0000000000131300
#03012:13
#0301f:11
#03114:00120000
#03116:0000001200000012
#03118:00001212
#0311a:0000000000120000
#03314:0000000000000018
#03317:00000012001200120012001200000000
#03312:0012121212120000
#03417:00000012001200120012001200000000
#0341c:0012121212121200
#04717:0013131300000000
#04713:0013131300000000
#04716:0000000000280000
#04712:00000028
#04818:00000012000000000000000000000000
#04816:00120000
#0481b:2300001300001323
#04812:2300001313130000
#04918:0012001300000013
#0491b:00131300
#04916:00120000000000000000000000000000
#04912:00131300
#04915:0000001300000013
#0501b:13130013
#05015:0000001300130013
#05018:0000000013000013
#05012:13131313
#05112:0013001300001300
#05118:00130000
#05116:00001414
#0511b:0013
#05115:00000000001300000000000000000000
#05315:00001300001300130000000013000000
#05318:0000131300000013
#0531b:1313
#05312:1313
#05310:41
#05616:00000012000000001400000014000000
#05618:00120000
#0561b:2300001313130023
#05612:2300001300131323
#05715:0000001300000013
#05712:00131300
#05716:0012000000000000
#05718:00120000000013000000000000001300
#0571b:00131300
#06212:13132323
#06216:0013001300000000
#0621b:23231313
#06217:0000000000130013
#06210:41
#06316:13130000
#06312:0013001300000000
#0631b:23231323
#06318:0000000000130000
#06315:00002323
#06118:0012001300000013
#06112:00131300
#06115:0000001300000013
#0611b:00131300
#06116:00120000000000000000000000000000
#06412:0000001300000000
#0641b:0000000000131313
#06417:0000000000000013
#05212:23131313
#05216:0000001300000000
#0521b:23131313
#05218:0000000000000013
#05215:0013000000000000
#05217:0000000000130000
#01212:13
#0131b:0000000000130000
#01316:0000000000130000
#0141b:13
#01412:0000000000000013
#0151c:00120012
#01516:00121212
#01519:0000001200000012
#01513:0000000000120000
#0161b:13
#01712:0000000000130000
#01717:0000000000130000
#01812:13
#0181b:0000000000000013
#01810:41
#01912:00120012
#01918:00121212
#01915:0000001200000012
#0191b:0000000000120000
#01112:0013000000130000
#01116:0000001300000013
#01114:00130013
#0231b:0013000000130000
#02317:0000001300000013
#02319:00130013
#06018:00000012000000000000000000000000
#06016:00121414
#06012:2300001313130023
#0601b:2300001300131323
#0011a:52
#0011b:00520000000000000000000000000000
#0011c:0052000000000000
#00114:52
#00113:00520000000000000000000000000000
#00112:0052000000000000
#03557:00000012
#04052:1300005300000013
#0405b:1300000000530000
#0415b:0053
#04152:0063
#0425b:13
#04252:13
#04255:0000000000000053
#04352:0013
#04356:00001414
#0435b:00000013
#04552:0013
#04652:5300530053000053
#04655:0023002300230000
#04658:0000000000000053
#04756:0000000000480000
#04752:00000038
#04757:0053535300000000
#04753:0053535300000000
#05552:0013
#06457:0000000000130053
#06452:0000005300000000
#0645b:1300000000000053
#06556:0013000000000000
#0655b:0000005300000000
#07055:0000000000000013
#07058:0000000000560013
#07052:0000000000560000
#0205a:14
#02052:1400000000130000
#02057:0000000000130000
#02852:14
#02758:00000013
#0275b:0013
#02956:0000001400000000
#0305b:1300000000000063
#03056:0000000000000063
#03052:13
#0325a:14
#03252:14
#03254:0000000000000038
#03354:0000000000000048
#03952:00000053
#0395b:00000063
#0485b:1300006300000013
#04852:1300000000630000
#0505b:13
#05052:13
#05058:0000000000000063
#05156:00001414
#05152:00000013
#0515b:0013
#04952:0063
#0495b:0053
#0545b:63636300
#05458:0023002300230053
#05455:0000000000000053
#0575b:0053
#05752:0063
#0565b:1300000000000013
#05652:1300000000000013
#05852:13130000
#0585b:00001313
#05952:13130000
#05958:00001313
#06152:0063
#0615b:0053
#0625b:13130000
#06252:00001313
#0635b:13130000
#06355:00001313
#0665b:53
#06657:53
#06656:0000005300000000
#0675b:00130013
#06752:0013
#06856:5423000000000000
#06852:5300000000130000
#0685a:0024000000000000
#0685b:0013
#0535b:0013
#02655:0000000000130000
#0695b:0013000000000000
#0135b:0000000000130000
#01356:0000000000130000
#01757:0000000000130000
#01752:0000000000130000
#03852:00000012
#06052:1300000000000013
#0605b:1300000000000013
#001320:0012000000000000
#0033c0:22
#0013c1:0012000000000000
#003351:32525252525252525252525232000000
#003361:0052005200520052005200520052005200520052005200520000000000000000
#004351:22
#004371:0000000013230000
#007361:1323000000000000
#007321:0000132300000000
#007361:0000000013230000
#007321:0000000000001323
#008361:0000000013230000
#011371:1323000000000000
#0113b1:0000132300000000
#011371:0000000013230000
#0113b1:0000000000001323
#012371:13000000000000530000000000000000
#0123b1:00530000000033000000000000000000
#013371:0023
#012360:0000001300000000
#012320:00000000000000530000000000000000
#013320:0023
#014320:13
#014360:00530000000023000000000000000000
#0143b1:0000001300000000
#014371:00000000000000530000000000002300
#016361:13000000000000530000000000000000
#016321:00530000000033000000000000000000
#017361:0023
#016370:0000001300000000
#0163b0:00000000000000530000000000000000
#0173b0:0023
#0183b0:13
#018370:00530000000023000000000000000000
#018321:0000001300000000
#018361:00000000000000530000000000002300
#020371:0000000013230000
#023361:1323000000000000
#023321:0000132300000000
#023361:0000000013230000
#023321:0000000000001323
#030351:0013
#030321:0000000000332300
#0303b1:0000000000000013
#031371:0023000000000000
#030360:0000000000000013
#031320:0023000000000000
#0323c0:0000000000001222
#033320:0000000000001222
#034320:0000000000000012
#035320:22
#0353c0:0012220000000000
#035320:0000001222000000
#0353c0:0000000000122200
#039320:00000013
#0403b0:23
#0393b1:00000013
#040321:23
#040321:0000001300000000
#040371:0000000000230000
#0403b0:0000000000130000
#040360:0000000000000023
#0413b0:0013
#041320:00000023
#041321:0013
#0413b1:00000023
#042351:0000000000000013
#043321:0023000000000000
#046321:13333323
#046351:0053005300530000
#046381:0000000000000013
#047331:0033003300000000
#047371:00330000
#047381:0023
#046320:0000000000000013
#047370:0033003300000000
#047330:00330000
#047320:0023
#0483b0:0000001300000000
#048360:0000000000230000
#048321:0000000000130000
#048371:0000000000000023
#049321:0013
#0493b1:00000023
#0493b0:0013
#049320:00000023
#050380:0000000000000013
#0513b0:0023000000000000
#0543b0:13333323
#054380:0053005300530000
#054350:0000000000000013
#055320:0023000000000000
#054381:0000000000000013
#0553b1:0023000000000000
#0573b1:0013
#057321:00000023
#057320:0013
#0573b0:00000023
#061320:0013
#0613b0:00000023
#0613b1:0013
#061321:00000023
#0633b1:0000000000000000000000000000000000000000000000001353535353535353
#0633a1:00000000000000000000000000000000000000000000000000000000000000000000000000000000000000000000000000530053005300530053005300530053
#0643b1:23
#064320:13230000
#064361:0000142400000000
#064320:0000001300000000
#064370:0000000000230000
#0643b0:0000000000000013
#065360:0023000000000000
#064371:0000000000000013
#065321:0023000000000000
#0653b1:0000001300000000
#065381:0000000000230000
#0663b1:13
#066361:00230000
#066370:13
#066320:00230000
#066360:0000001300000000
#0663b0:0000000000230000
#066360:0000000000000014
#067360:0024000000000000
#068360:14240000
#0683a0:0054000000000000
#068321:13230000
#068361:0053000000000000
#070321:0000000000160000
#070351:0000000000000023
#070380:0000000000160023
#005920:0000000000000013
#006960:23
#005971:0000000000000013
#0069b1:23
#0099b1:0000000000000013
#010971:23
#009960:0000000000000013
#010920:23
#021920:0000000000000013
#022960:23
#021971:0000000000000013
#0229b1:23
#036921:1252525200000000
#036931:00520052005200220000000000000000
#065921:0000000000130000
#065951:00000000000000000000000000230000
#066961:0000000000130000
#066931:00000000000000000000000000230000
