This file was generated by Ched 2.7.0.0.
#TITLE ""
#ARTIST ""
#DESIGNER ""
#DIFFICULTY 0
#PLAYLEVEL
#SONGID ""
#WAVE ""
#WAVEOFFSET 0
#JACKET ""
#REQUEST "ticks_per_beat 480"
#00002: 4
#BPM01: 190
#00008: 01
#TIL00: ""
#VOLUME: ""
#HISPEED 00
#MEASUREHS 00
#00414:00140014
#00418:0014
#0051a:14
#00514:00140014
#00518:0014
#0061a:14
#00614:00140000
#00618:0014
#00612:00000014
#00818:00140014
#00814:1414
#00810:41
#00912:14
#00918:00140014
#00914:0014
#01012:14
#01018:00140000
#01014:0014
#0101a:00000014
#02018:00140014
#02014:0014
#02012:54
#02112:14
#02118:00140014
#02114:0014
#02212:14
#02218:00140000
#02214:0014
#0221a:00000014
#02418:14
#02414:00140000
#0241a:0014
#02412:00000014
#02518:14
#02514:00140000
#0251a:0014
#02512:00000014
#0271a:14
#02714:00140000
#02718:0014
#02712:00000014
#02812:0014
#02818:00000014
#0281a:24
#02810:41
#02912:14
#0291a:00140014
#02914:0014
#03012:14
#0301f:11
#03014:00343400
#03118:14
#0311a:00343400
#03214:00140014
#03218:0014
#03318:00140014
#03314:0014
#03414:00140014
#03418:0014
#03518:1414
#03514:00140014
#0361a:14
#03618:00341434
#0371a:14
#03718:00340000
#03812:14
#03814:00341434
#03912:14
#03914:00340000
#04014:00140000
#04018:0014
#04012:00000014
#0401a:24
#0401f:21
#0411a:14
#04114:00140000
#04118:0014
#04110:00410000
#04212:14
#04218:00140000
#04214:0014
#0421a:00000014
#04312:14
#04318:00140000
#0441a:14140000
#04414:00001414
#04518:14140000
#04512:00001414
#0461a:14
#04614:00140000
#04618:0014
#04612:00000014
#04718:14
#04714:00140000
#0471a:0014
#04818:00140000
#04814:0014
#0481a:00000014
#04812:24
#04912:14
#04918:00140000
#04914:0014
#0501a:14
#05014:00140000
#05018:0014
#05012:00000014
#0511a:14
#05114:00140000
#05212:14140000
#05218:00001414
#05314:14140000
#0531a:00001414
#05310:41
#05412:14
#05418:00140000
#05414:0014
#0541a:00000014
#05514:14
#05518:00140000
#05512:0014
#05614:00140000
#05618:0014
#05612:00000014
#0561a:24
#0571a:14
#05714:00140000
#05718:0014
#05812:1414
#05816:00140014
#05912:1414
#05916:00140014
#06018:00140000
#06014:0014
#0601a:00000014
#06012:24
#06112:14
#06118:00140000
#06114:0014
#0621a:1414
#06216:00140014
#06210:41
#0631a:1414
#06316:00140014
#0641a:14
#06518:14
#0661a:14
#06812:14
#06914:14
#00718:00343400
#01114:00343400
#02314:00343400
#01810:41
#01814:5400005400000054
#0121a:5400005400000000
#0131a:0054
#01318:0000000000540000
#01418:5400005400000054
#01518:00540000
#0151a:00005454
#01612:5400005400000000
#01712:0054
#01714:0000000000540000
#01914:00540000
#01912:00005454
#03052:54
#03158:54
#0325a:14
#03554:00000014
#0365a:54
#03658:0024
#0375a:54
#03852:64
#03854:0024
#03952:64
#0405a:14
#04158:0014
#04354:00000014
#0475a:0014
#04954:0014
#05552:0014
#04852:14
#05158:00000014
#05758:0014
#0565a:14
#06154:0014
#06052:14
#0645a:54
#06558:54
#0665a:54
#06852:64
#06954:64
#07054:0000000000000014
#001380:14
#003380:3454545454543400
#003390:00540054005400540054005400000000
#004380:24
#0073a0:14
#007380:00343424
#011320:14
#011340:00343424
#023320:14
#023340:00343424
#026380:14240000
#026340:00001424
#030320:14
#030340:00343424
#031380:14
#0313a0:00343434
#0323a0:24
#0363a0:14
#036380:00343434
#0373a0:34
#037380:00342400
#038320:14
#038340:00343434
#039320:34
#039340:00342400
#043340:00001424
#051380:00001424
#0643a0:14
#065380:34
#0663a0:34
#067380:24
#068320:14
#069340:34
#070320:34
#070330:00340000
#070340:0000000034340024
#0129a0:14
#0139a0:0054
#013980:0000000000540000
#015980:00540000
#0159a0:00005424
#016920:14
#017920:0054
#017940:0000000000540000
#019940:00540000
#019920:0054
#020920:24
