This file was generated by Ched 2.7.0.0.
#TITLE ""
#ARTIST ""
#DESIGNER ""
#DIFFICULTY 0
#PLAYLEVEL
#SONGID ""
#WAVE ""
#WAVEOFFSET 0
#JACKET ""
#REQUEST "ticks_per_beat 480"
#00002: 4
#BPM01: 155
#00008: 01
#TIL00: ""
#VOLUME: ""
#HISPEED 00
#MEASUREHS 00
#0391f:11
#03915:1200000000120000
#03917:00000012
#03919:0000000000000012
#03912:0000000000520000
#00212:00130000230000000013000023000000
#00215:00001300230000130000130023000013
#0021b:23000000001300002300000000130000
#00218:23000013000013002300001300001300
#00412:23000000130000240000000000000000
#00415:00001300001300000000000000000000
#00418:0000000000000000000000000000000013000000000000000000000000000000000000000000000000000000000000000000000000000000000000000000000000000000000000000000000000000000000000000000000000000000000000000064000000000000000000000000000000000000000000000000000000000000
#0041b:23
#0041a:000000000000000000000000000000000000000000000000000000000000000000000000000000000000000000000000000000000000000000000000000000000000000000000000000000000000000000000000000000000000000000000000000000000000000000000000000000000000000000000000000000000000000000000000000000000000000000000000000000000000000000000000000000000000000000000000240000000000000000000000000000000000000000000000000000000000000000000000000000000000000000000000000000000000000000000000000000000000000000000000000000000000000000000000000000000000000000000000000000000000000000000000000000000000000000007474640000000000000000000000000000000000000000000000000000000000000000000000000000000000000000000000000000000000000000000000000000000000000000000000000000000000000000000000000000000000000000000000
#00416:00000000000000000000000000000000000000000000000000000000000000000000000000000000000000000000000000640000000000000000000000000000
#00518:0000000000001212
#00516:00000000000000005400000000120012
#00512:0014000000000000
#0051b:0000000000000000000000000000000000000000000000000000000000000000000000000000000000000000000000000000000000000000000000000000000000620000000000000000000000000000000000000000000000000000000000000000000000000000000000000000000000000000000000000000000000000000
#0051a:0062
#0051c:00000000000000000000000000000000000000000000000000000000000000000062000000000000000000000000000000000000000000000000000000000000
#0061b:0013000000000000
#00618:00000013000000000000000013000000
#00616:0013
#00615:00001300001300000000000000130000
#00614:0000000000130000
#00619:0013
#00617:0000000000130000
#00612:0053
#00818:00001313000000000000000053001300
#00812:29000000001400000000000013000000
#00815:0000000000001313
#0081a:00000000000000140000000000000000
#00816:00000000001400140000000000000000
#0081b:53002323000000000000000000000000
#00918:1300000000000000130013000000000000000000000000530000000000000000
#00914:0000000012000000000000000000000000000000000000000000005300000000
#0091b:13000000130000130000130000000000
#00916:0000000000001200000000000000000000000000000000000053000000000000
#00915:00000000001300000000000000530000
#0091a:0000000000000000000000000000000000000000005300000000000000000000
#00919:00000000000000000000005300000000
#00917:00000053
#00913:0000000000000053
#00912:0000000000000000000000000000000000000000000000000000000000530000
#01018:00001313000000000053000000000000
#0101b:00001313000013000000000000000000
#01016:0000001300002424
#01012:13000000000000001313000000001400
#01015:00000053000000001313000000000000
#0101a:00000014
#01017:13
#00112:13000000001300002400000000000000
#0011b:00000000000000001300000000130000
#00115:13001300000013000000001300000013
#00118:00000013000000130000130000001300
#0011a:24
#0031b:13000000001300000000000000000000
#00312:24000000000000001300000000130000
#00318:13001300000013000000001300000013
#00315:00000013000000130000130000001300
#0031a:0024
#01117:0000000013000000000000000013000000000000000000000000000000000000
#01119:0000231300000000
#01115:00000000000000130000000000000000
#01113:0000000000000000000000000000001300000000000000000000000000000000
#0111a:0024000014001400
#01116:0000130000540054
#01114:00002300000000000000005400000054
#01112:00240054
#01118:00000000000000000054000000540000
#01219:0000001300000000
#01216:0000001300000000
#0121a:24
#01212:5400002400000000
#01210:41
#01315:00002300230000120000000013000000
#01317:0000000000000000000000000000001200000000130000000000000000000000
#01319:0012
#01318:0013130000000000
#0131b:0023230000005300
#01314:0000000000230000
#01312:00000023
#01512:2400000000140000000000000000000000000000001400000000000000000000
#0151a:24242424
#01514:00000064000000000000000000000000540000640000000000000000000000000000006400000000000000000000000054000064000000000000000000000000
#01518:00640000000000000000000000000000006400000000000000000000000000000064000000000000000000000000000000640000000000000000000000000000
#01516:0064000000000000006400000000000000640000000000000064000000000000
#01618:00001400260000000000000026000014
#01615:00000014000000000000000000001400
#01613:00130000
#01614:00000000000014000000001400000000
#01617:00000000000000140000140000000000
#0161a:2413
#01612:00002613
#0171b:1313
#01715:0013001300232300
#01718:0013261300232300
#01712:26132600
#01818:00000012000000001300000013230000
#01816:0000120000140000
#0181b:00000012000000001300000023000000
#01813:00120000
#01815:00000000000000000000000000130013
#01812:00000000000000002400000000000023
#01915:00001200000000000000001300000000
#0191a:00000012000000000000000000000000
#01918:00120024
#01916:00000000001200120000000000130000
#01914:0000001200000013
#01919:00000000000000000013000000000000
#01917:0000000000130000
#01912:00000000000000002300000000000013
#0191b:0023
#02016:0012000000000000
#02018:00000012000000005300000000130000
#02015:00000000000000000000530000130000
#0201a:00000014
#02012:00140053
#02019:25
#02010:41
#0201b:0000005300000000
#02118:13001300000000000012000000230000
#02115:00001300130000000000000000230000
#02112:53000000001300005300000000000000
#0211a:0012
#02116:0000000000000000000000000014000000000000120000000000000000000000
#02114:00000000000000000000001200000000
#0211b:13000013
#02218:0000001300000053
#02215:00000000000000130000000053000000
#02216:0014000000000000
#0221a:00130000
#0221b:0000001300000000
#02213:00130000
#02212:0000000000530000
#0231a:2400000000140000000000000000000000000000001400000000000000000000
#02312:24242424
#02318:00000064000000000000000000000000540000640000000000000000000000000000006400000000000000000000000054000064000000000000000000000000
#02314:00640000000000000000000000000000006400000000000000000000000000000064000000000000000000000000000000640000000000000000000000000000
#02316:0064000000000000006400000000000000640000000000000064000000000000
#02412:24135300
#0241b:00131300
#02417:0000001300120012
#02415:00000000000000000000001200120000
#02413:00000012
#02418:00131300
#0241a:0000000000120012
#02414:00000000000000000000000000000000005300000000000000000000000000000000000000000000000000000000000000000000000000000000000000000000
#02416:0000000000000000005300000000000000000000000000000000000000000000
#02513:0012000000000000
#02515:13000012000000120013000000000000
#02519:00000000001200000000000000000000
#02517:0000121200000000
#02518:13
#02516:0000000000000014
#02512:00000000000000000013000000000000
#0251a:00000052
#02618:00130000001300130000130000000000
#02615:00001300000000000013000000130013
#02612:54000013000000002400000024000000
#02616:0000001300000000
#0261b:00000000000000000000001300001200
#02617:0000000000000013
#02613:0000001200000000
#0261a:24242400
#02812:0000130000000013
#02815:0000001300000000
#02818:0013
#0281b:0000000000130013
#02816:00000014
#02810:41
#0291b:0000000000130000
#02918:000000000000000000000000000000000000000000000000000000000000000000000000000000000000000000000000001300000000000000000000000000000000000000000000000000000000000000000000000000000000000000000000000000000000000000000000000000000000000000000000000000000000000000000000000000000000000000000000000000000000000000000000000000000000000000000000000000000000000000000000000000000000000000000000000000000000000000000000000000000000000000000000000000000000000000000000000000000000000000000000000000000000000000000000000000000000000000000000000000000000000000000000000000000000000000000000130000000000000000000000000000000000000000000000000000000000000000000000000000000000000000000000000000000000000000000000000000000000000000000000000000000000000000000000000000000000000000000000
#02915:000000000000000000000000000000000000000000000000000000000000000000000000000000000000000000000000001300000000000000000000000000000000000000000000000000000000000000000000000000000000000000000000000000000000000000000000000000000000000000000000000000000000000000000000000000000000000000000000000000000000000000000000000000000000000000000000000000000000000000000000000000000000000000000000000000000000000000000000000000000000000000000000000000000000000000000000000000000000000000000000000000000000000000000000000000000000000000000000000000000000000000000000000000000000000000000000000000000000000000000000000000000000000000000000000000000000000000000000000000000000000000000000130000000000000000000000000000000000000000000000000000000000000000000000000000000000000000000000
#02912:0054
#02916:0064000054000000
#0291a:0054
#03318:00000013
#03315:0000000000000013000000000000000000000000000000001300000000000000
#0331b:0013000000000000
#03319:0000000000130000000000000000000000000000000000000000000000000000
#03317:00000013000000000000000000000000
#0331a:24141400
#03316:0000001400140000
#03312:2414
#03418:0000000000131300
#03415:0000000000131300
#0341b:0000000000230000
#03412:00000023
#03416:64
#0351a:14
#03512:1400000000230000
#03515:0000000000131300
#03518:0000000000131300
#03516:24
#0351b:00000023
#03612:14000013
#0361a:14
#0361b:0013
#03616:2413
#03614:0000000000130013
#03619:0000000000130013
#03617:00000013
#03610:41
#0371b:1313
#03716:13
#03713:0012000000000000
#03715:0000000000120000000000001300000000000000130000001300000000000000
#03717:00000012000000000000000000000000
#03719:0000000000000012000000000000000000000000000000000000000000000000
#03712:0000001300001300
#03718:00000000000000001300001300000000
#03815:0013230013000000
#03818:0000000023000000130000000000001300000000000000000000000000000000
#03817:0000000000000013
#03813:00000013
#03816:00000013
#03819:00000000000000000000001300000000
#0381b:00231300
#03812:0023000000000000
#0401b:12
#04019:00121200
#04017:0000001200000000
#04015:00521200
#04012:12
#0401c:00000052
#04319:00620000000000000000000000000000000000000000000000000000000000000000000000000000120000000000000000000000000000000000000000000000
#04313:00620000000000000000000000000000000000000000000000000000000000000000000000000000000000000000000012000000000000000000000000000000
#04317:0000000000000012
#04314:5200000000000012
#0431a:0062000000000000000000000000000000000000005200000000000000000000
#0431b:00000000000000000000005200000000
#04318:52
#04312:0062000000000000000000000000000000000000000000000000000000000000
#04419:0000000000120000
#04417:00000000000000000000001200000000
#04415:22000012
#04418:22
#0441b:22
#04517:00140000
#04515:00000014
#0451b:23
#04518:2300000000000000000000000000000000640000000000000000000000000000
#04512:24
#0451a:0024
#04513:00640000000000000000000000000000000000000000000000000000000000000000000000000000000000000000000000000000000000000000000000000000
#04514:0064000000000000000000000000000000000000000000000000000000000000
#04519:00000000000000000000000000000000000000000000000000000000000000000064000000000000000000000000000000000000000000000000000000000000
#04614:00130000000000002300000000000000
#04616:00001300000000000013000000000000
#04618:00000013000000000000130000000000
#04615:00000000001300000000000023000000
#04617:00000000000013000000000000130000
#04619:00000000000000130000000000001300
#0461a:00000000000000000000001300000000
#0461b:00000000000000000000000000000013
#04612:23
#04613:00230000
#04712:13001300001300000000000013000023
#0471b:00130013000000001300000023000000
#04715:23002300002300130000130023002300
#04718:00230023000000232300230000230000
#04818:1300000000000052
#0481c:00000012
#04816:0000000000000012
#0481b:2300000000000000000000000000000000000000000000000052000000000000
#0481a:00000000000000000000000000520000
#04819:0000000000000000000000000000000000000000000000000000005200000000
#04815:0000000000000000000000000000000000000000000000000000000000520000
#04814:00000000000000000000000000000052
#04813:0000000000000000000000000000000000000000000000000000000000000052
#04916:000000000000000000000000000000000000000000000000000000000000000000000000000000000000000000000000000000000000000000000000000000000000000000000000000000000000000000000000000000000000000000000000000000000000000000000000000000000000000000000000120000000000000000000000000000000000000000000000000000000000000000000000000000000000000000000000000000000000000000000000000000000000000000000000000000000000000000000000000000000000000000000000000000000000000000000000000000000000000000000000000000000000000000000000000000000000000000000000000000000000000000000000000000000000000000000000000000000000000000000000000000000000000000000000000000000000000000000000000000000000000000000000000000000000000000000000000000000000000000000000120000000000000000000000000000000000000000000000000000000000000000000000000000000000000000000000000000000000000000000000000000000000000000000000000000000000000000000000000000000000000000000000000000000000000000000000000000000000000000000000248400000000000000000000000000000000000000000000000000000000000000000000000000000000000000000000000000000000000000000000000000000000000000000000000000000000000000000000000000000000000000000000000000000000000000000000000000000000000000000000000000000000000000000000000000000000000000000000000000000000000000000000000000000000000000000000000000000000000000000000000000000000000000000000000000000000000000000000000000000000000000000000000000000000000000000000000000000000000000000000000000000000000000000000000000000000000000000000000000000000000000000000000000000000000000000000000000000000000000000000000000000000000000000000000000000000000000000000000000000000000000000000000000000000000000000000000000000000000000000000000000000000000000000000000000000000000000000000000000000000000000000000000000000000000000000000000000000000000000000000000000000000000000000000000000000000000000000000000000000000000000000000000000000000000000000000000000000000000000000000000000000000000000000000000000000000000000000000000000000000000000000000000000000000000000000000000000000000000000000000000000000000000000000000000000000000000000000000000000000000000000000000000000000000000000000000000000000000000000000000000000000000000000000000000000000000000000000000000000000000000000000000000000000000000000000000000000000000000000000000000000000000000000000000000000000000000000000000000000000000000000000000000000000000000000000000000000000000000000000000140000000000000000000000000000000000000000000000000000000000000000000000000000000000000000000000000000000000000000000000000000000000000000000000000000000000000000000000000000000000000000000000000000000000000000000000000000000000000000000000000000000000000000000000000000000000000000000000000000000000000000000000000000000000000000000000000000000000000000000000000000000000000000000000000000000000000000000000000000000000000000000000000000000000000000000000000000000000000000000000000000000000000000000000000000000000000000000000000000000000000000000000000000000000000000000000000000000000000000000000000000000000000000000000000000000000000000000000000000000000000000000000000000000000000000000000000000000000000000000000000000000000000000000000000000000000000000000000000000000000000000000000000000000000000000000000000000000000000000000000000000000000000000000000000000000000000000000000000000000000000000000000000000000000000000000000000000000000000000000000140000000000000000000000000000000000000000000000000000000000000000000000000000000000000000000000000000000000000000000000000000000000000000000000000000000000000000000000000000000000000000000000000000000000000000000000000000000000000000000000000000000000000000000000000000000000000000000000000000000000000000000000000000000000000000000000000000000000000000000000000000000000000000000000000000000000000000000000000000000000000000000000000000000000000000000000000000000000000000000000
#04918:1212000000000000
#0491b:1212000000000000
#04913:00000000120000000000000012000000000000000000000000000000000000000000000000000000000000000000000000000000000000000064000000000000
#0491f:21
#04912:5200000054240024
#0491a:0000000054240024
#04914:0000000000000000000000000000000000000000000000000000000000640000
#05017:00140000000000000000000000000000
#05015:0000001400235300
#05012:0000540023530000
#05018:0000000000000000006400000000000000000000000000002300000053000000
#0501b:0000000000000023
#0501a:00245400
#05010:41
#05019:00000000000000000000000000000000006400000000000000000000000000000000000000000000000000000000000000000000000000000000000000000000
#05115:1313000000231300
#05118:00130013000000000000000023001300
#05112:0000250000130016
#05119:00250000
#0511b:5300000000000023
#05219:00001200000000005200001300000000
#05215:00001200000000000013000000130000
#05217:0000000000130000
#05218:00000000001200000000000000001300
#0521b:00000000001200000000000000000013
#05213:00122300
#05216:00125200
#05212:00000023
#05318:0000001300001300
#0531b:0012002300002300
#05319:00000012000000000000000000000000
#05317:00120000
#05312:230000000000000000000000000000000000000000000000000000000000000000000000000000000000000000000000000000000000000000000000000000000000000000000000000000000000000000000000000000000000000000000000000000000000000000000000000000000000000000000000000000000000000000000000000000000000000000000000000000000000000000000000000000000000000000000000000000000000000000000000000000000000000000000000000000000000000000000000000000000000000000000000000000000000000000000000000000000000000000000000230000000000000000000000000000000000000000000000000000000000000000000000000000000000000000000000000000000000000000000000000000000000000000000000000000000000000000000000000000000000000000000000000000000000000000000000000000000000000000000000000000000000000000000000000000000000000000000073
#05315:230000000000000000000000000000000000000000000000000000000000000000000000000000000000000000000000000000000000000000000000000000000000000000000000000000000000000000000000000000000000000000000000000000000000000000000000000000000000000000000000000000000000000000000000000000000000000000000000230000000000000000000000000000000000000000000000000000000000000000000000000000000000000000000000000000000000000000000000000000000000000000000000000000000000000000000000000000000000000000000000000000000000000000000000000000000000000000000000000000000000000000000000000000000000000000000000000000000000000000000000000000000000000000000000000000000000000000000000000000000000000000000000000000000000000000000000000000000000000000000000000000000000000000000000000000000000000000000073
#05415:0000001300001300
#05418:000000000000000000000000000000000000000000000000000000000000000000000000000000000000000000000000000000000000000000000000000000000000000000000000120000000000000000000000000000000000000000000000000000000000000000000000000000000000000000000000000000000000000000000000000000000000000000000000230000000000000000000000000000000000000000000000000000000000000000000000000000000000000000000000000000000000000000000000000000000000000000000000000000000000000000000000000000000000000000000000000000000000000000000000000000000000000000000000000000000000000000000000000000000000000000000000000000000000000000000000000000000000000000000000000000000000000000000000000000000000000000000000000000000000000000000000000000000000000000000000000000000000000000000000000000000000000000000073
#05416:00120000
#05412:0000002300002300
#0541b:000000000000000000000000000000000000000000000000000000000000000000000000000000000000000000000000000000000000000000000000000000000000000000000000000000000000000000000000000000000000000000000000000000000000000000000000000000000000000000000000000000000000000000000000000000000000000000000000000000000000000000000000000000000000000000000000000000000000000000000000000000000000000000000000000000000000000000000000000000000000000000000000000000000000000000000000000000000000000000000000230000000000000000000000000000000000000000000000000000000000000000000000000000000000000000000000000000000000000000000000000000000000000000000000000000000000000000000000000000000000000000000000000000000000000000000000000000000000000000000000000000000000000000000000000000000000000000000073
#05518:00001313000000002300230000000000
#0551b:00000000001300230000000000130023
#05512:00000000002300130000000000230013
#05515:00002323000000000013001300000000
#05615:13000013000013002300002300130000
#0561b:00130000230000000000130000002300
#05618:23001300230000130013002300002300
#05612:00000000001300002300000013000000
#0571a:0014001400001400
#05718:00000013000000000000130000001300
#05715:2300130000130013
#05712:23000000001300001400000013000000
#05716:0054
#05918:13001300001300001300000014000000
#05915:00130013000013001300000000000000
#05919:0000000000150000
#05917:0000000000000013
#05912:53000000130000130000000000002500
#0591b:00130000
#05916:0000000000230000
#05914:00000024
#05812:1300130013000023
#05815:00120000001200120000000023005300
#05817:0012001300000000
#05819:00000013000000000000000000000000
#0581b:1300001223530000
#05818:0000000000235300
#06016:0012000000000000
#06018:00000012000000000023001300230000
#06015:00000000000000001313000000130000
#06012:0000140023000023
#0601a:00140000
#0601b:00000000000000000000002300000000
#06115:5316000000160000
#06112:5300001600002616
#0611b:23
#06118:23000026
#0611a:00240000
#06116:00240000
#06119:0025
#06114:0025
#06215:0016000000000000
#06218:26000000262600260000000000000000
#06212:2600000000000000000000000000000000000000000000000000000000000000260000000000000026000000000000000000000000000000260000000000000000000000000000000000000000000000000000000000000000000000000000000000006300000000000000000000000000000000000000000000000000000000
#06214:0000000000000000000000000000000000000000000000000000000000000000000000000000000000000000000000000000000000000000000000000000000000000000000000000000000000000000000000000000000000000000000000000063000000000000000000000000000000000000000000000000000000000000
#06213:00000000000000000000000000000000000000000000000000000000000000000000000000000000000000000000000000630000000000000000000000000000
#06219:0000000000000000000000000000000000000000000000000000000000000000000000000000000000000000000000000000000000000000000000000000000000000000000000000000000000000000000000000000000000000000000000000063000000000000000000000000000000000000000000000000000000000000
#0621a:00000000000000000000000000000000000000000000000000000000000000000000000000000000000000000000000000630000000000000000000000000000
#0621b:0000000000000000000000000000000000000000000000000000000000000000000000000000000000000000000000000000000000000000000000000000000000000000000000000000000000000000000000000000000000000000000000000000006300000000000000000000000000000000000000000000000000000000
#06216:000000000000000000000000000000000000000000000000000000000000000000000000000000000000000000000000000000000000000000000000000000000000000000000000000000000000000000000000000000000000000000000000000000000000000000000000000000000000000000000000000000000000000000000000000000000000000000000000000000000000000000000000000000000000000000000000000000000000000000000000000000000000000000000000000000000000000000000000000000000000000000000000000000000000000000000000000000000000000000000000000000000000000000000000000000000000000000000000000000000000000000000000000000000000000000000074000000000000000000000000000000000000000000000000000000000000000000000000000000000000000000000000000000000000000000000000000000000000000000000000000000000000000000000000000000000000000000000000
#06318:13131313
#06315:13000000001300130013000000130013
#06312:0013002400130024
#0631a:0024000000240000
#06310:41
#06418:13131313
#06412:00130000000024000000130000002400
#06415:0013130013001300
#0641b:0000001300000013
#0641a:0024000000240000
#06515:1300130013000023
#06518:00130000001300130000000023000000
#06512:00000013000024000000000000000000
#0651b:0000000000230000
#0651a:0024000000000000
#06616:00000000000000001400000000000000000000000000000000000000000000000000000000000000000000000000000000660000000000000000000000000000
#06614:00630000000000000000000000000000000000000000000015000000000000000065000000000000000000000000000000000000000000000000000000000000
#06617:0000000000000000000000000000000000000000000000000000000000000000000000000000000000000000000000000000000000000000000000000000000000000000000000000000000000000000160000000000000000000000000000000066000000000000000000000000000000000000000000000000000000000000
#06612:2300000025000017
#0661a:00240000
#06618:53000000000000000000000000000000006400000000000000000000000000000000000000000000000000000000000026000000000000000000000000000000
#06615:53
#0661b:53
#06613:0063000000000000000000000000000000000000000000000000000000000000000000000000000000000000000000000000000000000000000000000000000000650000000000000000000000000000000000000000000000000000000000000000000000000000000000000000000000000000000000000000000000000000
#06619:0000000000000000000000000000000000000000000000000000000000000000006400000000000000000000000000000000000000000000000000000000000000000000000000000000000000000000000000000000000000000000000000000000000000000000000000000000000000000000000000000000000000000000
#0671a:00141414
#06718:00000000001400000000000000000014
#06712:26141414
#06715:0026002600260026
#06812:14141414
#0681a:14141414
#06814:00000000001400000000000000000014
#06815:0026002600260026
#0691a:14
#06912:14000000000000000014001400000000
#0691b:00131313
#06914:00000000001400000000000000000014
#06913:00000000000000140000000000140000
#06918:00131313
#06915:0026002600260026
#0701b:13
#07018:13000066
#0701a:0024240000000000
#07012:0000000000000000000000000000000024000000000000000000000000000000240000000000000000000000000000000000000000000000000000000000000000000000000000000000000000000000000000000000000000000000000000000000006600000000000000000000000000000000000000000000000000000000
#07016:0000000000000000000000000000000000000000000000000000000000000000000000000000000000000000000000000000000000000000000000000000000000000000000000000000000000000000000000000000000000000000000000000066000000000000000000000000000000000000000000000000000000000000
#07014:00000000000000000000000000000000000000000000000000000000000000000000000000000000000000000000000000660000000000000000000000000000
#07118:130000000000000000000000000000000000000000000000000000000000000000000000000000000000000000000000130000000000000000000000000000000000000000000000000000000000000000000000000000000000000000000000000000000000000000000000000000000000000000000000230000000000000000000000000000000000000000000000000000000000000000000000000000000000000000000000000000000000000000000000000000000000000000000000130000000000000000000000000000000000000000000000000000000000000000000000000000000000000000000000130000000000000000000000000000000000000000000000000000000000000000000000000000000000000000000000000000000000000000000000000000000000000000000000230000000000000000000000000000000000000000000000000000000000000000000000000000000000000000000000000000000000000000000000000000000000000000000073
#07115:00130013001313002300230000130000
#0711b:2323000023230000
#07112:00230023000023000000000000230000
#07318:00000000230000000000230013000023
#0731b:0000000000000063000000000000006300000000000000002300000000001300
#07315:0064000023000000000000002300000023000000000000001300000000002300
#07312:0000006300000000000000630000000000000000000000002300000000001300
#07317:2400000000630000000000000063000000000000000000000000000000000000
#07313:00640000000000000000000000000000
#07319:00000063000000630000000000000000
#07316:0000000000000000006300000000000000000000000000000000000000000000
#07314:00000000006300000000000000000000
#07416:000000000000000000000000000000000000000000000000000000000000000000000000000000000000000000000000000000000000000000000000000000000000000000000000000000000000000000000000000000000000000000000000000000000000000000000000000000000000000000000000000000000000000000000000000000000000000000000000000000000000000000000000000000000000000000000000000000000000000000000000000000000000000000000000000000000000000000000000000000000000141414140000000000000000000000000000000000000000000000000000000000000000000000000000000000000000000000000000000000000000000000000000000000000000000000000000000000000000000000000000000000000000000000000000000000000000000000000000000000000000000000000000000000000000000000000000000000000000000000000000000000000000000000000000000000000000000000000000000000000000000000000000000000000000000000000000000000000000000000000000000000000000000000000000000000000000000000000000000000000000000000000000000000000000000000000000000000000000000000000000000000000000000000000000000000000000000000000000000000000000000000000000000000000000000000000000000000000000000000000000000000000000000000000000000000000000000000000000000000000000000000000000000000000000000000000000000000000000000000000000000000000000000000000000000000000000000000000000000000000000000000000000000000000000000000000000000000000000000000000000000000000000000000000000000000000000000000000000000000000000000000000000000000000000000000000000000000000000000000000000000000000000000000000000000000000000000000000000000000000000000000000000000000000000000000000000000000000000000000000000000000000000000000000000000000000000000000000000000000000000000000000000000000000000000000000000000000000000000000000000000000000000000000000000000000000000000000000000000000000000000000000000000000000000000000000000000000000000000000000000000000000000000000000000000000000000000000000000000000000000000000000000000000000000000000000000000000000000000000000000
#0271a:24140014
#02712:24241524
#02719:0055
#03015:1313
#03012:13531353
#03016:0014001400140014
#03018:00130013
#0301b:00135313
#03113:00140054
#03112:1454
#03118:00141400
#03119:00000014
#0311b:53
#0321a:14
#03215:00145454
#0321b:0000000000000013
#03214:54
#03212:0000005300000053
#03219:0000000000530000
#00719:0013
#0071b:53
#00713:00000052000000000000000000000000
#00715:0000005200005300
#00712:0000000000530000
#00718:0000000000000053
#00717:0052
#04217:00120000
#0421a:00000000000000000012001200120000
#04218:0000000012121200
#04219:52
#04214:00000000000000520000000000000000
#04215:0000005200000000
#04216:00000000005200000000000000000000
#0421b:00520000
#01419:00000012000000000000120000001200
#01417:00000000120000001200001200120000
#01415:00000000000000120000000012000000
#01413:0000001200000000
#0141b:0012000000000000
#07215:0000000029000000000000002600000026000000250000000064000024000000
#07212:6967656300000000296765630000000000000063000000000000006300000000
#07216:00000025
#07217:0000000000670000000000000065000000000000006400000000000000640000
#07219:00000065000000640000006400000064
#0721b:0000000000000063000000000000006300000000000000630000000000000063
#07214:0000000000000000000000000000000000650000000000000000000000000000
#07213:00000000000000000064000000640000
#04119:52
#04113:00520000
#04115:0052
#04117:00000052
#0015a:14
#00152:0014
#00852:39000000003400000000000000000000
#0085a:00000000000000540000000000000000
#00352:14
#0035a:0014
#00452:00000000000000540000000000000000
#00456:00000000000000000000000000000000000000000000000000000000000000000000000000000000000000000000000000540000000000000000000000000000
#00552:0024000000000000
#01052:63
#0105b:0000006300000000
#01056:0000000000003444
#0125a:14
#01252:1400001400000000
#01352:00000053
#01355:00000053
#01458:33
#01455:33
#01554:00000054000000000000000000000000000000540000000000000000000000000000005400000000000000000000000000000054000000000000000000000000
#01552:1400000000240000000000000000000014000000002400000000000000000000
#01652:1436
#0165a:14
#01658:00460046
#01752:3636
#01758:00460053
#01755:00000063
#01852:14005434
#0185a:14
#01856:0000000000240000
#02059:45
#02055:00000000000000000000000000630000
#0235a:1400000000240000000000000000000014000000002400000000000000000000
#02358:00000064000000000000000000000000000000640000000000000000000000000000006400000000000000000000000000000064000000000000000000000000
#02452:14
#0245a:14
#02457:0000002300000000
#02456:0000000000000000005300000000000000000000000000000000000000000000
#02152:00000000006300000000000000000000
#02158:00000000000000000000000000630000
#02155:00000000000000000000000000530000
#02156:0000000000000000000000000024000000000000000000000000000000000000
#0225b:13
#02252:13
#0345a:14
#03452:14000013
#0345b:0000000000130000
#03456:14
#03358:00000053
#03355:00000063
#03552:1400000000130000
#03556:14
#0355a:14
#0355b:00000013
#03652:14
#0365a:14
#03656:14
#03752:00000013
#03756:33
#0375b:33
#04558:1300000000000000000000000000000000640000000000000000000000000000
#0455b:13
#04552:0034
#04557:00240000
#04554:0054000000000000000000000000000000000000000000000000000000000000
#04555:00000024
#0465a:44
#0485b:13
#04956:000000000000000000000000000000000000000000000000000000000000000000000000000000000000000000000000000000000000000000000000000000000000000000000000000000000000000000000000000000000000000000000000000000000000000000000000000000000000000000000000000000000000000000000000000000000000000000000000000000000000000000000000000000000000000000000000000000000000000000000000000000000000000000000000000000000000000000000000000000000000000000000000000000000000000000000000000000000000000000000000000000000000000000000000000000000000000000000000000000000000000000000000000000000000000000000000000000000000000000000000000000000000000000000000000000000000000000000000000000000000000000000000000000000000000000000000000000000000000000000000000000000000000000000000000000000000000000000000000000000000000000000000000000000000000000000000000000000000000000000000000000000000000000000000000000000000000000000000000000000000000000000000000000000000000000000000000000000000000000000000545400000000000000000000000000000000000000000000000000000000000000000000000000000000000000000000000000000000000000000000000000000000000000000000000000000000000000000000000000000000000000000000000000000000000000000000000000000000000000000000000000000000000000000000000000000000000000000000000000000000000000000000000000000000000000000000000000000000000000000000000000000000000000000000000000000000000000000000000000000000000000000000000000000000000000000000000000000000000000000000000000000000000000000000000000000000000000000000000000000000000000000000000000000000000000000000000000000000000000000000000000000000000000000000000000000000000000000000000000000000000000000000000000000000000000000000000000000000000000000000000000000000000000000000000000000000000000000000000000000000000000000000000000000000000000000000000000000000000000000000000000000000000000000000000000000000000000000000000000000000000000000000000000000000000000000000000000000000000000000000000000000000000000000000000000000000000000000000000000000000000000000000000000000000000000000000000000000000000000000000000000000000000000000000000000000000000000000000000000000000000000000000000000000000000000000000000000000000000000000000000000000000000000000000000000000000000000000000000000000000000000000000000000000000000000000000000000000000000000000000000000000000000000000000000000000000000000000000000000000000000000000000000000000000000000000000000000000000000000000000000000000000000000000000000000000000000000000000000000000000000000000000000000000000000000000000000000000000000000000000000000000000000000000000000000000000000000000000000000000000000000000000000000000000000000000000000000000000000000000000000000000000000000000000000000000000000000000000000000000000000000000000000000000000000000000000000000000000000000000000000000000000000000000000000000000000000000000000000000000000000000000000000000000000000000000000000000000000000000000000000000000000000000000000000000000000000000000000000000000000000000000000000000000000000000000000000000000000000000000000000000000000000000000000000000000000000000000000000000000000000000000000000000000000000000000000000000000000000000000000000000000000000000000000000000000000000000000000000000000000000000000000000000000000000000000000000000000000000000000000000000000000000000000000000000000000000000000000000000000000000000000000000000000000000000000000000000000000000000000000000000000000000000000000000000000000000000000000000000000000000000000000000000000000000000000000000000000000000000000000000000000000000000000000000000000000000000000000000000000000000000000000000000000000000000000000000000000000000000000000000000000000000000000000000000000000000000000000000000000000000000000000000000000000000000000000000000000000000000000000000000000000000000000000000000000000000000000000000000000000000000000000000000000000000000000000000000000000000000000000
#0495a:0000000000140044
#04952:0000000000140000
#04954:0000000000000000000000000000000000000000000000000000000000540000
#05057:00240000000000000000000000000000
#05058:0000000000000000005400000000000000000000000000000000000000000000
#05055:0000002400000000
#05159:00450000
#05152:0000350000000016
#05258:00000000005200000000000000000000
#0525b:00000000005200000000000000000000
#05352:33
#05355:33
#0535b:00000053
#05358:00000053
#05452:43000063
#05455:43000063
#0555b:33
#05558:33
#05752:3334
#0575a:0000005400004400
#0615b:43
#06158:43000046
#0615a:00440000
#06156:00440000
#06159:0045
#06154:0045
#06152:00000046
#0605a:00440000
#06052:00340000
#06258:46000000000000560000000000000000
#06252:46000000000000560000000000000000
#06256:00000014
#06654:00530000000000000000000000000000000000000000000025000000000000000055000000000000000000000000000000000000000000000000000000000000
#06656:00000000000000002400000000000000000000000000000000000000000000000000000000000000000000000000000000660000000000000000000000000000
#06652:0000330000003527
#06658:00000000000000000000000000000000005400000000000000000000000000000000000000000000000000000000000000000000000000000000000000000000
#0665a:0044
#06657:0000000000260000
#06758:46
#06752:36
#06755:0016001600160016
#07052:0014540000000000
#0705a:00140000
#07152:00000000000000000000000000530000
#0735b:00000000000000000000000000000053
#07358:00000000000000000000000000000053
#07352:00000000000000000000000000000063
#07355:00000000000000000000000000000063
#07452:0034
#07453:000000000000000000000000000000000000000000000000000000000000000000000000000000000000000000000000000000000000000000000000000000000000000000000000000000000000000000000000000000000000000000000000000000000000000000000000000000000000000000000000000000000000000000000000000000000000000000000000000000000000000000000000000000000000000000000000000000000000000000000000000000000000000000000000000000000000000000000000000000000000000000000000000000000000000000000000000000000000000000000000000000000000000000000000000000000000000000000000000000000000000000000000000000000000000000000000000000000000000000000000000000000000000000000000000000000000000000000000000000000000000000000000000000000000000000000000000000000000000000000000000000000000000000000000000000000000000000000000000000000000000000000000000000000000000000000000000000000000000000000000000000000000000000000000000000000000000000000000000000000000000000000000000000000000000000000000000000000000000000000000000000000000000000000000000000000000000000000000000000000000000000000000000000000000000000000000000000000000000000000000000000000000000000000000000000000000000000000000000000000000000000000000000000000000000000000000000000000000000000000000000000000000000000000000000000000000000000000000000000000000000000000000000000000000000000000000000000000000000000000000000000000000000000000000000000000000000000000000000000000000000000000000000000000000000000000000000000000000000000000000000000000000000000000000000000000000000000000000000000000000000000000000000000000000000000000000000000000000000000000000000000000000000000000000000000000000000000000000000000000000000000000000000000000000000000000000000000000000000000000000000000000000000000000000000000000000000000000000000000000000000000000000000000000000000000000000000000000000000000000000000000000000000000000000000000000000000000000000000000000000000000000000000000000000000000000000000000000000000000000034000000000000000000000000000000000000000000000000000000000000000000000000000000000000000000000000000000000000000000000000000000000000000000000000000000000000000000000000000000000000000000000000000000000000000000000000000000000000000000000000000000000000000000000000000000000000000000000000000000000000000000000000000000000000000000000000000000000000000000000000000000000000000000000000000000000000000000000000000000000000000000000000000000000000000000000000000000000000000000000000000000000000000000000000000000000000000000000000000000000000000000000000000000000000000000000000000000000000000000000000000000000000000000000000000000000000000000000000000000000000000000000000000000000000000000000000000000000000000000000000000000000000000000000000000000000000000000000000000000000000000000000000000000000000000000000000000000000000000000000000000000000000000000000000000000000000000000000000000000000000000000000000000000000000000000000000000000000000000000000000000000000000000000000000000000000000000000000000000000000000000000000000000000000000000000000000000000000000000000000000000000000000000000000000000000000000000000000000000000000000000000000000000000000000000000000000000000000000000000000000000000000000000000000000000000000000000000000000000000000000000000000000000000000000000000000000000000000000000000000000000000000000000000000000000000000000000000000000000000000000000000000000000000000000000000000000000000000000000000000000000000000000000000000000000000000000000000000000000000000000000000000000000000000000000000000000000000000000000000000000000000000000000000000000000000000000000000000000000000000000000000000000000000000000000000000000000000000000000000000000000000000000000000000000000000000000000000000000000000000000000000000000000000000000000000000000000000000000000000000000000000000000000000000000000000000000000000000000000000000000000000000000000000000000000000000000000000000000000000000000
#07459:000000000000000000000000000000000000000000000000000000000000000000000000000000000000000000000000000000000000000000000000000000000000000000000000000000000000000000000000000000000000000000000000000000000000000000000000000000000000000000000000000000000000000000000000000000000000000000000000000000000000000000000000000000000000000000000000000000000000000000000000000000000000000000000000000000000000000000000000000000000000000000000000000000000000000000000000000000000000000000000000000000000000000000000000000000000000000000000000000000000000000000000000000000000000000000000000000000000000000000000000000000000000000000000000000000000000000000000000000000000000000000000000000000000000000000000000000000000000000000000000000000000000000000000000000000000000000000000000000000000000000000000000000000000000000000000000000000000000000000000000000000000000000000000000000000000000000000000000000000000000000000000000000000000000000000000000000000000000000000000000000000000000000000000000000000000000000000000000000000000000000000000000000000000000000000000000000000000000000000000000000000000000000000000000000000000000000000000000000000000000000000000000000000000000000000000000000000000000000000000000000000000000000000000000000000000000000000000000000000000000000000000000000000000000000000000000000000000000000000000000000000000000000000000000000000000000000000000000000000000000000000000000000000000000000000000000000000000000000000000000000000000000000000000000000000000000000000000000000000000000000000000000000000000000000000000000000000000000000000000000000000000000000000000000000000000000000000000000000000000000000000000000000000000000000000000000000000000000000000000000000000000000000000000000000000000000000000000000000000000000000000000000000000000000000000000000000000000000000000000000000000000000000000000000000000000000000000000000000000000000000000000000000000000000000000000000000000000000000000000044000000000000000000000000000000000000000000000000000000000000000000000000000000000000000000000000000000000000000000000000000000000000000000000000000000000000000000000000000000000000000000000000000000000000000000000000000000000000000000000000000000000000000000000000000000000000000000000000000000000000000000000000000000000000000000000000000000000000000000000000000000000000000000000000000000000000000000000000000000000000000000000000000000000000000000000000000000000000000000000000000000000000000000000000000000000000000000000000000000000000000000000000000000000000000000000000000000000000000000000000000000000000000000000000000000000000000000000000000000000000000000000000000000000000000000000000000000000000000000000000000000000000000000000000000000000000000000000000000000000000000000000000000000000000000000000000000000000000000000000000000000000000000000000000000000000000000000000000000000000000000000000000000000000000000000000000000000000000000000000000000000000000000000000000000000000000000000000000000000000000000000000000000000000000000000000000000000000000000000000000000000000000000000000000000000000000000000000000000000000000000000000000000000000000000000000000000000000000000000000000000000000000000000000000000000000000000000000000000000000000000000000000000000000000000000000000000000000000000000000000000000000000000000000000000000000000000000000000000000000000000000000000000000000000000000000000000000000000000000000000000000000000000000000000000000000000000000000000000000000000000000000000000000000000000000000000000000000000000000000000000000000000000000000000000000000000000000000000000000000000000000000000000000000000000000000000000000000000000000000000000000000000000000000000000000000000000000000000000000000000000000000000000000000000000000000000000000000000000000000000000000000000000000000000000000000000000000000000000000000000000000000000000000000000000000000000000000000000000000000000
#0745a:0044
#07456:000000000000000000000000000000000000000000000000000000000000000000000000000000000000000000000000000000000000000000000000000000000000000000000000000000000000000000000000000000000000000000000000000000000000000000000000000000000000000000000000000000000000000000000000000000000000000000000000000000000000000000000000000000000000000000000000000000000000000000000000000000000000000000000000000000000000000000000000000000000000242424240000000000000000000000000000000000000000000000000000000000000000000000000000000000000000000000000000000000000000000000000000000000000000000000000000000000000000000000000000000000000000000000000000000000000000000000000000000000000000000000000000000000000000000000000000000000000000000000000000000000000000000000000000000000000000000000000000000000000000000000000000000000000000000000000000000000000000000000000000000000000000000000000000000000000000000000000000000000000000000000000000000000000000000000000000000000000000000000000000000000000000000000000000000000000000000000000000000000000000000000000000000000000000000000000000000000000000000000000000000000000000000000000000000000000000000000000000000000000000000000000000000000000000000000000000000000000000000000000000000000000000000000000000000000000000000000000000000000000000000000000000000000000000000000000000000000000000000000000000000000000000000000000000000000000000000000000000000000000000000000000000000000000000000000000000000000000000000000000000000000000000000000000000000000000000000000000000000000000000000000000000000000000000000000000000000000000000000000000000000000000000000000000000000000000000000000000000000000000000000000000000000000000000000000000000000000000000000000000000000000000000000000000000000000000000000000000000000000000000000000000000000000000000000000000000000000000000000000000000000000000000000000000000000000000000000000000000000000000000000000000000000000000000000000000000000000000000000000000000
#0275a:14240024
#02752:54245524
#02852:3500000000000063
#02859:45
#0285b:0000000000000053
#02958:000000000000000000000000000000000000000000000000000000000000000000000000000000000000000000000000005300000000000000000000000000000000000000000000000000000000000000000000000000000000000000000000000000000000000000000000000000000000000000000000000000000000000000000000000000000000000000000000000000000000000000000000000000000000000000000000000000000000000000000000000000000000000000000000000000000000000000000000000000000000000000000000000000000000000000000000000000000000000000000000000000000000000000000000000000000000000000000000000000000000000000000000000000000000000000000000000000000000000000000000000000000000000000000000000000000000000000000000000000000000000000000000000000000000000000000000000000000000000000000000000000000000000000000000000000000000000000000000
#02955:000000000000000000000000000000000000000000000000000000000000000000000000000000000000000000000000005300000000000000000000000000000000000000000000000000000000000000000000000000000000000000000000000000000000000000000000000000000000000000000000000000000000000000000000000000000000000000000000000000000000000000000000000000000000000000000000000000000000000000000000000000000000000000000000000000000000000000000000000000000000000000000000000000000000000000000000000000000000000000000000000000000000000000000000000000000000000000000000000000000000000000000000000000000000000000000000000000000000000000000000000000000000000000000000000000000000000000000000000000000000000000000000000000000000000000000000000000000000000000000000000000000000000000000000000000000000000000000000
#03052:5353
#03056:0024002400240024
#0305b:00630063
#03152:54
#03158:00242400
#03159:00000024
#0325a:14
#06452:0000001400000014
#0645a:0014000000140000
#06855:0016001600160016
#06955:0016000000000000
#0115a:0044000000000000
#01152:00340000
#05956:0000000000130000
#05954:00000014
#05952:0000000000000015
#05958:00000014
#05959:0000000000150000
#05957:0000000000000013
#0043a0:000000000000000000000000000000000000000000000000000000000000000000000000000000000000000000000000000000000000000000000000000000000000000000000000000000000000000000000000000000000000000000000000000000000000000000000000000000000000000000000000000000000000000000000000000000000000000000000000000000000000000000000000000000000000000000000000140000000000000000000000000000000000000000000000000000000000000000000000000000000000000000000000000000000000000000000000000000000000000000000000000000000000000000000000000000000000000000000000000000000000000000000000000000000000000000000024000000000000000000000000000000000000000000000000000000000000000000000000000000000000000000000000000000000000000000000000000000000000000000000000000000000000000000000000000000000000000000000000
#004321:00000000000000140000000000000000
#0043a1:000000000000000000000000000000000000000000000000000000000000000000000000000000000000000000000000000000000000000000000000000000000000000000000000000000000000000000000000000000000000000000000000000000000000000000000000000000000000000000000000000000000000000000000000000000000000000000000024000000000000000000000000000000000000000000000000000000000000000000000000000000000000000000000000
#004360:00000000000000000000000000000000000000000000000000000000000000000000000000000000000000000000000000140000000000000000000000000000
#005320:0054000000000000
#005360:0024
#006320:00000000001300002300000000000000
#0063b0:00000000000000000000000000130000
#0073b0:23
#007331:12000022000000000000000000000000
#007350:00000012000022000000000000000000
#007371:0000001222000000
#007320:0000000013230000
#007351:0000000000132300
#007380:0000000000001323
#0073b1:0000000000000013
#0083b1:23
#0083a1:00000000000000140000000000000000
#008381:00000023
#009351:00000000000000130000000000230000
#009320:0000000000000000000000000000130000000000000000000000000000230000
#010320:13
#010350:00003323000000000000000000000000
#0103b0:0000001300000000
#010380:00000000000000003323000000000000
#0133b0:00130023
#013351:00000013
#014381:23
#013322:00000013
#014352:23
#015341:00000014000000000000000000000000240000000000000000000000000000000000000000000000000000000000000000000000000000000000000000000000
#015321:0000000000540000000000000000000000000000000000000000000000000000
#015341:00000000000000000000000000000000000000140000000000000000000000000000000000000000000000000000000000000000000000000000000000000000
#015321:0000000000000000000000000054000024000000000000000000000000000000
#015341:00000000000000000000000000000000000000000000000000000000000000000000001400000000000000000000000024000000000000000000000000000000
#015321:0000000000000000000000000000000000000000005400000000000000000000
#015341:00000000000000000000000000000000000000000000000000000000000000000000000000000000000000000000000000000014000000000000000000000000
#015321:0000000000000000000000000000000000000000000000000000000000540000
#016321:24
#017381:00000013
#0183a1:24
#017352:00000013
#018322:24
#018322:00001424
#018362:0000000000540000
#0203b2:0000132300000000
#020381:0000001323000000
#020352:0000000013230000
#020321:0000000000132300
#020351:00000000000000000000000000130000
#021321:23
#021321:00000000001300002300000000000000
#021361:0000000000000000000000000054000000000000000000000000000000000000
#021381:00000000000000000000000000130000
#0223b1:23
#021352:00000000000000000000000000130000
#022322:23
#022322:0000000013230000
#022351:0000000000132300
#022382:0000000000001323
#0223b1:0000000000000013
#0233a1:24
#023381:00000014000000000000000000000000240000000000000000000000000000000000000000000000000000000000000000000000000000000000000000000000
#0233a1:0000000000540000000000000000000000000000000000000000000000000000
#023381:00000000000000000000000000000000000000140000000000000000000000000000000000000000000000000000000000000000000000000000000000000000
#0233a1:0000000000000000000000000054000024000000000000000000000000000000
#023381:00000000000000000000000000000000000000000000000000000000000000000000001400000000000000000000000024000000000000000000000000000000
#0233a1:0000000000000000000000000000000000000000005400000000000000000000
#023381:00000000000000000000000000000000000000000000000000000000000000000000000000000000000000000000000000000014000000000000000000000000
#0233a1:0000000000000000000000000000000000000000000000000000000000540000
#0243a1:24
#024361:0000000000000000001300000000000000000000000000000000000000000000
#024371:0000005300000000
#024321:0023
#0253a1:0000000000122200
#025322:00000014
#026322:24
#027322:1435
#0273a2:00540054
#028322:25
#027321:00140000
#027391:0025
#027321:00000014
#028391:25
#028321:0000000000000013
#029351:000000000000000000000000000000000000000000000000000000000000000000000000000000000000000000000000005300000000000000000000000000000000000000000000000000000000000000000000000000000000000000000000000000000000000000000000000000000000000000000000000000000000000000000000000000000000000000000000000000000000000000000000000000000000000000000000000000000000000000000000000000000000000000000000000000000000000000000000000000000000000000000000000000000000000000000000000000000000000000000000000000000000000000000000000000000000000000000000000000000000000000000000000000000000000000000000000000000000000000000000000000000000000000000000000000000000000000000000000000000000000000000000000000000000000000000000000000000000000000000000000000000000000000000000000000000000000000000000
#029321:0024
#0283b2:0000000000000013
#029382:000000000000000000000000000000000000000000000000000000000000000000000000000000000000000000000000005300000000000000000000000000000000000000000000000000000000000000000000000000000000000000000000000000000000000000000000000000000000000000000000000000000000000000000000000000000000000000000000000000000000000000000000000000000000000000000000000000000000000000000000000000000000000000000000000000000000000000000000000000000000000000000000000000000000000000000000000000000000000000000000000000000000000000000000000000000000000000000000000000000000000000000000000000000000000000000000000000000000000000000000000000000000000000000000000000000000000000000000000000000000000000000000000000000000000000000000000000000000000000000000000000000000000000000000000000000000000000000000
#0293a2:0024
#029360:0014000024000000
#030322:13230000
#030362:0054000000000000
#0303b0:00132300
#030360:0000005400000000
#030322:00001323
#030362:0000000000540000
#0303b0:00000013
#030360:0000000000000054
#0313b0:23
#031322:1424
#031382:00340000
#031380:0014
#031330:00000024
#031392:00000014
#032342:24
#032322:0000132300000000
#032350:0000001424000000
#032392:0000000013230000
#032350:0000000000142400
#032322:0000000000001323
#033382:00000013
#0343a2:24
#033350:00000013
#034320:24
#039320:1200000000220000
#040350:12220000
#0403c0:00001222
#040392:00000012
#041392:22
#041330:12220000
#041352:00122200
#041370:00001222
#041392:00000012
#042392:22
#0423b0:12220000
#042340:00000000000000120000000000000000
#043340:22
#042382:0000000000000012
#043382:22
#045342:0014000000000000000000000000000000000000000000000000000000000000
#045372:00540000
#045322:0024
#045382:0000000000000000000000000000000000140000000000000000000000000000
#045352:00000054
#0463a2:24
#049362:00140000
#0493a2:0024
#049360:000000000000000000000000000000000000000000000000000000000000000000000000000000000000000000000000000000000000000000000000000000000000000000000000000000000000000000000000000000000000000000000000000000000000000000000000000000000000000000000000000000000000000000000000000000000000000000000000000000000000000000000000000000000000000000000000000000000000000000000000000000000000000000000000000000000000000000000000000000000000000000000000000000000000000000000000000000000000000000000000000000000000000000000000000000000000000000000000000000000000000000000000000000000000000000000000000000000000000000000000000000000000000000000000000000000000000000000000000000000000000000000000000000000000000000000000000000000000000000000000000000000000000000000000000000000000000000000000000000000000000000000000000000000000000000000000000000000000000000000000000000000000000000000000000000000000000000000000000000000000000000000000000000000000000000000000000000000000000000000000001400000000000000000000000000000000000000000000000000000000000000000000000000000000000000000000000000000000000000000000000000000000000000000000000000000000000000000000000000000000000000000000000000000000000000000000000000000000000000000000000000000000000000000000000000000000000000000000000000000000000000000000000000000000000000000000000000000000000000000000000000000000000000000000000000000000000000000000000000000000000000000000000000000000000000000000000000000000000000000000000000000000000000000000000000000000000000000000000000000000000000000000000000000000000000000000000000000000000000000000000000000000000000000000000000000000000000000000000000000000000000000000000000000000000000000000000000000000000000000000000000000000000000000000000000000000000000000000000000000000000000000000000000000000000000000000000000000000000000000000000000000000000000000000000000000000000000000000000000000000000000000000000000000000000000000000000000000000000000000000000000000000000000000000000000000000000000000000000000000000000000000000000000000000000000000000000000000000000000000000000000000000000000000000000000000000000000000000000000000000000000000000000000000000000000000000000000000000000000000000000000000000000000000000000000000000000000000000000000000000000000000000000000000000000000000000000000000000000000000000000000000000000000000000000000000000000000000000000000000000000000000000000000000000000000000000000000000000000000000000000000000000000000000000000000000000000000000000000000000000000000000000000000000000000000000000000000000000000000000000000000000000000000000000000000000000000000000000000000000000000000000000000000000000000000000000000000000000000000000000000000000000000000000000000000000000000000000000000000000000000000000000000000000000000000000000000000000000000000000000000000000000000000000000000000000000000000000000000000000000000000000000000000000000000000000000000000000000000000000000000000000000000000000000000000000000000000000000000000000000000000000000000000000000000000000000000000000000000000000000000000000000000000000000000000000000000000000000000000000000000000000000000000000000000000000000000000000000000000000000000000000000000000000000000000000000000000000000000000000000000000000000000000000000000000000000000000000000000000000000000000000000000000000000000000000000000000000000000000000000000000000000000000000000000000000000000000000000000000000000000000000000000000000000000000000000000000000000000000000000000000000000000000000000000000000000000000000000000000000000000000000000000000000000000000000000000000000000000000000000000000000000000000000000000000000000000000000000000000000000000000000000000000000000000000000000000000000000000000000000000000000000000000000000000000000000000000000000000000000000000000000000000000000000000000000000000000000000000000000000000000000000000000000000000000000000000000000000000000000000
#049320:0024
#049340:0000000000000000000000000000000000000000000000000000000000140000
#050370:00540000000000000000000000000000
#050320:00240000
#050380:0000000000000000001400000000000000000000000000000000000000000000
#050350:0000005400000000
#0503a0:0024
#050322:0000000013230000
#050350:0000000000132300
#050382:0000000000001323
#0503b0:0000000000000013
#0513b0:23
#0523b0:00000000001200000000000000000000
#052390:0022
#052382:00000000001200000000000000000000
#052362:0022
#053322:0000000000130000
#054322:23
#053350:0000000000130000
#054350:23
#053381:00000013
#053321:000000000000000000000000000000000000000000000000000000000000000000000000000000000000000000000000000000000000000000000000000000000000000000000000000000000000000000000000000000000000000000000000000000000000000000000000000000000000000000000000000000000000000000000000000000000000000000000000000000000000000000000000000000000000000000000000000000000000000000000000000000000000000000000000000000000000000000000000000000000000000000000000000000000000000000000000000000000000000000000000000000000000000000000000000000000000000000000000000000000000000000000000000000000000000000000000000000000000000000000000000000000000000000000000000000000000000000000000000000000000000000000000000000000000000000000000000000000000000000000000530000000000000000000000000000000000000000000023
#0533b3:00000013
#053353:000000000000000000000000000000000000000000000000000000000000000000000000000000000000000000000000000000000000000000000000000000000000000000000000000000000000000000000000000000000000000000000000000000000000000000000000000000000000000000000000000000000000000000000000000000000000000000000000000000000000000000000000000000000000000000000000000000000000000000000000000000000000000000000000000000000000000000000000000000000000000000000000000000000000000000000000000000000000000000000000000000000000000000000000000000000000000000000000000000000000000000000000000000000000000000000000000000000000000000000000000000000000000000000000000000000000000000000000000000000000000000000000000000000000000000000000000000000000000000000000530000000000000000000000000000000000000000000023
#0543b0:0000000000130000
#0553b0:23
#054382:0000000000130000
#055382:23
#054353:00000013
#0543b3:000000000000000000000000000000000000000000000000000000000000000000000000000000000000000000000000000000000000000000000000000000000000000000000000000000000000000000000000000000000000000000000000000000000000000000000000000000000000000000000000000000000000000000000000000000000000000000000000000000000000000000000000000000000000000000000000000000000000000000000000000000000000000000000000000000000000000000000000000000000000000000000000000000000000000000000000000000000000000000000000000000000000000000000000000000000000000000000000000000000000000000000000000000000000000000000000000000000000000000000000000000000000000000000000000000000000000000000000000000000000000000000000000000000000000000000000000000000000000000000000530000000000000000000000000000000000000000000023
#054321:00000013
#054381:000000000000000000000000000000000000000000000000000000000000000000000000000000000000000000000000000000000000000000000000000000000000000000000000000000000000000000000000000000000000000000000000000000000000000000000000000000000000000000000000000000000000000000000000000000000000000000000000000000000000000000000000000000000000000000000000000000000000000000000000000000000000000000000000000000000000000000000000000000000000000000000000000000000000000000000000000000000000000000000000000000000000000000000000000000000000000000000000000000000000000000000000000000000000000000000000000000000000000000000000000000000000000000000000000000000000000000000000000000000000000000000000000000000000000000000000000000000000000000000000530000000000000000000000000000000000000000000023
#0573a2:0000001400000000
#057362:0024
#0583b2:0000000013230000
#058380:0000000000132300
#058352:0000000000001323
#058320:0000000000000013
#059320:23
#060320:0000000000000013
#061320:23
#060352:0000000000000013
#061352:23
#062382:00000000000000160000000000000000
#062362:00000024
#062320:00000000000000160000000000000000
#062360:000000000000000000000000000000000000000000000000000000000000000000000000000000000000000000000000000000000000000000000000000000000000000000000000000000000000000000000000000000000000000000000000000000000000000000000000000000000000000000000000000000000000000000000000000000000000000000000000000000000000000000000000000000000000000000000000000000000000000000000000000000000000000000000000000000000000000000000000000000000000000000000000000000000000000000000000000000000000000000000000000000000000000000000000000000000000000000000000000000000000000000000000000000000000000000000024000000000000000000000000000000000000000000000000000000000000000000000000000000000000000000000000000000000000000000000000000000000000000000000000000000000000000000000000000000000000000000000000
#0653b2:0000000000130000
#0663b2:23
#065380:00000013
#066380:23
#065351:0000000000000013
#066351:23
#066340:00130000000000000000000000000000000000000000000000000000000000000000000000000000000000000000000000000000000000000000000000000000
#066360:0054000000000000
#066320:00230000
#066380:00000000000000000000000000000000001400000000000000000000000000000000000000000000000000000000000000000000000000000000000000000000
#066340:0000005500000000
#0663a0:0024
#066340:00000000000000000000000000000000000000000000000000000000000000000015000000000000000000000000000000000000000000000000000000000000
#066370:0000000000560000
#066320:00000025
#066360:00000000000000000000000000000000000000000000000000000000000000000000000000000000000000000000000000160000000000000000000000000000
#066320:0000000000000057
#067380:26
#070320:00140000
#070380:00000026
#071320:00000000000000000000000000130000
#071380:000000000000000000000000000000000000000000000000000000000000000000000000000000000000000000000000000000000000000000000000000000000000000000000000000000000000000000000000000000000000000000000000000000000000000000000000000000000000000000000000000000000000000000000000000000000000000000000000000000000000000000000000000000000000000000000000000000000000000000000000000000000000000000000000000000000000000000000000000000000000000000000000000000000000000000000000000000000000000000000000000000000000000000000000000000000000000000000000000000000000000000000000000000000000000000000000000000000000000000000000000000000000000000000000000000000000000000000000000000000000000000000000000000000000000000000000000000000000000000000000000000000000000000000000000000000000000000000023
#0733b0:00000000000000000000000013000033
#074360:000000000000000000000000000000000000000000000000000000000000000000000000000000000000000000000000000000000000000000000000000000000000000000000000000000000000000000000000000000000000000000000000000000000000000000000000000000000000000000000000000000000000000000000000000000000000000000000000000000000000000000000000000000000000000000000000000000000000000000000000000000000000000000000000000000000000000000000000000000000000005400000000000000000000000000000000000000000000000000000000000000000000000000000000000000000000000000000000000000000000000000000000000000000000000000000000000000000000000000000000000000000000000000000000000000000000000000000000000000000000000000000000000000000000000000000000000000000000000000000000000000000000000000000000000000000000000000000000000000000000000000000000000000000000000000000000000000000000000000000000000000000000000000000000000000000000000000000000000000000000000000000000000000000000000000000000000000000000000000000000000000000000000000000000000000000000000000000000000000000000000000000000000000000000000000000000000000000000000000000000000000000000000000000000000000000000000000000000000000000000000000000000000000000000000000000000000000000000000000000000000000000000000000000000000000000000000000000000000000000000000000000000000000000000000000000000000000000000000000000000000000000000000000000000000000000000000000000000000000000000000000000000000000000000000000000000000000000000000000000000000000000000000000000000000000000000000000000000000000000000000000000000000000000000000000000000000000000000000000000000000000000000000000000000000000000000000000000000000000000000000000000000000000000000000000000000000000000000000000000000000000000000000000000000000000000000000000000000000000000000000000000000000000000000000000000000000000000000000000000000000000000000000000000000000000000000000000000000000000000000000000000000000000000000000000000000000000000000000000000000
#0743a0:0024
#073321:00000000000000000000000013000033
#074361:0000000000000000000000000000000000000000000000000000000000000000000000000000000000000000000000000000000000000000000000000000000000000000000000540000000000000000000000000000000000000000000000000000000000000000000000000000000000000000000000000000000000000000000000000000000000000000000000000000000000000000000000000000000000000000000000000000000000000000000000000000000000000000000000000000000000000000000000000000000000000000000000000000000000000000000000000000000000000000000000000000000000000000000000000000000000000000000000000000000000000000000000000000000000000000000000000000000000000000000000000000000000000000000000000000000000000000
#074321:0024
#073382:00000000000000000000000000000013
#074362:0000000000000054000000000000000000000000000000000000000000000000
#074392:000000000000000000000000000000000000000000000000000000000000000000000000000000000000000000000000000000000000000000000000000000000000000000000000000000000000000000000000000000000000000000000000000000000000000000000000000000000000000000000000000000000000000000000000000000000000000000000000000000000000000000000000000000000000000000000000000000000000000000000000000000000000000000000000000000000000000000000000000000000000000000000000000000000000000000000000000000000000000000000000000000000000000000000000000000000000000000000000000000000000000000000000000000000000000000000000000000000000000000000000000000000000000000000000000000000000000000000000000000000000000000000000000000000000000000000000000000000000000000000000000000000000000000000000000000000000000000000000000000000000000000000000000000000000000000000000000000000000000000000000000000000000000000000000000000000000000000000000000000000000000000000000000000000000000000000000000000000000000000000000000000000000000000000000000000000000000000000000000000000000000000000000000000000000000000000000000000000000000000000000000000000000000000000000000000000000000000000000000000000000000000000000000000000000000000000000000000000000000000000000000000000000000000000000000000000000000000000000000000000000000000000000000000000000000000000000000000000000000000000000000000000000000000000000000000000000000000000000000000000000000000000000000000000000000000000000000000000000000000000000000000000000000000000000000000000000000000000000000000000000000000000000000000000000000000000000000000000000000000000000000000000000000000000000000000000000000000000000000000000000000000000000000000000000000000000000000000000000000000000000000000000000000000000000000000000000000000000000000000000000000000000000000000000000000000000000000000000000000000000000000000000000000000000000000000000000000000000000000000000000000000000000000000000000000000000000000000000000000000000024000000000000000000000000000000000000000000000000000000000000000000000000000000000000000000000000000000000000000000000000000000000000000000000000000000000000000000000000000000000000000000000000000000000000000000000000000000000000000000000000000000000000000000000000000000000000000000000000000000000000000000000000000000000000000000000000000000000000000000000000000000000000000000000000000000000000000000000000000000000000000000000000000000000000000000000000000000000000000000000000000000000000000000000000000000000000000000000000000000000000000000000000000000000000000000000000000000000000000000000000000000000000000000000000000000000000000000000000000000000000000000000000000000000000000000000000000000000000000000000000000000000000000000000000000000000000000000000000000000000000000000000000000000000000000000000000000000000000000000000000000000000000000000000000000000000000000000000000000000000000000000000000000000000000000000000000000000000000000000000000000000000000000000000000000000000000000000000000000000000000000000000000000000000000000000000000000000000000000000000000000000000000000000000000000000000000000000000000000000000000000000000000000000000000000000000000000000000000000000000000000000000000000000000000000000000000000000000000000000000000000000000000000000000000000000000000000000000000000000000000000000000000000000000000000000000000000000000000000000000000000000000000000000000000000000000000000000000000000000000000000000000000000000000000000000000000000000000000000000000000000000000000000000000000000000000000000000000000000000000000000000000000000000000000000000000000000000000000000000000000000000000000000000000000000000000000000000000000000000000000000000000000000000000000000000000000000000000000000000000000000000000000000000000000000000000000000000000000000000000000000000000000000000000000000000000000000000000000000000000000000000000000000000000000000000000000000000000000000000000000
#073353:00000000000000000000000000000013
#074363:000000000000000000000000000000000000000000000000000000000000000000000000000000000000000000000000000000000054000000000000000000000000000000000000000000000000000000000000000000000000000000000000000000000000000000000000000000000000000000000000000000000000000000000000000000000000000000000000000000000000000000000000000000000000000000000000000000000000000000000000000000000000000000000000000000000000000000000000000000000000000000000000000000000000000000000000000000000000000000000000
#074333:000000000000000000000000000000000000000000000000000000000000000000000000000000000000000000000000000000000000000000000000000000000000000000000000000000000000000000000000000000000000000000000000000000000000000000000000000000000000000000000000000000000000000000000000000000000000000000000000000000000000000000000000000000000000000000000000000000000000000000000000000000000000000000000000000000000000000000000000000000000000000000000000000000000000000000000000000000000000000000000000000000000000000000000000000000000000000000000000000000000000000000000000000000000000000000000000000000000000000000000000000000000000000000000000000000000000000000000000000000000000000000000000000000000000000000000000000000000000000000000000000000000000000000000000000000000000000000000000000000000000000000000000000000000000000000000000000000000000000000000000000000000000000000000000000000000000000000000000000000000000000000000000000000000000000000000000000000000000000000000000000000000000000000000000000000000000000000000000000000000000000000000000000000000000000000000000000000000000000000000000000000000000000000000000000000000000000000000000000000000000000000000000000000000000000000000000000000000000000000000000000000000000000000000000000000000000000000000000000000000000000000000000000000000000000000000000000000000000000000000000000000000000000000000000000000000000000000000000000000000000000000000000000000000000000000000000000000000000000000000000000000000000000000000000000000000000000000000000000000000000000000000000000000000000000000000000000000000000000000000000000000000000000000000000000000000000000000000000000000000000000000000000000000000000000000000000000000000000000000000000000000000000000000000000000000000000000000000000000000000000000000000000000000000000000000000000000000000000000000000000000000000000000000000000000000000000000000000000000000000000000000000000000000000000000000000000000000000000000000000024000000000000000000000000000000000000000000000000000000000000000000000000000000000000000000000000000000000000000000000000000000000000000000000000000000000000000000000000000000000000000000000000000000000000000000000000000000000000000000000000000000000000000000000000000000000000000000000000000000000000000000000000000000000000000000000000000000000000000000000000000000000000000000000000000000000000000000000000000000000000000000000000000000000000000000000000000000000000000000000000000000000000000000000000000000000000000000000000000000000000000000000000000000000000000000000000000000000000000000000000000000000000000000000000000000000000000000000000000000000000000000000000000000000000000000000000000000000000000000000000000000000000000000000000000000000000000000000000000000000000000000000000000000000000000000000000000000000000000000000000000000000000000000000000000000000000000000000000000000000000000000000000000000000000000000000000000000000000000000000000000000000000000000000000000000000000000000000000000000000000000000000000000000000000000000000000000000000000000000000000000000000000000000000000000000000000000000000000000000000000000000000000000000000000000000000000000000000000000000000000000000000000000000000000000000000000000000000000000000000000000000000000000000000000000000000000000000000000000000000000000000000000000000000000000000000000000000000000000000000000000000000000000000000000000000000000000000000000000000000000000000000000000000000000000000000000000000000000000000000000000000000000000000000000000000000000000000000000000000000000000000000000000000000000000000000000000000000000000000000000000000000000000000000000000000000000000000000000000000000000000000000000000000000000000000000000000000000000000000000000000000000000000000000000000000000000000000000000000000000000000000000000000000000000000000000000000000000000000000000000000000000000000000000000000000000000000000000000000000000000
#0119a0:0014
#011920:00000024
#0119a1:00000014
#012921:24
#0159a1:14
#015941:00000024000000000000000000000000000000000000000000000000000000000000000000000000000000000000000000000000000000000000000000000000
#0159a1:00140000
#015941:00000000000000000000000000000000000000240000000000000000000000000000000000000000000000000000000000000000000000000000000000000000
#0159a1:0014
#015941:00000000000000000000000000000000000000000000000000000000000000000000002400000000000000000000000000000000000000000000000000000000
#0159a1:00000014
#015941:00000000000000000000000000000000000000000000000000000000000000000000000000000000000000000000000000000024000000000000000000000000
#023921:14
#023981:00000024000000000000000000000000000000000000000000000000000000000000000000000000000000000000000000000000000000000000000000000000
#023921:00140000
#023981:00000000000000000000000000000000000000240000000000000000000000000000000000000000000000000000000000000000000000000000000000000000
#023921:0014
#023981:00000000000000000000000000000000000000000000000000000000000000000000002400000000000000000000000000000000000000000000000000000000
#023921:00000014
#023981:00000000000000000000000000000000000000000000000000000000000000000000000000000000000000000000000000000024000000000000000000000000
#042971:00120000
#042941:00000000000000220000000000000000
#043991:0000000000120000
#0439b1:00000000000000000000002200000000
#0489c1:00000012
#048981:0000000000000022
#048960:0000000000000012
#049920:22
#072920:1900002300000000000000000000000000000000000000000000000000000000
#072950:0019000000000000
#0729b0:0000000000000023000000000000000000000000000000000000000000000000
#072920:0000000000000000190000230000000000000000000000000000000000000000
#072950:0000001600000000
#0729b0:0000000000000000000000000000002300000000000000000000000000000000
#072950:0016
#072920:0000000000000000000000000000000000000023000000000000000000000000
#072950:0000000000150000
#0729b0:0000000000000000000000000000000000000000000000230000000000000000
#072960:00000015
#072920:0000000000000000000000000000000000000000000000000000002300000000
#072950:0000000000000014
#0729b0:0000000000000000000000000000000000000000000000000000000000000023
#073970:14
#073920:0000002300000000000000000000000000000000000000000000000000000000
#073950:0013000000000000
#0739b0:0000000000000023000000000000000000000000000000000000000000000000
#073980:00130000
#073920:0000000000000000000000230000000000000000000000000000000000000000
#073950:0000001300000000
#0739b0:0000000000000000000000000000002300000000000000000000000000000000
