This file was generated by Ched 2.7.0.0.
#TITLE ""
#ARTIST ""
#DESIGNER ""
#DIFFICULTY 0
#PLAYLEVEL
#SONGID ""
#WAVE ""
#WAVEOFFSET 0
#JACKET ""
#REQUEST "ticks_per_beat 480"
#00002: 4
#BPM01: 155
#00008: 01
#TIL00: ""
#VOLUME: ""
#HISPEED 00
#MEASUREHS 00
#00214:14
#00318:14
#00412:14
#0011a:14
#0051a:14
#00612:14
#00712:14
#00818:14
#00918:14
#01014:14
#01114:14
#0121a:14
#01210:41
#02118:14
#02212:14
#0231a:14
#02414:14
#02518:14
#02612:14
#0271a:14
#02812:14
#0281a:14
#02810:41
#02912:14
#03018:14
#03114:14
#0321a:14
#03314:14
#03818:14
#0431a:14
#04312:14
#0441a:14
#04412:14
#04518:14
#04514:0014
#04918:0016
#04912:26
#0491f:21
#05012:16
#05018:0016
#05010:41
#05312:1616
#05418:1616
#05512:16
#05518:0016
#05712:0016
#05718:26
#05818:16
#05812:0016
#06118:16
#06112:0016
#06218:16
#06212:0016
#06718:16
#06712:0016
#06818:16
#06812:0016
#06918:16
#0391f:11
#07118:26
#07315:00000026
#02010:41
#03610:41
#06310:41
#07158:56
#0133a0:14
#0143a0:24
#015340:14
#016340:24
#017380:14
#018380:24
#019320:14
#020320:24
#034380:14
#035380:24
#036340:14
#037340:24
#039320:14
#040330:34
#041340:34
#042350:24
#046380:14
#0483a0:24
#051320:1626
#052380:1626
#056320:1626
#059380:1626
#060320:1626
#063380:1626
#064320:1626
#065380:1626
#066320:1626
#069320:0016
#070320:26
#071380:16
#073350:26
#073350:00000000000000000000000016000036
#074350:0000002600000000
