This file was generated by Ched 2.7.0.0.
#TITLE ""
#ARTIST ""
#DESIGNER ""
#DIFFICULTY 0
#PLAYLEVEL
#SONGID ""
#WAVE ""
#WAVEOFFSET 0
#JACKET ""
#REQUEST "ticks_per_beat 480"
#00002: 4
#BPM01: 155
#00008: 01
#TIL00: ""
#VOLUME: ""
#HISPEED 00
#MEASUREHS 00
#00118:00001300000000000000001300130013
#00115:00000013001300130000130000000000
#0011b:2323
#00112:2323
#00215:0013000000000000
#00218:0000001300000000
#00212:23232300
#0021b:23232300
#00418:00001300001300000000000000001300
#00415:00000000130000000000000013000013
#00412:2300000000130000
#0041b:2300000000130000
#0061b:1313
#00615:00001300000000000000000000130000
#00618:00000013000000000000000013000000
#00612:00000000001300000000130000000000
#00617:0000000000130000
#00718:0000001300000014
#00712:0014
#0071b:0013
#00714:0000000000140000
#00716:00000014
#00812:13000000000000130000000000000000
#0081b:00000013000000000000000013000000
#00815:00000000001300000000000000000000
#00818:00000000000000130000000000001300
#00816:0000000000000000000000000000000000000013000000000000000000000000
#0081a:14
#00915:13130000
#00912:00001300000000130000000000000000
#00918:00000000001300000000000000000000
#0091b:00000000000000130000000000000000
#01015:0013000000000000
#0101b:00000013000000000000000013000000
#01012:0000000013000013
#01018:00000000000000000013000000000000
#01017:0000000000000013
#01016:00000013
#01112:0013
#01115:00000013
#01118:00000013
#0111b:0023230013000000
#01116:0023230000000000
#01218:00001300000000130000000000000000
#01215:00131300
#0121b:00000000000000000000001300130000
#01212:00000013
#01210:41
#01318:13130000
#0131b:0013000000000000
#01315:00130000
#01312:0013000000001300
#01417:0013000000000000
#0141b:00000000130000130000000000130000
#01415:0013
#01412:00001300000000000000000000130000
#01418:0000000000130000
#01416:00130000
#01615:00131300
#0161b:13000000000000130000000000000000
#01618:00001300000000000000130000130000
#01612:13000000000000000000001300000000
#01719:0013000000000000
#01717:00130000
#01714:0013000000000000
#01712:00130000
#01716:0000001300000000
#0171b:0000001300000023
#01715:0000000000230000
#01718:00000023
#01812:13000000000013000000130000000013
#01818:00130000000000130000000000001300
#0181b:00000013000000000000000013000000
#01815:00000000130000000000000000130000
#0191b:0013001300001300
#01915:00000013000000001300001300000013
#01918:00000000130000130000130000001300
#01912:00000000001300000013000000130000
#0201b:13000000000000001300000000130000
#02015:00001300000000000000001300000000
#02018:0000130000130000
#02012:0013
#02010:41
#02517:0000001300001300
#02514:0013000000000000
#02516:00130000
#02519:0013000000000000
#0251b:00130000
#02512:0000001300001300
#0261b:13
#02617:00130013
#02616:1313
#02712:0013000013000000
#02716:1300000000130000
#02717:0000001300001300
#0271b:0000130000000013
#0281b:00130013
#02818:0000001300130000
#02815:0013
#02817:0000000000000013
#02812:1300130000000013
#02810:41
#0291b:0013000000000000
#02916:0000000000130000
#02918:00000013
#02915:0000000000000013
#02917:0000001300000000
#03012:13000013
#03016:00130000
#0301b:00131300
#03017:13000013
#03116:1313
#03117:0000130000000013
#0311b:00000000000000330000000013000000
#03112:00000033000000000000130000001300
#03212:0013
#03215:0000000000130000
#03218:00000013
#03216:00130000
#03316:0013000000000000
#03314:00130000
#03312:0000001300000000
#03318:00000013
#03317:0000001300000000
#03315:00000013
#03415:0013000013000000
#0341b:00000013000000000000130000000000
#03412:00000000001300000000130000000000
#03418:0000001300000000
#03512:13000013000000000000130000000000
#03518:0013000013000000
#0351b:13000000001300000000130000000000
#03515:0000001300000000
#0361b:13000013000000000000000013000000
#03615:0013000013000013
#03612:13000000001300000000000013000000
#03618:0000001300130000
#03610:41
#0371b:13
#03712:13
#03718:0013
#03715:0013
#03818:00000000000000001300001300001300
#03815:00000000000000000013000013000000
#0381a:0024240000000000
#03812:0024240000000000
#04218:0013130000000000
#04215:00000013000000000000000000000000
#0421b:0000000000130000
#04315:1300130000000013
#04318:00001300001300000000130000000000
#0431b:00000000000000130000000013000000
#04312:00000000000000130000000013000000
#04518:00001300001300130000001300000000
#04515:00000013000000000000130000130013
#04512:23000000001300002300000000000000
#0451b:23000000000000002300000000130000
#04618:0013000000130000
#04615:00000000000013000000001300000000
#0461b:23232300
#04612:23232300
#0471b:13000013
#04712:00130000000000000000000000000013
#04718:00001300001300001300000000001300
#04715:00000013000000130000130000130000
#0481b:13
#04812:00130000
#04815:0013
#04818:00000013
#04918:00001300001300000000130000001300
#04915:00000013000013000000000013000000
#0491b:2313
#04912:23
#0491f:21
#05015:00001300001300000000000000001300
#05018:00000013000013002300000000000000
#05012:2313
#05013:0000000000130000
#05014:00000013
#0501b:2300000000000023
#05019:0000000000230000
#0501a:00000023
#05010:41
#05117:0013000013000000
#0511b:0000130000000013
#05115:0000000000130000
#05118:00000013
#05112:00001300000000330000000000000000
#05116:0000130000000013
#05215:0013130000000000
#05218:00000013000000000000000000000000
#05212:0000000000130000
#06112:0000001300001300
#06118:1313
#06115:0000000000130013
#06218:13000000001300130000000000001300
#0621b:0013000000002300
#06215:00000000130000130000000000000000
#06315:1300001300000013
#06318:00001300000000130000000000000000
#0631b:00130000
#06312:00130023
#06310:41
#06516:0000000000130000
#06519:00000013
#06517:0000000000000013
#06515:1300001300000000
#06518:00001300000000130000000000000000
#0651b:0000130000130000
#06512:0000130000000013
#06618:00001300000000130000000000000000
#0661b:0000000000000000130000000000000000000013000000000000000013000000
#06615:1300001300000000
#06612:00000000000000000013000000001300
#06715:13000000000000130000000000000000
#06718:0013001300001300
#0671b:0000130000000013
#06712:0000000000000000130000000000000000000013000000000000000013000000
#00315:00001300000000000000001300130013
#00318:00000013001300130000130000000000
#00312:2323
#0031b:2323
#0051b:00130013
#00512:00000000130000000000000000130000
#00518:0000000000000013
#00515:00000000000000000000000000000013
#02115:13130000
#02112:0013000000000000
#02118:00130000
#0211b:0013000000001300
#02216:0013000000000000
#02212:00000000130000130000000000130000
#02218:0013
#0221b:00001300000000000000000000130000
#02215:0000000000130000
#02217:00130000
#0241b:13000000000000000000001300000000
#02415:00001300000000000000130000130000
#02418:00131300
#02412:00000000000000130000000000000000
#0231b:0013
#02312:00130013
#02315:00001300000000130000130000000013
#02318:00000013000013000000001300001300
#04418:1300130000000013
#04415:00001300001300000000130000000000
#04412:00000000000000130000000013000000
#0441b:00000000000000130000000013000000
#05318:1300130000000013
#05315:00001300001300000000130000000000
#05312:00000000000000130000000013000000
#0531b:00000000000000130000000013000000
#05515:00001300001300130000001300000000
#05518:00000013000000000000130000130013
#0551b:23000000001300002300000000000000
#05512:23000000000000002300000000130000
#05615:0013000000130000
#05618:00000000000013000000001300000000
#05612:23232300
#0561b:23232300
#05415:1300130000000013
#05418:00001300001300000000130000000000
#0541b:00000000000000130000000013000000
#05412:00000000000000130000000013000000
#05715:00001300001300000000130000001300
#05718:00000013000013000000000013000000
#05712:2313
#05818:00001300001300000000000000001300
#05815:00000013000013002300000000000000
#0581b:2313
#0581a:0000000000130000
#05819:00000013
#05812:2300000000000023
#05814:0000000000230000
#05813:00000023
#05916:0013000013000000
#05912:0000130000000013
#05918:0000000000130000
#05915:00000013
#0591b:00001300000000330000000000000000
#05917:0000130000000013
#06018:0013130000000000
#06015:00000013000000000000000000001300
#06012:00000013
#06418:1300001300000013
#06415:00001300000000130000000000000000
#06412:00130000
#0641b:00130023
#06818:13000000000000130000000000000000
#06815:0013001300001300
#06812:0000130000000013
#0681b:0000000000000000130000000000000000000013000000000000000013000000
#06915:13000000000000130000000000000000
#06918:0013001300000000
#0691b:00130000
#06912:00130000
#0701b:13
#07018:0023000024000000
#07015:00230000
#0701a:0000002400000000
#07016:0000000000240000
#07014:00000024
#07012:0000000000000024
#07117:00000000000000000000000000000014
#0731b:13535300
#07312:0013
#07315:00000000000000000000130000000023
#07318:0000005300530000000000530053000000000000000000002300000000001300
#0731a:0053000000000053005300000000005300000000000000000000000000000000
#07319:00530053005300530000000000000000
#07317:0053005300000000
#03918:13
#03915:13
#03912:0013
#0391b:0013
#0391f:11
#04018:13
#0401b:0013
#04012:0013
#04115:1313
#04112:00130000
#04118:0000000000001313
#0151b:00130000
#01518:0013
#01515:00000013
#0025b:00000000000000000000001300000000
#00252:00000000000000000000001300000000
#0045b:00000000000000130000000000000000
#00452:00000000000000130000000000000000
#00455:00000000530000000000000000000053
#00458:00000000005300000000000000005300
#0055b:00230000
#00552:00230000
#00658:00000013000000000000000000000000
#00652:00000000005300000000000000000000
#00655:00000000000000000000000000530000
#00852:53000000000000530000000000000000
#0085b:00000013000000000000000000000000
#00858:00000000000000130000000000000000
#00855:00000000001300000000000000000000
#00856:0000000000000000000000000000000000000023000000000000000000000000
#00952:00000000000000530000000000000000
#0095b:00000000000000530000000000000000
#00955:00000013
#00958:00000013
#0115b:00135300
#01156:00130000
#01158:00000053
#01155:00000053
#0125b:13
#01252:13000023
#01255:00135300
#01358:00530000
#0135b:00000013
#01352:00000013
#01452:00000000000000000000000000530000
#0145b:00000000000000000000000000530000
#01655:00130000
#01652:13000000000000000000005300000000
#01658:00000000000000000000000000530000
#01757:00530000
#01752:00530000
#01756:0000002300000000
#0175b:0000002300000000
#01858:00000000000000530000000000000000
#01852:00000000000000000000000000000013
#02058:00130000
#0205b:00000000000000000000000000530000
#0225b:00000000000000000000000000630000
#02252:00000000000000000000000000630000
#02155:00630000
#0215b:00000013
#02152:00000013
#0245b:13000000000000000000006300000000
#02458:00130000
#02455:00000000000000000000000000630000
#02358:13
#02355:13
#0235b:0013
#02352:00130013
#02556:00630000
#0255b:00630000
#02557:0000002300000000
#02552:0000002300000000
#02656:5363
#02657:00530053
#02756:6300000000230000
#02752:0023000053000000
#02757:0000002300005300
#0275b:0000630000000023
#02852:1300000000000053
#0295b:0053000000000000
#02957:0000002300000000
#0305b:0053
#03052:53
#03056:00530000
#03057:00000053
#03156:5353
#03157:0000530000000053
#03152:0000000000230000
#03357:0000001300000000
#03352:0000001300000000
#03358:00000053
#03355:00000053
#03452:0000000000130000
#0345b:0000000000130000
#0355b:0000000000130000
#03552:0000000000130000
#0375b:53
#03752:53
#03758:0053
#03755:0063
#04258:00530000
#0425b:0000000000230000
#04352:00000000000000530000000000000000
#04355:13
#0445b:00000000000000630000000000000000
#04458:13
#04655:00000000000000000000005300000000
#0485b:13
#04758:0013
#04952:13
#0505b:1300000000000013
#05055:0000000000000013
#05156:00530000
#0515b:0000000000000053
#05255:00530000
#05252:0000000000230000
#05658:00000000000000000000006300000000
#0535b:00000000000000630000000000000000
#05452:00000000000000530000000000000000
#05858:0000000000000013
#05852:1300000000000013
#06058:00630000
#05952:0000000000000063
#05957:00630000
#06158:53
#06255:00000000000000630000000000000000
#06358:00000000000000530000000000000000
#06455:00000000000000630000000000000000
#06558:00000000000000130000000000000000
#06655:0000005300000000
#06658:00000000000000530000000000000000
#06652:00000000000000000023000000000000
#0665b:0000000000000000000000000000000000000023000000000000000000000000
#06752:0000000000000000000000000000000000000023000000000000000000000000
#06755:00000000000000630000000000000000
#06858:00000000000000530000000000000000
#0685b:0000000000000000000000000000000000000023000000000000000000000000
#06955:00000000000000630000000000000000
#07055:00130000
#07058:0013000000000000
#07052:0000000000000054
#07157:00000000000000000000000000000024
#07358:00000000000000000000000000000053
#07355:00000000000000000000000000000053
#04058:53
#0405b:0023
#03955:53
#03952:0023
#01555:13000013
#0155b:00130000
#01558:1313
#0023b0:00000000000000001300002300000000
#002321:00000000000000001300002300000000
#004351:00130000
#004321:00000000000000230000000000000000
#004380:00000000001300000000000000000000
#0043b0:00000000000000230000000000000000
#004380:0000000000000013
#0053b0:00530000
#005380:0023
#004351:00000000000000000000000000000013
#005321:00530000
#005351:0023
#006321:00000000001300000000000000000000
#006361:0023
#006351:00000000000000000000000000130000
#007321:23
#0073b0:13000023000000000000000000000000
#007351:00000013000023000000000000000000
#008321:13
#008361:00000023000000000000000000000000
#008321:00000000000000130000000023000000
#008361:0000000000000000000000000000000000000053000000000000000000000000
#0093b1:00000000000000130000000000000000
#009381:00000023
#009320:00000000000000130000000000000000
#009350:00000023
#0103b0:1323000000000000
#010380:0000001323000000
#0113b0:0013
#011380:00000033
#0123b0:23
#011351:00000013
#012321:23
#012351:0013
#012321:00000053
#013351:23
#013381:00130000
#0133b1:00000023
#014321:00000000000000000000001300330000
#015351:23
#0143b0:00000000000000000000000000130000
#015380:23
#016320:00000000000000000000001300000000
#017360:23
#016381:00000000000000000000000000130000
#0173b1:23
#017321:00132300
#017361:0000005300000000
#017370:00132300
#0173b0:0000005300000000
#018380:00000000000000130000000000000000
#0183b0:0000000000230000
#0203b0:00000000000000000000000000130000
#021380:23
#021350:00130000
#021320:00000023
#0223b0:00000000000000000000001300330000
#023380:23
#022321:00000000000000000000000000130000
#023351:23
#0243b1:00000000000000000000001300000000
#025371:23
#024350:00000000000000000000000000130000
#025320:23
#0253b0:00132300
#025370:0000005300000000
#025361:00132300
#025321:0000005300000000
#026361:13
#026321:00230000
#026370:00130000
#0263b0:0023
#026361:0013
#026321:00000023
#026370:00000013
#0273b0:23
#027361:13230000
#027321:0053000000000000
#0273b0:00132300
#027370:0000005300000000
#027321:00001323
#027361:0000000000530000
#027370:00000013
#0273b0:0000000000000053
#028370:23
#028320:0000000000000013
#029360:0023000000000000
#0293b1:0013000000230000
#029371:0000005300000000
#030321:1323
#030361:00330000
#0303b0:0013
#030370:00000033
#0313b0:23
#031361:13
#031321:00000033230000000000000000000000
#031370:00130000
#0313b0:00000000000000332300000000000000
#031361:00001323
#031321:0000000000530000
#031371:0000000000000013
#0323b1:00230000
#0323b1:0000000000000013
#0333b1:0023000000000000
#033351:00000013
#034321:23
#033380:00000013
#0343b0:23
#037320:13
#037350:0000002300000000
#0373b1:13
#037381:0000002300000000
#037381:0013
#0373b1:0000000000000023
#037350:0013
#037320:0000000000000023
#039350:13
#039320:0053
#040350:23
#040381:13
#0403b1:0053
#041381:23
#041321:0000000000000013
#042351:0023000000000000
#042381:00130000
#0423b1:0000000000530000
#043381:23
#043321:00000000000000130000000000000000
#043351:0000000000230000
#0443b1:00000000000000130000000000000000
#044381:0000000000230000
#046351:00000000000000000000001300000000
#047321:23
#051361:00130000
#051321:00000000000000332300000000000000
#0513b1:0000000000000013
#052381:0023000000000000
#052351:00130000
#052321:0000000000530000
#053351:23
#0533b1:00000000000000130000000000000000
#053381:0000000000230000
#054321:00000000000000130000000000000000
#054351:0000000000230000
#056381:00000000000000000000001300000000
#0573b1:23
#059371:00130000
#0593b1:00000000000000332300000000000000
#059321:0000000000000013
#060351:0023000000000000
#060381:00130000
#0603b1:00000023
#061381:13
#0613b1:0000002300000000
#062351:00000000000000130000000000000000
#062321:00000023
#063381:00000000000000130000000000000000
#0633b1:00000023
#064351:00000000000000130000000000000000
#064321:00000023
#066351:0000001300002300
#066321:00000000000000000053000000000000
#066380:00000000000000130000000023000000
#0663b0:0000000000000000000000000000000000000053000000000000000000000000
#067350:00000000000000130000000023000000
#067320:0000000000000000000000000000000000000053000000000000000000000000
#068380:00000000000000130000000023000000
#0683b0:0000000000000000000000000000000000000053000000000000000000000000
#069350:00000000000000130000000000000000
#070320:23
#070320:0000000000000014
#071370:00000000000000000000000000000054
#073320:24
#073380:00000000000000000000000013000033
#0743b0:0000002300000000
#073351:00000000000000000000000000000013
#074321:0000002300000000
#0739b0:13532300
#073970:0053005300000000
