This file was generated by Ched 2.7.0.0.
#TITLE ""
#ARTIST ""
#DESIGNER ""
#DIFFICULTY 0
#PLAYLEVEL
#SONGID ""
#WAVE ""
#WAVEOFFSET 0
#JACKET ""
#REQUEST "ticks_per_beat 480"
#00002: 4
#BPM01: 155
#00008: 01
#TIL00: ""
#VOLUME: ""
#HISPEED 00
#MEASUREHS 00
#00218:0013000023000000
#00212:0000001300000000
#00215:00230000
#0021b:23
#00418:00130013
#00415:0013000000130013
#00412:23000000000000000000000000000033
#0041b:00000000003300000000000000000000
#00618:0013000000001300
#00615:00000013000000000000130000130000
#0061b:00000000001300000000000000000000
#00812:13
#00818:00000000001300000000000000001300
#00815:00000000000000130000000000000000
#0081b:00000013
#00915:13000000001300000000000000000000
#00912:0013000000000000
#00918:00130000
#0091b:00000000000000130000000000000000
#0101b:00000013
#01012:0000000000000013
#01015:00000013
#01018:0000000000000013
#01218:00001300000000130000000000000000
#01212:00000000130000000000000000130000
#01215:0013
#01210:41
#01415:00130000
#01418:00001300000000133300000000000000
#0141b:00000000000000000000330000130000
#01515:00130013
#01518:0013
#01615:0013000000000000
#0161b:00130000
#01618:13
#01612:00000000000000133300333300330000
#01718:0013000000000023
#01715:00130023
#01712:0000001300000000
#0171b:0000000000230000
#01812:13330033000000000000000000000000
#01818:0000001300000000
#01815:00000000000000130000000000000000
#02818:0000001300000013
#02815:0013
#0281b:0000000000130000
#02812:00130013
#02810:41
#02918:00000000001300000000000013000000
#02915:0000000000130013
#0291b:0013000000000000
#03118:1300000000000013
#03112:1313
#03115:00130000
#0311b:00130000
#03212:0013
#03215:0000000000130000
#03218:00000013
#0321b:0000000000000013
#03318:0013000000001300
#03315:00130000
#03312:0000001300001300
#0331b:0000001300000000
#03418:00001300001300000000000000000000
#03415:00000013000013000000000000000000
#0341b:0013
#03412:0000000000130000
#03512:1313
#0351b:1300000000130000
#03515:00001300001300000000000000000000
#03518:00000013000013000000000000000000
#03612:1300000000000013
#0361b:1313
#03618:00001300001300000000130000000000
#03615:00000013000013000000000013000000
#03610:41
#0371b:13
#03715:0013
#03915:0000000000130013
#03918:00130013
#0391b:13003333003333000000000000000000
#0391f:11
#04112:0013000000000013
#04115:0000000000130000
#04118:00130013
#04218:0013130000000000
#04215:00000013000000000000000000000000
#04315:00001300001300000000000000000000
#04318:00130000
#0431b:00000000000000130000000000001300
#04312:00000013
#04515:00001300001300000000001300000013
#04518:00000013000000130000130000130000
#0451b:23
#04512:0023
#04618:0013000000130000
#04612:0000001300000000
#04615:00000000230000000000001300000000
#0461b:2323
#04818:00130013
#04815:0013
#06115:0013
#06118:1300000000130013
#06112:00000013
#06215:1300130000000013
#0621b:0013000000002300
#06218:00000000001300000000000000000000
#06212:00000000000000130000000000000000
#06318:13000000000000130000000000001300
#06312:0013000000002300
#06315:0000001300000000
#0631b:00130000
#06310:41
#06515:0000001300001300
#06518:13000000000000130000000000001300
#06512:0013000000130000
#0651b:00130000
#06618:00001300000000130000000000001300
#06615:00130013
#0661b:13
#06612:0000001300000000
#0671b:13
#06718:0013001300001300
#06715:00000000130000130000000000001300
#00512:00000013000000000000000000000000
#01315:00130000
#0131b:0013000000000000
#05618:00000000230000000000001300000000
#05615:0013000000130000
#0561b:0000001300000000
#05612:2323
#07117:00000000000000000000000000140000
#07318:0000000000140000
#07314:00000000000000000000000024000014
#07312:14545454545454545400000000000000
#07313:0054005400540054005400540054005400000000000000000000000000000000
#00712:0013
#00715:0000000000130000
#00718:00000013
#0071b:0000000000000013
#01112:00000013
#01115:0013
#0111b:0023230000000000
#0191b:0013000000530000
#0191a:00000053000000000053005300000000
#01919:00535353
#01918:00000000005300530000000000530053
#01917:0000005300000053
#02015:0013000013000000
#0201b:00130000
#02012:00000000000000000000330000130000
#02010:41
#02019:53
#02215:00130000
#02218:00001300000000000000330000130000
#0221b:00000000000000133300000000000000
#02312:00130000
#02318:0013
#02315:00000013
#02415:00001300000000133300333300330000
#02418:00130000
#0241b:13
#02518:0013000000000000
#0251b:00000013
#02512:00130000
#02515:0000001300001300
#02112:00130000
#02118:0013000000000000
#02612:13
#02615:00130000
#02618:0013
#0261b:00000013
#02715:13
#02712:00130000
#0271b:0013
#02718:00000013
#03018:1313
#0301b:00130000
#04018:0000000000130000
#0401b:0000000000000013
#04015:00130013
#04012:13003333003333000000000000000000
#04418:00001300001300000000000000000000
#04415:00130000
#04412:00000000000000130000000000001300
#0441b:00000013
#04712:0000000000000000000000130000000000000000000000000000000000000000
#04918:0000000000130013
#04915:00130013
#04912:23003333003333000000000000000000
#0491f:21
#0511b:0013000000000013
#05118:0000000000130000
#05115:00130013
#05018:00130023
#0501b:23003333003333000000000000000000
#05015:0000000000230000
#05012:0000000000000023
#05010:41
#05215:0013130000000000
#05218:00000013000000000000000000000000
#05212:0000000000130000
#0531b:0013000000000000
#05315:0000130000333300
#05318:00000000001300000000000000000000
#05312:00001300000000130000000000000000
#05412:0013000000000000
#05418:0000130000333300
#05415:00000000001300000000000000000000
#0541b:00001300000000130000000000000000
#05518:00001300001300000000001300000013
#05515:00000013000000130000130000130000
#05512:23
#0551b:0023
#05718:0000000000130013
#05715:00130013
#05712:23003333003333000000000000000000
#0591b:0013000000000013
#05918:0000000000130000
#05915:00130013
#05818:00130023
#0581b:23003333003333000000000000000000
#05815:0000000000230000
#05812:0000000000000023
#06015:0013130000000013
#06018:00000013000000000000000013000000
#06415:13000000000000130000000000001300
#0641b:0013000000002300
#06418:0000001300000000
#06412:00130000
#06812:13
#06815:0013001300001300
#06818:00000000130000130000000000001300
#0691b:13
#06918:0013001300000000
#06915:00000000130000130000000000000000
#07018:0023000000240000
#07015:00230000
#0701a:0000002400000024
#07014:0024
#07012:00000024
#03818:0024000000000000
#03814:00240000
#0011b:23
#00112:0023
#00118:00003333003300330000000000000000
#00115:00000000000000000000333300330033
#00312:23
#0031b:0023
#00315:00003333003300330000000000000000
#00318:00000000000000000000333300330033
#00258:00000000000000000000001300000000
#00455:0000000000000063
#00458:00530000
#0045b:00000000000000130000000000000000
#00552:00000023000000000000000000000000
#0065b:00000000005300000000000000000000
#00655:00000000000000000000000000530000
#00852:63
#00855:00000013000000130000000000000000
#00858:00000000001300000000000000000000
#0095b:00000000000000530000000000000000
#00958:00000013
#01355:00630000
#01352:00000013
#01555:00130013
#01558:1313
#01658:13
#0165b:00130000
#01652:00000000000000530000000000000000
#01755:00530000
#01752:0000002300000000
#01855:00000000000000530000000000000000
#01852:53000000000000000000000000000013
#02858:0000000000000053
#0285b:13
#03158:0000000000000053
#03152:0053
#0335b:0000001300000000
#03352:0000001300005300
#03358:00000053
#03452:0000000000130000
#0375b:53
#03755:0063
#04258:00530000
#0435b:00000000000000630000000000000000
#04655:00000000000000000000005300000000
#05658:00000000000000000000006300000000
#06158:53
#06755:00000000000000630000000000000000
#07055:00130000
#07058:0013000000000000
#0705a:0000000000000064
#07157:00000000000000000000000000240000
#07354:00000000000000000000000000000064
#0015b:53
#00152:0063
#00352:63
#0035b:0053
#01152:00000053
#01155:0053
#01255:1353
#01252:00000000000000000000000000530000
#01458:00000000000000530000000000000000
#0145b:00000000000000000000000000530000
#0205b:00130000
#02055:0053
#02052:00000000000000000000000000530000
#02352:00130000
#02358:0013
#02355:00000013
#0235b:13
#02458:00130000
#0245b:13
#02455:00000000000000630000000000000000
#02152:00530000
#02155:00000013
#02552:00630000
#02555:0000002300000000
#0225b:00000000000000630000000000000000
#02258:00000000000000000000000000630000
#02652:53
#02655:00530000
#02658:0063
#0265b:00000063
#02755:53
#02752:00530000
#0275b:0063
#02758:00000063
#0295b:0053000000000000
#02958:00000000002300000000000000000000
#03058:5353
#0305b:00530000
#0355b:0000000000130000
#0395b:53
#03958:00230000
#04055:00230000
#04052:63
#04158:00530000
#04452:00000000000000530000000000000000
#04752:0000000000000000000000230000000000000000000000000000000000000000
#04955:00230000
#04952:53
#05058:00230000
#0505b:63
#05155:00630000
#05255:00530000
#05252:0000000000230000
#05352:00000000000000530000000000000000
#0545b:00000000000000630000000000000000
#05755:00230000
#05752:53
#05858:00230000
#0585b:63
#05955:00630000
#06055:00530000
#06558:00000000000000130000000000000000
#06658:00000000000000530000000000000000
#06858:00000000000000530000000000000000
#06955:00000000000000530000000000000000
#04855:13
#0013b0:13
#001380:00003333003300332300000000000000
#001321:0013
#001351:00000000000000000000333300330033
#002351:23
#002381:00000000000000001300002300000000
#003321:13
#003351:00003333003300332300000000000000
#0033b0:0013
#003380:00000000000000000000333300330033
#004380:23
#004380:00130000
#0043b0:00000000003300230000000000000000
#004350:0000000000000013
#004320:00000000000000000000000000000033
#005320:00000053000000000000000000000000
#005350:0023
#0063b0:00000000001300000000000000000000
#006380:0023
#006350:00000000000000000000000000130000
#007320:23
#007380:00000013000023000000000000000000
#008320:13
#008350:00000023000000000000000000000000
#0093b0:00000000000000130000000000000000
#009380:00000023
#010340:14003424000000000000000000000000
#010380:00000000000014003424000000000000
#011350:0013
#011320:00000033
#012350:23
#012350:0013
#012320:00000000000000000000003300330000
#013350:23
#013350:00130000
#013320:00000023
#014380:00000000000000133300000000000000
#0143b0:00000000000000000000333300330000
#015380:23
#016320:00000000000000133300333300330000
#017350:23
#017350:00132300
#017320:0000005300000000
#018320:13330033000000000000000000000000
#018350:00230000
#018350:00000000000000130000000000000000
#018320:00000000000000000000000033333323
#020350:0013
#020320:00000000000000000000333300330000
#021350:23
#021320:00130000
#021350:00000023
#0223b0:00000000000000133300000000000000
#022380:00000000000000000000333300330000
#0233b0:23
#024350:00000000000000133300333300330000
#025320:23
#025320:00132300
#025350:0000005300000000
#026320:1323
#026350:00330000
#026381:0013
#0263b1:00000033
#027381:23
#027350:1323
#027320:00330000
#0273b1:0013
#027381:00000033
#0283b1:23
#028381:0000000000000013
#0293b1:0033000023000000
#029381:00000000005300000000000000000000
#030381:1333
#0303b1:00330023
#031321:0013
#031351:00000023
#031381:0000000000000013
#0323b1:00230000
#033321:00000013
#034351:23
#033380:00000013
#0343b0:23
#0373b0:13
#037380:0000002300000000
#037350:0013
#037320:0000000000000023
#0393b0:13003333003333002300000000000000
#039380:00530000
#040320:13003333003333002300000000000000
#040350:00530000
#041380:00130000
#0413b0:00000000000000332300000000000000
#042380:00130000
#0433b0:23
#0433b0:00000000000000130000000000000000
#043380:0000000000230000
#044320:00000000000000130000000000000000
#044350:0000000000230000
#046350:00000000000000000000001300000000
#047320:0000000000000000000000530000000000000000000000000000000000000000
#048350:23
#049320:13003333003333002300000000000000
#049350:00530000
#0503b0:13003333003333002300000000000000
#050380:00530000
#051350:00130000
#051320:00000000000000332300000000000000
#052350:00130000
#052320:0000000000530000
#053350:23
#053320:00000000000000130000000000000000
#053350:0000000000333323
#0543b0:00000000000000130000000000000000
#054380:0000000000333323
#056380:00000000000000000000001300000000
#0573b0:23
#057321:13003333003333002300000000000000
#057351:00530000
#0583b1:13003333003333002300000000000000
#058381:00530000
#059351:00130000
#059321:00000000000000332300000000000000
#060351:00130000
#060321:0023
#061381:13
#0613b1:0000002300000000
#066381:00000000000000130000000000000000
#0663b1:0000000000230000
#067351:00000000000000130000000000000000
#067321:0000000000230000
#068381:00000000000000130000000000000000
#0683b1:0000000000230000
#069351:00000000000000130000000000000000
#070321:23
#0703a1:0000000000000014
#071371:00000000000000000000000000540000
#0723a1:00000024
#073341:00000000000000000000000014000034
#074321:0000002400000000
#0199b0:0013000000530000
#019970:0000005300000053
#020990:23
#073920:14545454545454542400000000000000
#073930:0054005400540054005400540054005400000000000000000000000000000000
