This file was generated by Ched 2.7.0.0.
#TITLE ""
#ARTIST ""
#DESIGNER ""
#DIFFICULTY 0
#PLAYLEVEL
#SONGID ""
#WAVE ""
#WAVEOFFSET 0
#JACKET ""
#REQUEST "ticks_per_beat 480"
#00002: 4
#BPM01: 155
#00008: 01
#TIL00: ""
#VOLUME: ""
#HISPEED 00
#MEASUREHS 00
#0011a:1414
#00112:1414
#00218:1414
#00214:00140014
#00312:1414
#0031a:1414
#00418:1414
#00414:00140014
#00612:14
#00618:0014
#00714:14
#0071a:0014
#00812:14
#00818:0014
#00914:14
#0091a:0014
#01118:0024000014000000
#01114:00240014
#01218:14
#01214:0014
#01210:41
#01414:14
#01418:0014
#0161a:1414
#01614:00140014
#01718:1414
#01712:00140014
#0181a:14
#01814:00140000
#02018:0014
#02010:41
#02218:14
#02214:0014
#02412:1414
#02418:00140014
#02514:1414
#0251a:00140014
#02714:14141414
#02713:0014000000140000
#02715:0000001400000014
#02818:00140000
#02810:41
#02918:14
#02914:00140000
#03014:14
#03018:00140000
#03118:14
#03114:00140000
#03212:14
#03218:00140000
#03214:0014
#0321a:00000014
#03314:14
#03318:00140000
#03312:0014
#03614:00140000
#03618:0014
#03612:00000014
#0361a:24
#03610:41
#0371a:14
#03718:0014
#04418:14
#04614:00140000
#04618:0014
#04612:00000014
#0461a:24
#0471a:14
#04918:00140014
#04912:2414
#0491f:21
#05014:1414
#0501a:00140014
#05010:41
#05112:14
#05118:00140000
#05114:0014
#0511a:00000014
#05212:14343400
#0531a:1414
#05314:00140000
#05412:1414
#05418:00140000
#05614:00140000
#05618:0014
#05612:00000014
#0561a:24
#05714:00140014
#0571a:2414
#05818:1414
#05812:00140014
#0591a:14
#05914:00140000
#05918:0014
#05912:00000014
#0601a:14343400
#06712:1414
#06718:00140014
#06814:1414
#0681a:00140014
#06912:1414
#06918:00140014
#07012:14
#0701a:0014
#07212:14
#0391f:11
#0341a:24
#03414:24
#03512:24
#03518:24
#04512:2424
#0451a:2424
#0551a:2424
#05512:2424
#07114:24
#07318:00000024
#06312:00343400
#06310:41
#0641a:00343400
#06514:00343400
#06618:00343400
#01012:54005454000000000000000054005400
#01014:00000000000054005454000000000000
#01258:14
#02052:14
#02754:54545454
#02753:0024000000240000
#02755:0000002400000024
#0375a:54
#03758:0054
#0475a:54
#05252:54
#0535a:0014
#05452:0014
#0605a:64
#07252:24
#07154:54
#005380:14
#0053a0:0024
#0133a0:1424
#015320:1424
#018380:00001424
#019340:14
#020320:24
#021320:1424
#0233a0:1424
#026320:14240000
#026380:00001424
#027340:14343434
#027330:0054000000540000
#027350:0000005400000054
#028340:24
#028320:00001424
#0293a0:00001424
#030320:00001424
#0313a0:00001424
#0373a0:14
#037380:0034
#0383a0:24
#039340:14
#040320:34
#041340:34
#042320:34
#043340:24
#0473a0:14
#048370:24
#052320:14343400
#052340:00000024
#0603a0:14343400
#060380:00000024
#061320:14240000
#061380:00001424
#062340:14240000
#0623a0:00001424
#063320:14343400
#063340:00000024
#0643a0:14343400
#064380:00000024
#065340:14343400
#065320:00000024
#066380:14343400
#0663a0:00000024
#071340:14
#072320:54
#073340:24
#073380:00000014
#0733a0:00000000000000000000000000000034
#0743a0:0000002400000000
#010920:14000054000000000000000054002400
#010940:00000000000054000054000000000000
