This file was generated by Ched 2.7.0.0.
#TITLE ""
#ARTIST ""
#DESIGNER ""
#DIFFICULTY 0
#PLAYLEVEL
#SONGID ""
#WAVE ""
#WAVEOFFSET 0
#JACKET ""
#REQUEST "ticks_per_beat 480"
#00002: 4
#BPM01: 195
#00008: 01
#TIL00: ""
#VOLUME: ""
#HISPEED 00
#MEASUREHS 00
#00112:00000013
#0011b:13000013
#00115:0000131300000000
#00218:13
#00212:0000131300001300
#0021b:00000013
#00315:13
#0031b:0000131300001300
#00312:00000013
#00412:13000013
#00418:0000131300000000
#0041b:00000013
#0051b:13000013
#00515:0000131300001300
#00518:0000000000130000
#00612:13000013
#00618:0000131300001300
#00615:0000000000130000
#00915:0013000000002300
#00912:1300001300000000
#0091b:2313
#00918:0000230000130000
#00910:41
#0101b:0000000000130000
#01012:0013000000000000
#01018:00230000
#01015:00000023
#01318:0013000000002300
#0131b:1300001300000000
#01312:2313
#01315:0000230000130000
#01718:00130013
#01712:1313
#01715:0013001300000013
#0171b:23
#01812:00130013
#01818:0000001300000000
#0181b:1300000000130000
#01815:0000000013000013
#01915:00130000
#0191b:1313
#01918:0013001300000000
#01912:00000013
#0211b:13131313
#02112:0000000000130000
#02115:0000000000000013
#0221b:13131313
#02212:0000000000130000
#02215:0000000000000013
#02312:13131313
#02318:0000000000000013
#0231b:1300000000130000
#02512:00130013
#0251b:53130013
#02518:0000001300130000
#02515:0000000013000013
#02516:24
#02510:41
#0261b:00130013
#02618:1300000013000013
#02612:00130013
#02615:0000001300130000
#02715:1300001300001300
#02712:0000130000130000
#0271b:0000130000130000
#02718:00001313
#02812:00130000
#02818:0013000013000000
#0281b:00130000
#02815:0000001300130000
#0291b:0000131300001300
#02915:00001313
#02912:0000130000000013
#02918:0000000000130000
#03018:13001313
#03012:0000131300001300
#0301b:0000130000000013
#03015:0000000000130000
#03115:13001313
#0311b:00130000
#03118:0000001300130023
#03112:00130000
#0321b:0013000000000000
#03212:0000130000130013
#03215:0000001300000000
#03218:0013
#03316:0000001300000000
#03317:13
#03417:0000001300000000
#03416:13
#0351b:0000001300000000
#03512:13
#03517:13
#03612:0000001300000000
#0361b:13
#03616:13
#03615:0000000000000013
#0441b:2313000023000000
#04412:0000231300130000
#04415:0000000000000013
#04418:00000023
#04512:0000001300000000
#04519:0013
#04514:0000000000130000
#0451b:23000013
#04516:0000000000000013
#04517:00130000
#04612:0000001300000000
#04617:0000000013000013
#0461b:0013000000000000
#04712:13130000
#04717:0013000000000000
#0471b:0000001300130013
#04716:00001313
#04218:00000013
#04215:0000000000130000
#04216:0013000000000000
#04217:0000001300000000
#04318:0013000000001300
#04315:0000130000130013
#05317:0000000000000013
#0531b:0000001300000000
#05314:0013
#05319:0000000000130000
#05312:23000013
#05316:00130000
#05310:41
#0541b:0000001300000000
#05416:0000000013000013
#05412:0013000000000000
#0551b:13130000
#05516:0013000000000000
#05512:0000001300130013
#05517:00001313
#05616:0013000000000000
#05617:0000001300000000
#05612:0013
#0561b:0000000000130000
#05618:0000000000000013
#05914:12
#05912:0000000000120012
#0591a:0000000000000012
#0591c:12
#06016:0012
#06116:12
#06112:0000000000000012
#0611a:0000000000120012
#0611c:12
#0621c:0012000000000000
#06216:00120000
#0621a:0000001200000000
#06214:0012
#06218:0000000000120000
#06212:00000012
#0631a:12
#0631c:0000000000120012
#06314:0000000000000012
#06312:12
#06418:0012
#06518:12
#06512:1200000000000014
#06514:0000000000120000
#0651a:0000000000000014
#06718:00131323
#06715:0000001300000000
#0671b:0000000000130000
#06712:53230013
#06716:24
#06710:41
#0681b:13230013
#06815:00131323
#06818:0000001300000000
#06812:0000000000130000
#06912:1300230000130000
#0691b:0000130000130000
#06915:0000001300000000
#06918:0013
#0701b:0013000000232300
#07018:0000001300000000
#07015:0013
#07012:00230013
#07016:0000000000000013
#07117:1300000000000013
#07115:0000001300130000
#07118:0013
#0711b:00130013
#0711f:11
#07112:00230023
#07216:1300000000000013
#07218:0000001300130000
#07215:0013
#07212:00130013
#0721b:00230023
#07317:13
#07318:0000001300000000
#07315:0013
#0731b:0000130000130000
#07312:0000230000001323
#08318:2600000000130013
#0831b:0013
#08315:00000013
#08312:0000260000000023
#0831f:21
#08712:00131300
#08715:0000000000130023
#08718:0000001300001300
#0871b:0000130000000023
#08817:0013000000000000
#08812:0023000000000013
#08815:0000002300130000
#0881b:00000013
#08818:0023
#08915:1300000000130000
#08918:0013000013000000
#0891b:0000001300001300
#08912:0000130000000013
#0841b:0023000000001300
#08416:0000000000000013
#08412:0000002300130000
#08415:0013000000000000
#08418:0000001300000000
#08410:41
#0851b:0013000013000000
#08512:1300130000130000
#08515:00000013
#08518:0000000000000013
#08517:0000001300000000
#09115:1300000013000013
#0911b:0013000000130013
#09118:0000001300000000
#09112:00230023
#09217:0013000000130000
#0921b:0000001300000013
#09215:0000001300000000
#09212:00230023
#09315:1300001300000000
#09318:0013000013000013
#0931b:0000000000130000
#09312:00230023
#02015:0013000000000000
#0201b:00130000
#02019:0013
#02017:00000013
#02014:0000001300000000
#02013:0000000000130000
#02012:0000000000000013
#05715:1300001300000000
#0571b:0013130000000000
#05718:0000000013000013
#05712:0000000000131300
#07415:0013000000000000
#07418:00130000
#07412:0000001300000000
#0741b:0000000013000023
#07612:0013001300130013
#07718:13130000
#07712:0013000000000013
#07715:0000001300130000
#0771b:00001313
#0781b:0013001300130000
#07816:0013001300000000
#07815:00000013001300130013000000000000
#07814:00131300
#07818:0000000000000013
#01112:0013000000002300
#0111b:0000230000130000
#01118:0000000000000013
#01215:1300000013000013
#01218:0013000000232300
#0121b:0000001300000000
#01212:00230013
#01412:0000000000130000
#0141b:0013000000000000
#01415:00230000
#01418:00000023
#0151b:0013000000002300
#01512:0000230000130000
#01515:0000000000000013
#01618:1300000013000013
#01615:0013000000232300
#01612:0000001300000000
#0161b:00230013
#05818:0013001300000000
#05815:0013
#05812:0000000000232300
#0581b:0000000000232300
#06612:0013000000000000
#0661b:0000000053130000
#06616:00001313
#06617:00130000
#0661a:00000000000000530000000000000000
#06619:0000005300000000
#06618:00000000005300000000000000000000
#06613:00000000000000000000000000000053
#06614:0000000000000053
#06615:00000000000000000000000000530000
#08612:0013000000130013
#0861b:0000001300130013
#08618:00231313
#08615:23002313
#09418:0013000000000000
#09412:0000001313000000
#0941b:0000001313000000
#00818:0014
#00814:0000001400000000
#0081a:0014000000000000
#0081b:0000000000232300
#00812:0000000000232300
#04115:00001313
#04118:0000260000130000
#04117:0000000000000013
#04112:2600000000000013
#04110:41
#04918:26001313
#04915:0000000000130000
#04916:0000000000000013
#0491b:0000000000000013
#04912:00260000
#05017:0013000000000000
#05016:0000001300000000
#05015:00000013
#05018:0000000000130000
#00714:14
#00718:0014000000000000
#00712:0000001400140000
#0071a:0000000000000014
#0901b:0013000000000000
#09018:0000000000000013
#09016:00130000
#09019:0000001300000000
#09014:0013
#09017:0000000000130000
#09012:00000013
#0751b:0023000000000013
#07515:23230000
#07518:0000002300230000
#07512:00002323
#05212:2313000023000000
#0521b:0000231300130000
#05218:0000000000000013
#05215:00000023
#05115:0013000000001300
#05118:0000130000130013
#02416:00130000
#02417:00000013
#02412:2300000053230000
#0241b:0023000023000000
#02413:00000000000000530000000000000000
#02414:0000005300000000
#02415:00000000005300000000000000000000
#0241a:00000000000000000000000000000053
#02419:0000000000000053
#02418:00000000000000000000000000530000
#04012:0013001313000000
#04012:0000001300000000
#04018:0000002323002300
#0401b:0000000000000023
#04015:0000000000230000
#03712:0000130000000013
#03717:0000001300000000
#0371b:1300000000000013
#03718:00000013
#03715:0000000000130000
#03818:0023000000001300
#03815:0000230000130000
#03812:0000002300000013
#0381b:0000002300000000
#03915:0013000000130000
#03918:00130013
#03912:0000001300000013
#0391b:0000000013000013
#0821b:0013001313000000
#0821b:0000001300000000
#08215:0000002323002300
#08212:0000000000000023
#08218:0000000000230000
#0791b:0000130000000013
#07916:0000001300000000
#07912:1300000000000013
#07915:00000013
#07918:0000000000130000
#08015:0023000000001300
#08018:0000230000130000
#0801b:0000002300000013
#08012:0000002300000000
#08118:0013000000130000
#08115:00130013
#0811b:0000001300000013
#08112:0000000013000013
#04812:0000002300000023
#04815:00002323
#04818:0000000000230000
#02658:1300000000000023
#0265b:00000053
#02552:00000053
#02555:0000000000000023
#02556:14
#02955:00000063
#02952:3300000000000023
#0295b:43
#0055b:13
#03357:63
#03456:63
#03552:63
#0365b:63
#0475b:0000000000000063
#04455:0000000000000063
#04556:0000000000000063
#0455b:13
#0465b:0063000000000000
#05357:0000000000000053
#05352:13
#05656:0023000000000000
#05552:0000000000000053
#05452:0053000000000000
#07052:00000063
#07056:0000000000000023
#07157:0000000000000023
#0715b:00000063
#07152:33
#07256:0000000000000023
#07252:00000063
#0725b:43
#08456:0000000000000063
#0845b:0043000000000000
#08452:0000003300000000
#08552:23
#08557:0000006300000000
#0855b:0023
#02358:0000000000000013
#07855:00000063006300630063000000000000
#07854:00232300
#07856:0023002300000000
#04152:1600000000000013
#04158:00160000
#04157:0000000000000053
#04958:16
#04952:00160000
#04956:0000000000000063
#0495b:0000000000000013
#08352:0000360000000033
#08358:46
#08758:13
#08755:13
#0875b:0000000000000063
#08652:0023000000230023
#0865b:0000002300230023
#08658:00635353
#08655:63006363
#07352:3300000000000013
#04256:0053000000000000
#04257:0000005300000000
#0425b:0013000000000000
#04252:0000001300000000
#05057:0063000000000000
#05056:0000006300000000
#05052:0013000000000000
#0505b:0000001300000000
#0685b:00000063
#06856:13
#06752:00000063
#06756:14
#0755b:0000000000000063
#07752:0000000000000063
#0095b:13
#0175b:13
#02755:13000023
#02752:0000000000630013
#02758:00000023
#0275b:0000000000630013
#03155:13
#03158:0000000000000013
#03058:13000053
#0305b:0000000000000023
#04858:00130000
#06957:13
#06955:0000000000000013
#06952:0000000000630000
#0695b:0000000000530000
#06958:0000000000000013
#08857:0023000000000000
#08855:0000000000130000
#05258:0000000000000053
#0655a:0000000000000014
#06552:0000000000000014
#08952:0000000000000053
#03757:0000001300000000
#0375b:53
#03752:0000000000000013
#01352:13
#0385b:0000001300000000
#03852:0000000000000013
#07956:0000001300000000
#07952:63
#0795b:0000000000000013
#0805b:0000000000000013
#08052:0000001300000000
#0093b0:0000000000000013
#010380:0023000000000000
#010320:0000001300000000
#010350:0000000000230000
#0103b0:0000000000000013
#0113b0:0023000000000000
#011350:0000001300230000
#013320:0000000000000013
#014350:0023000000000000
#0143b0:0000001300000000
#014380:0000000000230000
#014320:0000000000000013
#015320:0023000000000000
#015380:0000001300230000
#019370:0000000000000013
#0203b0:0023000000000000
#025320:00000013
#025350:0000000000000053
#026320:23
#0263b0:00000013
#026380:0000000000000053
#0273b0:23
#027320:0000000000130023
#027350:00000053
#0273b1:0000000000130023
#027381:00000053
#028321:00000013
#028351:0000000000000053
#029321:23
#0283b0:00000013
#028380:0000000000000053
#0293b0:23
#029350:00000013
#029320:0000000000000053
#030350:23
#030380:00000013
#0303b0:0000000000000053
#031380:23
#0323b0:0000000000130023
#033370:13
#0333b0:00005323
#033361:00001323
#034361:13
#034321:00005323
#034370:00001323
#035320:13
#035360:00005323
#0353b1:00001323
#0363b1:13
#036371:00005323
#036320:00001323
#0373b0:13
#037370:00230000
#0383b0:0000000000000013
#0393b0:0023000000000000
#041370:0000000000000013
#0423b0:0023000000000000
#042361:0013000000000000
#042321:0000002300000000
#042370:0000001300000000
#0423b0:0000000000230000
#042320:0000000000000013
#043320:0023000000000000
#0433b0:0000001300230000
#044350:0000000000000013
#045320:00230000
#045360:0000000000000013
#046320:0023000000000000
#0463b1:0013000000000000
#046371:0000002300000000
#046321:0000000000130023
#0473b1:0000000000000013
#048381:00230000
#049361:0000000000000013
#050321:0023000000000000
#050370:0013000000000000
#0503b0:0000002300000000
#050361:0000001300000000
#050321:0000000000230000
#0503b1:0000000000000013
#0513b1:0023000000000000
#051321:0000001300230000
#052381:0000000000000013
#0533b1:00230000
#053371:0000000000000013
#0543b1:0023000000000000
#054320:0013000000000000
#054360:0000002300000000
#0543b0:0000000000130023
#055320:0000000000000013
#056360:0053000000000000
#056320:0000002300000000
#067320:00000013
#068360:23
#0683b0:00000013
#069370:23
#069320:0000000000130000
#069350:0000000000005323
#0693b1:0000000000130000
#069381:0000000000005323
#070321:00000013
#070361:0000000000000053
#071321:23
#0713b1:00000013
#071371:0000000000000053
#0723b1:23
#072321:00000013
#072361:0000000000000053
#073321:23
#0733b1:0000000000000013
#0743b1:0023000000000000
#074321:0000000000130023
#0753b1:0000000000000013
#076371:0033003300230000
#077321:0000000000000013
#078361:0053005300230000
#078351:00000053005300530053000000000000
#078341:00535300
#079321:13
#079361:00230000
#080321:0000000000000013
#081321:0023000000000000
#084361:0000000000000013
#085321:53
#085361:0023000000000000
#085371:0000001300230000
#0853b1:0053
#086351:13230000
#086321:0033000000000000
#086380:00133333
#0863b0:0000003300330033
#087380:23
#086351:00001333
#086321:0000000000330033
#087351:23
#0873b1:0000000000000013
#088371:0033000000000000
#0883b1:0000002300000000
#089321:0000000000000013
#090361:0023000000000000
#024960:00130000
#024920:0023
#024970:00000013
#0259b0:23
#066970:00130000
#0669b0:0023
#066960:00000013
#067920:23
