This file was generated by Ched 2.7.0.0.
#TITLE ""
#ARTIST ""
#DESIGNER ""
#DIFFICULTY 0
#PLAYLEVEL
#SONGID ""
#WAVE ""
#WAVEOFFSET 0
#JACKET ""
#REQUEST "ticks_per_beat 480"
#00002: 4
#BPM01: 195
#00008: 01
#TIL00: ""
#VOLUME: ""
#HISPEED 00
#MEASUREHS 00
#00518:13
#00515:00130013
#0051b:0000001300001300
#0091b:0000001300000000
#00912:2313
#00918:0013000000130000
#0091a:0000000000000014
#00915:00130013
#00910:41
#02318:13131313
#0251b:00001313
#02515:0000001300130000
#02510:41
#02418:00002313
#0241b:23130000
#02412:0000001300230000
#02415:0023000000000000
#04418:0014000000000014
#0441a:0000001400140000
#04412:24
#04414:00240024
#04416:0024
#0461b:0000000000000013
#04616:0014000000000000
#04612:0000001400000000
#04614:0034
#04715:13
#04718:0013001300003313
#04712:00130000
#0471b:0000000033130000
#04215:00000013
#0421b:0000000000130013
#04216:0024000000000000
#04212:0000002400000000
#04315:00000013
#0431b:0000000000130013
#04312:0013001300000000
#04318:00130000
#05615:0013
#05618:0000000000130000
#05612:0000000000000013
#0561b:0000001300000000
#05916:0000000000120000
#0591a:1200000000000012
#05914:12
#06016:0012
#06114:12
#0611a:12
#06118:0000000000120000
#09118:1313
#09112:0013000000130000
#09115:0000001300000000
#0911b:00130013
#09218:0000000000000013
#09315:13130000
#09318:0013000000000000
#0931b:0000001300130000
#09312:00001313
#05718:13
#05715:0013001300003313
#0571b:00130000
#05712:0000000033130000
#01112:0000000000130000
#01115:0000130000000013
#0111b:0013000000000000
#01118:0000001300001300
#04115:00001313
#04118:0000000000130000
#04112:24
#0411a:0000240000000024
#04110:41
#03912:0013000000000000
#03918:00130013
#03915:0000001300130000
#0391b:0013
#09015:0000000013000013
#09018:0000001300000000
#0901b:0000000000130000
#0651a:1200000000000014
#06514:12
#06516:0000000000120000
#01012:0000000000000014
#01018:0014000000000000
#01016:0000001400000000
#01014:0000000000140000
#02112:00131313
#02215:13131313
#02612:0000001300130000
#02618:00001313
#05412:0000000000000013
#05416:0014000000000000
#0541a:0000001400000000
#05418:0034
#05518:13
#05513:0013000000000000
#05519:00130000
#05516:0000000000000013
#05514:0000001300000000
#0551a:0013
#05515:0000000000130000
#0551b:00000013
#06318:0000000000120000
#06314:1200000000000012
#0631a:12
#06418:0012
#06614:0014000000000000
#0661a:00140000
#06613:0000001400000000
#06619:0014
#06612:0000000000140000
#06618:00000014
#07118:00001313
#07115:0000001300130000
#0711f:11
#0711b:00230000
#07215:00001313
#07218:0000001300130000
#07212:00230000
#06718:00001313
#06715:0000001300130000
#06712:24
#0671b:00230000
#06710:41
#07015:0013001300001300
#07018:00231300
#06815:00001313
#06818:0000001300130000
#06812:00230000
#06915:0000001300000000
#06918:0000230000130000
#07315:0000001300130000
#07318:00001313
#07312:0000000000000024
#0731b:00230000
#0741b:0013000000000000
#07417:0000001300000000
#07414:0000000000000022
#07419:00333300
#07512:16161616
#07514:0012001200120000
#0761a:0014000000000000
#07616:0000001400000000
#07612:0000000000140000
#08417:00000014
#08412:0000000000140014
#08416:0024000000000000
#0841a:0000002400000000
#08410:41
#08517:00000014
#08512:0000000000140014
#0851a:0014001400000000
#08515:00140000
#08318:00001313
#08315:0000000000130000
#0831a:24
#08312:0000240000000024
#0831f:21
#00612:0000001300001300
#00618:00130013
#01312:0000001300000014
#0131b:2313
#01315:0013000000130000
#01318:00130013
#0151b:0000000000130000
#01518:0000130000000013
#01512:0013000000000000
#01515:0000001300001300
#0141a:0000000000000014
#01414:0014000000000000
#01416:0000001400000000
#01418:0000000000140000
#01715:00000013
#01718:0000000000000013
#01719:0033003300000000
#0181b:00130000
#01815:1300001300000013
#01818:00001313
#01812:0000000000130000
#01914:00000014
#0191a:0000000000000014
#01919:0033003300000000
#02017:00000014340000000000000000000000
#0201a:0000000014340000
#02018:0034003400000000
#02019:00000034
#03715:13
#03718:0000130000540000
#03712:0000001300000000
#0371a:0000000000000054
#03719:00000054
#0361b:0033133300000013
#03612:0033133300000000
#03818:0000000000130013
#03815:00000013
#03814:0064000000000000
#03813:00640000
#03812:0000006400000000
#05214:0014000000000014
#05212:0000001400140000
#0521a:24
#05218:00240024
#05216:0024
#05018:00000013
#05012:0000000000130013
#05016:0024000000000000
#0501a:0000002400000000
#05118:00000013
#05112:0000000000130013
#0511b:0013001300000000
#05115:00130000
#04918:00001313
#04915:0000000000130000
#0491a:24
#04912:0000240000000024
#02818:0013001300000000
#02815:00130000
#02812:00000013
#02814:0000000000330000
#02715:0000000000130000
#0451a:0000000000000014
#04518:0000001300130000
#04515:00001313
#04512:24
#05312:0000000000000014
#05315:0000001300130000
#05318:00001313
#0531a:24
#05310:41
#0811b:0013000000000000
#08115:00130013
#08118:0000001300130000
#08112:0013
#07918:13
#07915:00130000
#0791b:0000001300000000
#07912:0000000000000054
#07913:00000054
#07914:0000000000540000
#07812:0014000000000013
#07816:0000001400000000
#0781a:0000000000140000
#08015:0000000000130013
#08018:0064000000001300
#08019:00640000
#0801a:0000006400000000
#08712:0000000000000014
#08715:0000001300130000
#08718:00001313
#0871a:24
#08816:0014000000000000
#0881a:0000001400000000
#08812:0000000000000013
#08818:0034
#08918:13
#08913:0013000000000000
#08919:00130000
#08916:0000000000000013
#08914:0000001300000000
#0891a:0013
#08915:0000000000130000
#0891b:00000013
#03012:00001313
#03018:0000001300130000
#03518:1333333333333313
#0351b:00000000000000130000000000000000
#03515:0000000000000013
#03315:1333333333333313
#03312:00000000000000130000000000000000
#03318:0000000000000013
#03415:0000000000000013
#0341b:0033133300000000
#03412:0033133300000000
#03218:0000000000000013
#03216:0000001300000000
#03212:0013000000000000
#03214:00333300
#03115:00001313
#03118:0000001300130000
#0311a:0000000000000024
#0291b:0000001300130000
#02915:00001313
#0401a:0000002400000000
#04014:0024
#04013:00000024
#04018:0000000000000024
#04019:0000000000240000
#08214:0000002400000000
#08218:0024
#08219:00000024
#08212:0000000000000024
#08213:0000000000240000
#0861a:2424
#08618:00240024
#08614:0024000000240000
#08612:0000002400000024
#04812:0000002400000000
#04818:0024
#04819:00000024
#04814:0000000000000024
#04813:0000000000240000
#00716:0034003400340034
#00816:0034003434000000
#09416:0034003400000000
#0255b:13000053
#02458:00000053
#04758:0000006300000063
#0475b:0000000000630000
#04152:14
#0415a:00140000
#07352:1300000000000014
#04552:14
#06752:14
#06758:00000063
#0655a:0000000000000014
#00856:00000014
#02658:13000063
#0275b:13
#02755:0000000000630000
#02752:0000000000000013
#05556:0000000000000053
#05755:0000005300000053
#05752:0000000000530000
#05852:0013
#07158:00000063
#07152:13
#07255:00000053
#0725b:13
#07055:00000063
#0745b:0063000000000000
#07457:0000002300000000
#07454:0000000000000022
#07554:0022002200220000
#07552:56565656
#08452:0000000000000014
#0855a:0000001400000000
#0835a:14
#08352:00140000
#0875a:14
#09456:0014
#00558:13
#0195a:0000000000000054
#02057:00000024000000000000000000000000
#0205a:0054
#0495a:14
#04952:00140000
#0535a:14
#02852:00000053
#02955:13000053
#04652:0000005400000000
#0545a:0000006400000000
#0885a:0000006400000000
#08956:0000000000000053
#03852:0000001400000000
#0375a:0000000000000014
#0695b:0000000000000013
#06958:0000000000530000
#06952:13
#06855:00000053
#0685b:13
#0805a:0000001400000000
#07952:0000000000000014
#03052:13000063
#03558:6300000000000063
#0355b:00000000000000230000000000000000
#03555:0000000000000053
#03355:5300000000000053
#03352:00000000000000230000000000000000
#03358:0000000000000063
#03652:00230000
#0365b:00230000
#0345b:00230000
#03452:00230000
#03256:0000002300000000
#03252:0053000000000000
#0315a:0000000000000014
#03155:13
#001380:1300333300002300
#002350:1300333300002300
#0033b0:1300333300002300
#004320:1300333300002300
#007350:16
#007360:0034003400340034
#008360:0034003434002400
#0123a0:14000024
#012390:0034000000340000
#012380:00343400
#012370:0000003400000000
#016320:14000024
#016330:0034000000340000
#016340:00343400
#016350:0000003400000000
#0173b0:1323
#017390:0033003300000000
#017380:00330000
#0193b0:1323
#019390:0033003300000000
#019380:00330000
#0193a0:0000000000000014
#020380:0034003400000000
#020370:00000054340000000000000000003400
#0203a0:0000000034340000
#020390:00000034
#021370:24
#024380:00000013
#0253b0:23
#0253b0:00000013
#026380:23
#026380:00000013
#0273b0:23
#027320:0000130000000023
#027330:0000003300000000
#027340:0033
#027350:0000000000330000
#028350:0013
#028340:0000000000330000
#028320:00000033
#029350:23
#029350:00000013
#030320:23
#030320:00000013
#031350:23
#032320:0013000000230000
#032340:00333300
#032360:0000003300000000
#033350:1333333333333333
#033320:00000000000000530000000000000000
#034320:0033533300000000
#034350:0000000000230000
#033381:0000000000000013
#0343b1:0033533300000000
#034381:0000000000230000
#035381:1333333333333333
#0353b1:00000000000000530000000000000000
#0363b1:0033533300000000
#036381:0000000000230000
#035350:0000000000000013
#036320:0033533300000000
#036350:0000000000230000
#039320:0000000000000013
#040320:0023000000000000
#046320:0000001400000000
#046340:0034
#046350:0000000000240000
#047380:0000001300003333
#0473b0:0000000033330000
#0483b0:00230000
#0543a0:0000001400000000
#054380:0034
#054370:0000000000240000
#055360:0000000000000013
#056320:00230000
#057350:0000001300003333
#057320:0000000033330000
#058320:0023
#061360:0000000000000012
#062360:0032323232322200
#067380:00000013
#0683b0:23
#068350:00000013
#069320:23
#069380:0000000013330000
#0693b0:0000000000000023
#070350:0000000000133300
#071320:23
#071380:00000013
#0723b0:23
#072350:00000013
#073320:23
#0743b0:0013000000230000
#074390:00333300
#074370:0000003300000000
#074340:0000000000000012
#075320:36363636
#075340:0032003200320022
#0763a0:0000000000000014
#077370:3434000034340000
#0773a0:0000343400003424
#0813b0:0000000000000013
#0823b0:0023000000000000
#0883a0:0000001400000000
#088380:0034
#088370:0000000000240000
#089360:0000000000000013
#090320:00230000
#091350:0000000000000013
#092320:0033000000230000
#092350:0000003300000000
#093350:0000000000000016
#094360:0034003424000000
#037980:0000000000140000
#0379a0:0000000000000024
#038940:0014000000000000
#038920:0000002400000000
#079940:0000000000140000
#079920:0000000000000024
#080980:0014000000000000
#0809a0:0000002400000000
