This file was generated by Ched 2.7.0.0.
#TITLE ""
#ARTIST ""
#DESIGNER ""
#DIFFICULTY 0
#PLAYLEVEL
#SONGID ""
#WAVE ""
#WAVEOFFSET 0
#JACKET ""
#REQUEST "ticks_per_beat 480"
#00002: 4
#BPM01: 195
#00008: 01
#TIL00: ""
#VOLUME: ""
#HISPEED 00
#MEASUREHS 00
#00112:00000012
#0011a:12
#00118:0000121200000000
#0011c:0000121200001200
#00218:12
#00216:0000121200000000
#0021a:0000121200000000
#00212:00000012
#0021c:00000012
#00512:0000131300001300
#00517:0000131300001300
#0051b:0000000000130000
#00518:16
#00612:1300000000130000
#00616:0000131300001300
#0061b:0000131300001300
#00915:00001300000000130000130000000000
#0091b:2300001300002313
#00912:13230000
#00918:00131300
#00916:0000000000000013
#00910:41
#0191c:1212
#0191a:0012000000000000
#01912:00120013
#01916:14141414
#01914:0000001200000000
#0191b:0000000000000013
#02214:0000000000140000
#02216:0000000000000014
#0221b:0013
#02212:12121212
#0231c:12121212
#02316:0000000000000014
#02312:1300000000130013
#02318:0000000000140000
#02416:0013130000000000
#02417:0000001300130000
#0241b:2323000053001313
#02415:00000000000000000000000000130013
#02412:0000005323230000
#02414:00000000005300000000000000000000
#02419:00000000000000530000000000000000
#02116:0000000000000014
#02112:12121212
#02114:0000000000140000
#0211b:0000000000130013
#02512:00130013
#0251b:2300130013000013
#02514:0000001300000000
#02516:0013
#02517:00000013
#02519:0000000000130000
#02510:41
#02615:13
#02612:0000130013000013
#0261b:00130013
#02619:0000001300000000
#02617:0013
#02616:00000013
#02614:0000000000130000
#02718:13160000
#02712:0000130016130000
#02715:0000001600000013
#02812:0014001400000000
#0281a:0014001400000000
#02816:0000140014140000
#03016:0000000014000012
#03012:0000130000141300
#03017:00130000
#0301a:0000001400000000
#0301b:00000013
#03018:0000000000000012
#03116:00131414
#0311b:00130000
#03112:0000001400000026
#0311a:0000000000140000
#03118:0000000000000016
#03317:1300001222000000
#03312:13
#0331b:00000000000000000012000000000000
#03315:00000000000000000012000000000000
#03319:0022
#0391b:0013230023230000
#03918:0000001300000012
#03915:00000000000000130013000013000000
#03916:0013000000000000
#03912:00130000
#04116:0014000013000013
#04114:0000000000130000
#04117:00000013
#0411b:0000000013000013
#04112:24000013
#04119:0000000000130000
#0411a:24240000
#04110:41
#0441b:1313000000000000
#0441a:00001414
#04412:1400140013130000
#04416:0000000000001313
#04417:0000131300000000
#04516:000000000000000000140000140000140000140000140014
#0451a:1400000000000000000000000000000000000000000000000000000000540000
#04512:2400130000001313
#0451b:0013
#04518:00000000000000000000000000000000000000000000000000000000000000000000000000000000000000000000000000000000000000000054000000000000
#04712:0000000000130013
#04716:00001313
#0471b:13130000
#04717:0013000000000000
#04217:1300000013131713
#0421b:0000001300000000
#04212:0013000000000000
#04216:00130000
#04316:0013001300000013
#04312:0000170000131300
#0431b:00000013
#06316:0000000000000012
#06314:0000000000120000
#0631a:00545454
#06516:1200000000121400
#0651b:0000000000120000
#06512:0000000000000012
#0651a:54545400
#06719:0000001300000000
#0671b:0000130000131300
#06717:0000000013000013
#06712:0013
#06716:00230023
#0671a:24
#06710:41
#06816:1300000013000013
#06814:0000001300000000
#06812:0000130000131300
#0681b:0013
#06817:00230023
#0691b:00130013
#06919:0000001300130000
#06917:1313
#06918:0000000000000013
#06914:0000000000130000
#06915:00000000000000130000000000001300
#06912:00230023
#07018:00001300000000130000000000000000
#07016:00001323
#07012:0000130000130063
#0701b:00230013
#07014:00000000000013000000000000630063
#07017:0000000000230053
#07019:00000000000000000000000000530053
#07116:6300241400142414
#0711b:5313
#07112:00131313
#0711f:11
#07118:00000000000000000000000000000000005400000000000000000000000000000000000000000000000000000000000000540000000000000000000000000000
#0711a:0000000000000000005400000000000000000000000000000054000000000000
#05712:12
#05716:00121212
#05714:0012001200000000
#05718:0000000000120000
#0571b:1300000000000013
#0741b:0013000000000000
#07418:0000131313000000
#07415:00000000001300130000000000000015
#07412:0013000000242400
#07417:0000000000000021
#0741a:0000000000242400
#07715:14140000
#07717:00001414
#0771b:0000000000000013
#01218:1313
#01215:0013001300000013
#0121b:0000130000232300
#01212:1300230000232300
#0581b:0013001313000000
#05812:0000000000232300
#05817:0000000000232300
#06616:00001400001400140000140000140014
#06612:1400141414000000
#0661a:1400000000001414
#04018:0012001212000024
#04012:0024
#04014:0000000000240000
#04016:00000024
#08616:0014001400000000
#0861a:1414240000000000
#08612:2400000000000000000000000000000000000000000000000000000000000000000000000000000000000000000000000000000000000000000000000000000000000000000000000000000000000000000000000000000000000000000000000000000000000000000000000000000000000000000000000000000000000000000000000000000000000000000000000000000000000000000000000000000000000000000000000000000000000000000000000000000000000000000000000000000000000000000000000000000000000000000000000000000000000000000000000000000000000000000000000000000000000000000000000000000000000000000000000000000000000000000000000000000000000000000000000000000000000000000000000000000000000000000000000000000000000000000000000000000000000000000000000000000000000000000000000000000000000000000000000000000000000000000000000000000000000000000000000000000000000000000000000000000000000000000000000000000000000000000000000000000000000000000000000000000000000000000000000000000000000000000000000000000000000000000000000000000000000000000000000000000000000000000000000000000000000000000000000000000000000000000000000000000000000000000000000000000000000000000000000000000000000000000000000000000000000000000000000000000000000000000000000000000000000000000000000000000000000000000000000000000000000000000000000000000000000000000000000000000000000000000000000000000000000000000000000000000000000000000000000000000000000000000000000000000000000000000000000000000000000000000000000000000000000000000000000000000000000000000000001400000000000000000000000000000000000000000000000000000000000000000000000000000000000000000000000000000000000000000000000000000000000000000000000000000000000000000000000000000000000000000000000000000000000000000000000000000000000000000000000000000000000000000000000000000000000000000000000000000000000000000000000000000000000000000000000000000000000000000000000000000000000000000000000000000000000000000000000000000000000000000000000000000000000000000000000000000000000000000000002400000000000000000000000000000000000000000000000000000000000000000000000000000000000000000000000000000000000000000000000000000000000000000000000000000000000000000000000000000000000000000000000000000000000000000000000000000000000000000000000000000000000000000000000000000000000000000000000000000000000000000000000000000000000000000000000000000000000000000000000000000000000000000000000000000000000000000000000000000000000000000000000000000000000000000000000000000000000000000000000000000000000000000000000000000000000000000000000000000000000000000000000000000000000000000000000000000000000000000000000000000000000000000000000000000000000000000000000000000000000000000000000000000000000000000000000000000000000000000000000000000000000000000000000000000000000000000000000000000000000000000000000000000000000000000000000000000000000000000000000000000000000000000000000000000000000000000000000000000000000000000000000000000000000000000000000000000000000000000000005c73000000000000000000000000000000000000000000000000000000000000000000000000000000000000000000000000000000000000000000000000000000000000000000000000000000000000000000000000000000000000000000000000000000000000000000000000000000000000000000000000000000000000000000000000000000000000000000000000000000000000000000000000000000000000000000000000000000000000000000000000000000000000000000000000000000000000000000000000000000000000000000000000000000000000000000000000000000000000000000735c0000000000000000000000000000000000000000000000000000000000000000000000000000000000000000000000000000000000000000000000000000000000000000000000000000000000000000000000000000000000000000000000000000000000000000000000000000000000000000000000000000000000000000000000000000000000000000000000000000000000000000000000000000000000000000000000000000000000000000000000000000000000000000000000000000000000000000000000000000000000000000000000000000000000000000000000000000000000000000000000
#0861b:000000000000000000000000000000000000000000000000000000000000000000000000000000000000000000000000000000000000000000000000000000000000000000000000000000000000000000000000000000000000000000000000000000000000000000000000000000000000000000000000000000000000000000000000000000000000000000000000000000000000000000000000000000000000000000000000000000000000000000000000000000000000000000000000000000000000000000000000000000000000000000000000000000000000000000000000000000000000000000000000000000000000000000000000000000000000000000000000000000000000000000000000000000000000000000000000000000000000000000000000000000000000000000000000000000000000000000000000000000000000000000000000000000000000000000000000000000000000000000000000000000000000000000000000000000000000000000000000000000000000000000000000000000000000000000000000000000000000000000000000000000000000000000000000000000000000000000000000000000000000000000000000000000000000000000000000000000000000000000000000000000000000000000000000000000000000000000000000000000000000000000000000000000000000000000000000000000000000000000000000000000000000000000000000000000000000000000000000000000000000000000000000000000000000000000000000000000000000000000000000000000000000000000000000000000000000000000000000000000000000000000000000000000000000000000000000000000000000000000000000000000000000000000000000000000000000000000000000000000000000000000000000000000000000000000000000000000000000000000000000000000000000000000000000000000000000000000000000000000000000000000000000000000000000000000000000000000000000000000000000000000000000000000000000000000000000000000000000000000000000000000000000000000000000000000000000000000000000000000000000000000000000000000000000000000000000000000000000000000000000000000000000000000000000000000000000000000000000000000000000000000000000000000000000000000000000000000000000000000000000000000000000000000000000000000000000000000000000000000000000000000000000000000000000000000000000000000000000000000000000000000000000000000000000000000000000000000000000000000000000000000000000000000000000000000000000000000000000000000000000000000000000000000000000000000000000000000000000000000000000000000000000000000000000000000000000000000000000000000000000000000000000000000000000000000000000000000000000000000000000000000000000000000000000000000000000000000000000000000000000000000000000000000000000000000000000000000000000000000000000000000000000000000000000000000000000000000000000000000000000000000000000000000000000000000000000000000000000000000000000000000000000000000000000000000000000000000000000000000000000000000000000000000000000000000000000000000000000000000000000000000000000000000000000000000000000000000000000000000000000000000000000000000000000000000000000000000000000000000000000000000000000000000000000000000000000000000000000000000000000000000000000000000000000000000000000000000000000000000000073000000000000000000000000000000000000000000000000000000000000000000000000000000000000000000000000000000000000000000000000000000000000000000000000000000000000000000000000000000000000000000000000000000000000000000000000000000000000000000000000000000000000000000000000000000000000000000000000000000000000000000000000000000000000000000000000000000000000000000000000000000000000000000000000000000000000000000000000000000000000000000000000000000000000000000000000000000000000000000000000007300000000000000000000000000000000000000000000000000000000000000000000000000000000000000000000000000000000000000000000000000000000000000000000000000000000000000000000000000000000000000000000000000000000000000000000000000000000000000000000000000000000000000000000000000000000000000000000000000000000000000000000000000000000000000000000000000000000000000000000000000000000000000000000000000000000000000000000000000000000000000000000000000000000000000000000000000000000000000000000
#00316:12
#00314:0000121200000000
#00318:0000121200000000
#00312:00000012
#0031c:00000012
#00712:1313000000000013
#00717:1313000000000000
#0071b:0000001300130013
#00716:0000001300130000
#00817:0000001313001200
#00812:0013001313000000
#0081b:0013000000232300
#00414:12
#00412:0000121200001200
#00416:0000121200000000
#0041c:00000012
#01116:1300000000131300
#01112:0000231300000013
#01117:0013130013000000
#0111b:0000001300002300
#01814:0000000000000012
#01812:0014
#01818:0000001200001200
#01816:0000120000120000
#0181a:0014
#01817:52
#03217:0000000000000013
#03212:0013000000242400
#0321b:0013000000000000
#03218:00131300
#03215:00000000001300000013000000000000
#0321a:0000001300242400
#03213:00000000000000130000000000000000
#03417:0000001222000000
#03416:13
#0341b:13
#03412:0000000000120000
#0341a:0000000000120000
#03415:0022
#0481b:0013000000001300
#04816:0000130000000014
#04818:00000000001300000000000000000000
#04817:00000000000000130000000000000000
#04815:0000001300000000
#04814:0013
#04819:0000000000130000
#04812:0000000000242400
#03719:00000013
#03717:0000001300130000
#03716:0000000000000014
#0371b:0000131300000013
#03712:1300000000140000
#03714:00000014
#03718:26
#03512:0000001300000000
#0351b:13
#03516:13
#03515:0022
#03517:0022
#0361b:0000001300000000
#03612:1300000000000013
#03617:1322
#03619:0022
#0171a:00130000
#01715:0016000000000000
#01713:00130000
#01712:23
#0171b:23
#01717:0000000000005252
#02912:0000001400000012
#02916:00131400
#02915:00000013
#0291b:00130000
#0291a:0000000000140000
#02918:00000013
#0291c:0000000000000012
#07613:0000001300000000
#0761b:0013000000000000
#0461a:0000000000540000000000001400000000000000000000000000000000000000
#04616:000000140014000000000000140000000000000000000000
#04612:0013000000140000
#04617:00000013
#04618:00000000000000000054000000000000000000000000000000000000000000000000000000000000000000000000000000000000000000000000000000000000
#07512:00000000000000150000000000001300
#07519:00150000210000000015000021000000
#07513:00000015000000000000001500000000
#07517:00000000001500000000000000150000
#0751b:2121
#07515:0021000000210000
#07514:0000002100000000
#08416:0013000000130000
#08412:0000002400001417
#08417:0000001300000000
#0841a:0024000000000000
#08410:41
#08317:0000000013000013
#08319:0000000000130000
#08316:00000013
#0831b:00000013
#08312:2400260013000024
#08314:0000000000130000
#0831a:24
#08318:00260000
#0831f:21
#0591c:1200000000000012
#05912:1300000000000012
#05918:0000000000120000
#05914:0000000000120000
#06016:0012
#06012:0012
#06112:12
#06114:0000000000120000
#06116:0000000000000012
#06118:0000000000120016
#0611c:12
#01318:00001300000000130000130000000000
#01312:2300001300002313
#0131b:13230000
#01315:00131300
#01317:0000000000000013
#01618:0013001300000013
#0161b:1300230000232300
#01615:1313
#01612:0000130000232300
#0141b:00230013
#01412:0013000013000000
#01416:0000130000002313
#01419:0000001300130000
#01417:0013
#01414:0000000000130000
#0151b:0013230013000013
#01512:1300000000132300
#01516:00130000
#01517:0000001300001300
#0101b:0013000000002313
#01017:0000001300000000
#01014:00000013
#01016:0000000000130000
#01012:0000231300000013
#01019:00130000
#03812:0000002400131313
#0381b:0023000000000000
#03816:0024000000000000
#03814:00240000
#03819:00250000
#03817:0000002700000000
#04917:0000000013000013
#04919:0000000000130000
#04916:0014000000001300
#04912:2400240013000013
#0491b:00000013
#04914:0000000000130000
#0491a:24
#05212:13141314
#05216:0013000000130000
#05217:0000001300000013
#0521a:1414
#0521b:00130013
#05316:0000001414141413
#05312:14001313
#0531b:0000130000130013
#0531a:24
#05310:41
#05016:1300000013130013
#05012:0000001300001700
#0501b:0013000000000000
#05017:00130000
#05117:0013171300000013
#0511b:0000000000131300
#05112:00000013
#0551b:0000000000130013
#05517:00001313
#05512:13130000
#05516:0013000000000000
#0541b:000000130000000000130013001300000000000000000000
#05412:13130000
#0541a:000000000000000000000000000000000000001300130013001300130013000000000000000000000000000000000000
#05416:000000130000000000130013001300000000000000000000
#05419:000000000013131300000000
#05417:13
#05415:000000000000000000000000000000000000001300130013001300130013000000000000000000000000000000000000
#05414:000000000013131300000000
#05612:0013000000001300
#05617:00130000
#05615:00000000001300000000000000000000
#05616:00000000000000130000000000001400
#05618:0000001300000000
#05619:0013
#05614:0000000000130000
#0561a:0000000000242400
#07216:1400241400142414
#0721b:00131313
#07212:0000000000000000005400000000000013000000000000000054000000000000
#07214:00000000000000000000000000000000005400000000000000000000000000000000000000000000000000000000000000540000000000000000000000000000
#07312:000023001415162c
#07318:00000016
#07319:0000000000150000
#07316:14000000000014140000000000000000
#0731a:0014
#0731b:00230000
#0781a:0000001300000000
#07812:0013000000000000
#0781b:0000000000000013
#08214:0012000000000000
#08212:0000001212002400
#08217:00000012
#0821a:0024
#08216:0000002400240024
#08116:0000000000000012
#08115:0000001300000000
#08118:00000000000000130013000013000000
#08117:0013000000000000
#0811b:00130000
#08112:0000230023230000
#08512:000000000000191b
#08517:0013171700000000
#08516:0000000000130000
#08716:000000000000000000140000140000140000140000240014
#08712:0000000000000000000000000000000013000000000000000000000000640000
#0871b:0000130000001323
#08714:00000000000000000000000000000000000000000000000000000000000000000000000000000000000000000000000000000000000000000064000000000000
#0891b:0000000000130013
#08917:00001313
#08912:13130000
#08916:0013000000000000
#0881a:0000000000140000
#0881b:0013000000000000
#08816:000000240014000000000000240000000000000000000000
#08812:0000000000640000000000002400000000000000140000000000000000000000
#08814:00000000000000000064000000000000000000000000000000000000000000000000000000000000000000000000000000000000000000000000000000000000
#09012:0013000000140000
#0901a:00140014
#09016:00000000001400001400240024005400
#09014:00000000000000140000000000000000
#09018:00000000000014000000000000540054
#09019:0000000000000000000000000000000000000000000000000054000000000054
#09017:0000000000000000000000000000000000000000000000000000005400540000
#09414:0012001212000000
#09418:0012000000000000
#0941a:0000001212000000
#09112:1200000000120000
#0911c:00120012
#09116:00230023
#0911a:54
#09212:0012000000120000
#0921c:00120012
#09216:00230023
#09312:12120012
#0931c:1200000000120000
#0931a:0000000000000012
#09314:0000000000000012
#09317:00230023
#06218:0014000014000000
#0621a:00140000
#06216:0000001400001400
#06214:0000000000140000
#06212:0000000000000014
#06412:0012
#0641a:54545454
#07914:00000013
#07916:0000001300130014
#07912:2600131300000013
#0791a:0000000000140000
#07918:00000014
#0791b:13
#0801b:0000000000131313
#08012:0023252700000000
#08016:0024000000000000
#08018:00240000
#0801a:0000002400000000
#0255b:1300000000000023
#02557:00000053
#02656:00000053
#02652:0000000000000023
#02658:33
#02655:33
#03357:6362
#0335b:00000000000000000022000000000000
#03355:00000000000000000022000000000000
#03359:0062
#04752:0000000000000063
#04757:0000000000000013
#0415b:0000000000000053
#0415a:44
#04156:0024000000000033
#04152:64340000
#0425b:0043005300000000
#04257:2300000023000053
#04252:0063003300000000
#04256:00230000
#08656:0024002400000000
#08652:64346400
#0865a:44644400
#00857:00000012
#01258:1313
#0125b:00130000
#02952:3400000000000022
#0295a:44
#02955:00000053
#02958:00000063
#0295c:0000000000000022
#03456:53
#03452:0000000000220000
#0345a:0000000000220000
#03457:0052
#03455:0052
#04356:0000006300000000
#04452:34340000
#0445a:00004444
#0355b:53
#03652:63
#02352:0000000000000033
#0675b:00000063
#06757:0000000000000023
#0675a:14
#06958:0000000000000013
#06955:0000000000000013
#06952:33
#06957:43
#0095b:43
#00956:0000000000000053
#07653:0000006300000000
#0765b:0063000000130000
#07657:0000000000130000
#07552:00000000000000550000000000006300
#07559:00650000210000000065000021000000
#07553:00000055000000000000005500000000
#07557:00000000006500000000000000650000
#0755b:2121
#07555:0021000000210000
#07554:0000002100000000
#07455:00000000000000000000000000000055
#07457:0000000000000021
#07452:0000000000140000
#0745a:00000014
#03756:0000000000000014
#0375b:0000003300000013
#03757:0000003300000000
#03752:63
#03758:16
#08456:0043000000000000
#0845a:0044000000000000
#08452:0000003400000067
#08457:0000003300000000
#08357:0000000000000033
#08352:3400360000000034
#08358:00460000
#0835a:44
#03158:0000000000000046
#03152:3300000000000036
#0315b:43
#06556:00000024
#0655b:0000000000620000
#0655a:0000000000000044
#00558:16
#01357:0000000000000063
#01352:33
#01752:33
#0175b:43
#01456:0000000000000053
#01552:23
#01557:0000006300000000
#0155b:0023
#01057:0000006300000000
#01052:0000000000000063
#01157:0023
#0115b:0000005300000000
#01156:23
#01655:1313
#01652:00130000
#02755:4300000000000013
#02758:4300000000000013
#02752:0000000000130000
#03055:13
#03058:1300000000000022
#0305b:00000053
#03052:00000063
#03056:0000000000000022
#03857:0000001700000000
#03852:0000001400000013
#03856:0000000000000013
#0455a:54
#04552:3400000000000063
#04556:000000000000000000000000000000000000000000000024
#04652:0063000000140000
#04656:000000000024000000000000000000000000000000000000
#0485b:00000043
#04859:0000000000430000
#05252:00340034
#0525a:4444
#04952:3400000000000063
#04957:0000000000000043
#04956:0024000000000000
#0495a:54440000
#05052:0033006300000000
#05056:2300000023000063
#0505b:0053004300000000
#05057:00230000
#05157:0000005300000000
#05352:64
#0535a:44
#05356:0000000000000053
#0535b:0000000000000053
#05556:0000000000000013
#0555b:0000000000000053
#0545b:000000530000000000230023002300130000000000000000
#05452:23230000
#0545a:000000000000000000000000000000000000005300630053006300630063000000000000000000000000000000000000
#05456:000000530000000000230023002300130000000000000000
#05459:000000000023232300000000
#05457:23
#05455:000000000000000000000000000000000000005300630053006300630063000000000000000000000000000000000000
#05454:000000000023232300000000
#05654:0000000000330000
#05652:00000033
#05952:13
#0685b:43
#06852:00000053
#06856:3300000000000023
#0715b:43
#07156:4300000000000024
#07152:00000053
#07352:000000000000001c
#0735b:43
#0785a:0000005300000000
#07852:0053000000130000
#07856:0000000000130000
#0775b:0000000000000053
#08557:0000005700000000
#0895b:0000000000000053
#08956:0000000000000013
#08756:140000000000000000000000000000000000000000000024
#0875b:1300000000000053
#0885b:0053000000000000
#08856:000000000024000000000000000000000000000000000000
#0885a:0000000000140000
#08852:0000000000140000
#08257:00000012
#06158:0000000000000056
#06258:0054000054000000
#0625a:00540000
#06256:0000005400005400
#06254:0000000000540000
#06252:0000000000000054
#07956:0000004300000014
#07952:1600004300000013
#0795b:53
#0805b:0000000000000013
#0805a:0000001400000000
#08052:0000001700000000
#08057:0000000000000013
#0915a:44
#07252:33
#0725b:00000063
#07256:0000000000000024
#009360:0000000000000013
#010320:0023000000000000
#010370:0000001300000000
#0103b0:0000000000230000
#010320:0000000000000013
#011360:53
#011320:0023000000000000
#0113b0:0000001300230000
#011370:0053
#013370:0000000000000013
#0143b0:0023000000000000
#014360:0000000000000013
#015320:53
#015360:0023000000000000
#015370:0000001300230000
#0153b0:0053
#017340:000000000000000000000000000000000000000000000000000000000000000000000000145200000000000000000052240000000000000000000000000000000000000000000000000000000000000000000000000000000000000000000000
#017381:0000001424000000
#0173a1:000000000000000000000000000000000000000000000000000000000000000000000000005200000000000000000052000000000000000000000000000000000000000000000000000000000000000000000000000000000000000000000000
#019361:0000000000000014
#020321:0024000000000000
#020360:0014000000000000
#0203a0:00240000
#020361:00140000
#020321:0000002400000000
#020360:0000001400000000
#0203a0:0024
#020361:0013
#020321:0000000000230000
#020370:0000000000130000
#0203b0:00000023
#020371:00000012
#020321:0000000000000022
#020370:0000000000000012
#0213c0:22
#025370:00000013
#0253b0:0000000000000053
#026380:23
#026360:00000013
#026320:0000000000000053
#027350:23
#0273b0:0000000000130000
#027380:00000000000000000000005300002300
#028320:00000014
#0293a0:24
#0283a1:00000014
#029321:24
#029351:00000013
#029321:0000000000000052
#030351:23
#029380:00000013
#0293c0:0000000000000052
#030380:23
#0303b0:00000013
#030380:0000000000000052
#0313b0:23
#030321:00000013
#030361:0000000000000052
#031321:23
#033371:13
#0333b1:0000002300000000
#033371:000000000000000000000000000000000000000000000000000000000000000000000000000000000000000000000000000000000000000000000000000000000000000000000000000000000000000000000000000000000000000000000000000000000000000000000000000000000000000000000000000000000000000000000000000000000000000000000000000000000000000000000000000000000000000000000000000000000000000000000000000000000000000000000000000000000000000000000000000000000000000000000000000000000000000000000000000000000000000000000000000000000000000000000000000000000000000000000000000000000000000000000000000000000000000000000000000000000000000000000000000000000000000000000000000000000000000000000000000000000000000000000000000000000000000000000000000000000000000000000000000000000000000000000000000000000000000000000000000000000000000000000000000000000000000000000000000000000000000000000000000000000000000000000000000000000000000000000000000000000000000000000000000000000000000000000000000000000000000000000000120000000000000000000000000000000000000000000000000000000000000000000000000000000000000000000000000000000000000000000000000000000000000000000000000000000000000000000000000000000000000000000000000000000000000000000000000000000000000000000000520000000000000000000000000000000000000000000000000000000000000000000000000000000000000000000000000000000000000000000000000000000000000000000000000000000000000000000000000000000000000000000000000000000000000000000000000000000000000000000054220000000000000000000000000000000000000000000000000000000000000000000000000000000000000000000000000000000000000000000000000000000000000000000000000000000000000000000000000000000000000000000000000000000000000000000000000000000000000000000000000000000000000000000000000000000000000000000000000000000000000000000000000000000000000000000000000000000000000000000000000000000000000000000000000000000000000000000000000000000000000000000000000000000000000000000000000000000000000000000000
#033351:00000000000000000000000000000000000000000000000000000000000000000000000052000000000000000058000000000000000000000000000000000000
#033381:000000000000000000000000000000000000000000000000000000000000000000000000000000000000000000000000000000000000000000000000000000000000000000000000000000000000000000000000000000000000000000000000000000000000000000000000000000000000000000000000000000000000000000000000000000000000000000000000000000000000000000000000000000000000000000000000000000000000000000000000000000000000000000000000000000000000000000000000000000000000000000000000000000000000000000000000000000000000000000000000000000000000000000000000000000000000000000000000000000000000000000000000000000000000000000000000000000000000000000000000000000000000000000000000000000000000000000000000000000000000000000000000000000000000000000000000000000000000000000000000000000000000000000000000000000000000000000000000000000000000000000000000000000000000000000000000000000000000000000000000000000000000000000000000000000000000000000000000000000000000000000000000000000000000000000000000000000000000000000000000000000000000000000000000000000000000000000000000000000000000000000000000000000000000000000000000000000000000000000000000000000000000000000000000000000000000000000000000000000000000000000000000000000000000000000000000000000000000000000000000000000000000000000000000000000000000000000000000000000000000000000000000000000000000000000000000000000000000000000000000000000000000000000000000000000000000000000000000000000000000000000000000000000000000000000000000000000000000000000000000000000000000000000000000000000000000000000000000000000000000000000000000000000000000000000000000000000000000000000000000000000000000000000000000000000000000000000000000000000000000000000000000000000000000000000000000000000000000000000000000000000000000000000000000000000000000000000000000000000000000000000000000000000000000000000000000000000000000000000000000000000000000000000000000000000000000000000000000000000000000000000000000000000000000000000000000000000000000000000000000000000000000000000000000000000000000000000000000000000000000000000000000000000000000000000000000000000000000000000000000000000000000000000000000000000000000000000000000000000000000000000000000000000000000000000000000000000000000000000000000000000000000000000000000000000000000000000000000000000000000000000000000000000000000000000000000000000000000000000000000000000000000000000000000000000000000000000000000000000000000000000000000000000000000000000000000000000000000000000000000000000000000000000000000000000510052000000000000000000000000000000000000000000000000000000000000000000000000000000000000000000000000000000000000000000000000000000000000000000000000000000000000000000000000000000000000000000000000000000000000000000000000000000000000000000000000000000000000000000000000000000000000000000000000000000000000000000000000000000000000000000000000000000000000000000000000000000000000000000000000000000000000000000000000000000000000000000000000000000000000000000000000000000000000000000000000000000000000000000000000000000000000000000000000000000000000000000000000000000000000000000000000000000000000000000000000000000000000000000000000000000000000000000000000000000000000000000000000000000000000000000000000000000000000000000000000000000000000000000000000000000000000000000000000000000000000000000000000000000000000000000000000000000000000000000000000000000000000000000000000000000000000000000000000000000000000000000000000000000000000000000000000000000000000000000000000000000000000000000000000000000000000000000000000000000000000000000000000000000000000000000000000000000000000000000000000000000000000000000000000000000000000000000000000000000000000000000000000000000000000000000000000000000000000000000000000000000000000000000000000000000000000000000000000000000000000000000000000000000000000000000000000000000000000000000000000000000000000000000000000000000000000000000000000000000000000000000000000000000000000
#033390:0000000000000000000000000000000000000000000000000000000000000000000000000000000000000000000000000000000000000000000000000000000012000000000000000000000000000000525100000000000000000000000000002200000000000000000000000000000000000000000000000000000000000000
#0333b0:00000000000000000052000000000000
#033380:000000000000000000000000000000000000005200000000000000000000
#033350:000000000000000000000000000000000000000000000000000000000000000000000000000000000000000000000000000000000000000000000000000000000000000000000000000000000000000000000000000000000000000000000000000000000000000000000000000000000000000000000000000000000000000000000000000000000000000000000000000000000000000000000000000000000000000000000000000000000000000000000000000000000000000000000000000000000000000000000000000000000000000000000000000000000000000000000000000000000000000000000000000000000000000000000000000000000000000000000000000000000000000000000000000000000000000000000000000000000000000000000000000000000000000000000000000000000000000000000000000000000000000000000000000000000000000000000000000000000000000000000000000000000000000000000000000000000000000000000000000000000000000000000000000000000000000000000000000000000000000000000000000000000000000000000000000000000000000000000000000000000000000000000000000000000000000000000000000000000000000000000000000000000000000000000000000000000000000000000000000000000000000000000000000000000000000000000000000000000000000000000000000000000000000000000000000000000000000000000000000000000000000000000000000000000000000000000000000000000000000000000000000000000000000000000000000000000000000000000000000000000000000000000000000000000000000000000000000000000000000000000000000000000000000000000000000000000000000000000000000000000000000000000000000000000000000000000000000000000000000000000000000000000000000000000000000000000000000000000000000000000000000000000000000000000000000000000000000000000000000000000000000000000000000000000000000000000000000000000000000000000000000000000000000000000000000000000000000000000000000000000000000000000000000000000000000000000000000000000000000000000000000000000000000000000000000000000000000000000000000000000000000000000000000000000000000000000000000000000000000000000000000000000000000000000000000000000000000000000000000000000000000000000000000000000000000000000000000000000000000000000000000000000000000000000000000000000000000000000000000000000000000000000000000000000000000000000000000000000000000000000000000000000000000000000000000000000000000000000000000000000000000000000000000000000000000000000000000000000000000000000000000000000000000000000000000000000000000000000000000000000000000000000000000000000000000000000000000000000000000000000000000000000000000000000000000000000000000000000000000000000000000000000000000000000000000000000000000000000000000000000000000000000000000000000000000000000000000000000000000000000000000000000000000000000000000000000000000000000000000000000000000000000000000000000000000000000000000000000000000000000000000000000000000000000000000000000000000000000000000000000000005800000000000000000000000000000000000000000000000000000000000000000000000000000000000000000000000000000000000000000000000000000000000000000000000000000000000000000000000000000000000000000000000000000000000000000000000000000000000000000000000000000000000000000000000000000000000000000000000000000000000000000000000000000000000000000000000000000000000000000000000000000000000000000000000000000000000000000000000000000000000000000000000000000000000000000000000000000000000000000000000000000000000000000000000000000000000000000000000000000000000000000000000000000000000000000000000000000000000000000000000000000000000000000000000000000000000000000000000000000000000000000000000000000000000000000000000000000000000000000000000000000000000000000000000000000000000000000000000000000000000000000000000000000000000000000000000000000000000000000000000000000000000000000000000000000000000000000000000000000000000000000000000000000000000000000000000000000000000000000000000000000000000000000000000000000000000000000000000000000000000000000000000000000000000000000000000000000000000000000000000000000000000000000000000000000000000000000000000000000000
#033370:000000000000000000000000000000000000000000000000000000000000000000000000000000000000000000000000000000000000000000000000000000000000000000000000000000000000000000000000000000000000000000000000000000000000000000000000000000000000000000000000000000000000000000000000000000000000000000000000000000000000000000000000000000000000000000000000000000000000000000000000000000000000000000000000000000000000000000000000000000000000000000000000000000000000000000000000000000000000000000000000000000000000000000000000000000000000000000000000000000000000000000000000000000000000000000000000000000000000000000000000000000000000000000000000000000000000000000000000000000000000000000000000000000000000000000000000000000000000000000000000000000000000000000000000000000000000000000000000000000000000000000000000000000000000000000000000000000000000000000000000000000000000000000000000000000000000000000000000000000000000000000000000000000000000000000000000000000000000000000000000000000000000000000000000000000000000000000000000000000000000000000000000000000000000000000000000000000000000000000000000000000000000000000000000000000000000000000000000000000000000000000000000000000000000000000000000000000000000000000000000000000000000000000000000000000000000000000000000000000000000000000000000000000000000000000000000000000000000000000000000000000000000000000000000000000000000000000000000000000000000000000000000000000000000000000000000000000000000000000000000000000000000000000000000000000000000000000000000000000000000000000000000000000000000000000000000000000000000000000000000000000000000000000000000000000000000000000000000000000000000000000000000000000000000000000000000000000000000000000000000000000000000000000000000000000000000000000000000000000000000000000000000000000000000000000000000000000000000000000000000000000000000000000000000000000000000000000000000000000000000000000000000000000000000000000000000000000000000000000000000000000000000000000000000000000000000000000000000000000000000000000000000000000000000000000000000000000000000000000000000000000000000000000000000000000000000000000000000000000000000000000000000000000000000000000000000000000000000000000000000000000000000000000000000000000000000000000000000000000000000000000000000000000000000000000000000000000000000000000000000000000000000000000000000000000000000000000000000000000000000000000000000000000000000000000000000000000000000000000000000000000000000000000000000000000000000000000000000000000000000000000000000000000000000000000000000000000000000000000000000000000000000000000000000000000000000000000000000000000000000000000000000000000000000000000000000000000000000000000000000000000000000000000000000000000000000000000000000000000000000000000000000000000000000000000000000000000000000000000000000000000000000000000000000000000000000000000000000000000000000000000000000000000000000000000000000000000000000000000000054000000000000000000000000000000000000000000000000000000000000000000000000000000000000000000000000000000000000000000000000000000000000000000000000000000000000000000000000000000000000000000000000000000000000000000000000000000000000000000000000000000000000000000000000000000000000000000000000000000000000000000000000000000000000000000000000000000000000000000000000000000000000000000000000000000000000000000000000000000000000000000000000000000000000000000000000000000000000000000000000000000000000000000000000000000000000000000000000000000000000000000000000000000000000000000000000000000000000000000000000000000000000000000000000000000000000000000000000000000000000000000000000000000000000000000000000000000000000000000000000000000000000000000000000000000000000000000000000000000000000000000000000000000000000000000000000000000000000000000000000000000000000000000000000000000000000000000000000000000000000000000000000000000000000000000000000000000000000000000000000
#034360:13
#034320:0000002300000000
#034370:00001222
#0343a0:0000000000520000
#034351:00001222
#034321:0000000000520000
#0353b1:13
#035371:0000002300000000
#035351:0012
#035321:000000000000000000000000000000000000000000000000000000000000000000000000000000000000000000000000000000000000000055000000000000000000000000550000000000000000000000000000000000000000000000000000
#035341:00000022
#035370:000000000000000000000000000000000000000000000000000000000000000000000000000000000000000000000000120000000000000055000000000000000000000000550000000000000000000000000000000000000000000000000000
#035380:00000022
#036320:13
#036360:0000002300000000
#036390:00000000000000000000000000000000000000000000000000000000000000001200000000000000005500005500550000000000000000000000000000000000
#0363a0:000000000000000000000000000000000000000000000000000000000000000000000000000000000000000000000000000000000000000000000000000000000000000000000000000000000000000000000000000000000000000000000000000000000000000000000000000000005400000000000000000000000000000000000000000000000054000000000000220000000000000000000000000000000000000000000000000000000000000000000000000000000000000000000000
#0363b0:000000000000000000000000000000000000000000000000000000000000000000000000000000000000000000000000000000000000000000000000000000000000000000000000000000000000000000000000000000000000000000000000000000000000000000000000000000000000000000000000000000000000005300000000000000000000000000000000000000000000000000000000000000000000000000000000000000000000000000000000000000000000000000000000
#036371:0012
#036341:000000000000000000000000000000000000000000000000000000000000000000000000000000000000000000000000000000000000000000000000000000000000000000000000000000000000000000000000000000000000000000000000000000000000000000000000000000005500000000000000005400000000005600000000540000000056550000000000000000000000000000000000000000000000000000000000000000000000000000000000000000000000000000000000
#036361:00000022
#037321:13
#037371:0053230000000000
#0383b1:0000000000130000
#038361:0000000000003323
#039321:0000000000000012
#040321:0000002200000000
#041321:14240000
#041361:0054000000000000
#0413b1:0000000000000013
#042371:53
#0423b1:0023000000000000
#042320:0013002300000000
#042360:00530000
#0423b1:0000001300230000
#042371:0053
#042371:0000000000000013
#043321:0023000000000000
#043361:0000001300000000
#0433b1:0000000000230000
#0453a1:14
#045361:00240000
#045321:0000000000000013
#045361:000000000000000000000000000000000000000000000054
#046321:0033002300000000
#046361:000000000054000000000000000000000000000000000000
#046321:0000000000000013
#047361:33330000
#047321:0033002300000000
#047370:0000001300330023
#0473b0:00003333
#047321:0000000000000013
#048371:0023000000000000
#0493a1:14240000
#049361:0054000000000000
#049321:0000000000000013
#050361:53
#050321:0023000000000000
#0503b0:0013002300000000
#050370:00530000
#050321:0000001300230000
#050361:0053
#050361:0000000000000013
#0513b1:0023000000000000
#051371:0000001300000000
#051321:0000000000230000
#053321:14
#053361:00240000
#053361:0000000000000013
#054321:53530000
#054361:000000330000000000330053005300230000000000000000
#054351:000000000000000000000000000000000000005300530053005300530053000000000000000000000000000000000000
#054341:000000000053535300000000
#0533b0:0000000000000013
#054370:53
#0543b0:000000330000000000330053005300230000000000000000
#0543a0:000000000000000000000000000000000000005300530053005300530053000000000000000000000000000000000000
#054390:000000000053535300000000
#0543b0:0000000000000013
#055370:33330000
#0553b0:0033002300000000
#055361:0000001300330023
#055321:00003333
#0553b0:0000000000000013
#056360:0023000000000000
#0573b0:0000001300230000
#057340:0000000000000012
#058340:0022
#061380:0000000000000016
#0623c0:0022000000000000
#062381:0014220000000000
#0623a0:0000142200000000
#062361:0000001422000000
#062380:0000000014220000
#062341:0000000000142200
#062360:0000000000001422
#062321:0000000000000014
#063321:22
#0633b0:12
#0653b0:0000000000520000
#065360:00000054
#0653a0:0000000000000024
#0673b0:00000013
#067370:0000000000000053
#0683b0:23
#068320:00000013
#068360:0000000000000053
#069320:23
#071320:00000013
#071360:0000000000000054
#072320:23
#0723b0:00000013
#072360:0000000000000054
#0733b0:23
#074370:0000000000000011
#074350:00000000000000000000000000000055
#075370:21
#0753b1:1121000000000000
#075391:00550000000000000000000000000000
#075350:0011210000000000
#075330:00000055000000000000000000000000
#075391:0000112100000000
#075371:00000000005500000000000000000000
#075340:0000001121000000
#075320:00000000000000550000000000000000
#0753b1:0000000011210000
#075391:00000000000000000055000000000000
#075350:0000000000112100
#075330:00000000000000000000005500000000
#075391:0000000000001121
#075371:00000000000000000000000000550000
#075320:0000000000000013
#076370:0033000000230000
#0763b1:0013000000230000
#076331:0000003300000000
#076321:0000000000000013
#077321:23
#077391:0013230000000000
#077341:0000001323000000
#0773b1:0000000000132300
#0773b1:0000000000000013
#078361:0033000000230000
#078320:0013000000230000
#0783a0:0000003300000000
#0793b0:13
#079360:0053230000000000
#080320:0000000000130000
#080370:0000000000003323
#0813b0:0000000000000013
#0823b0:0023000000000000
#084320:0000000000000017
#0853b0:0023000000000000
#085370:0000001700000000
#085320:0000000000230000
#086320:14240000
#086360:0034000000000000
#0863a1:00142400
#086361:0000003400000000
#086320:0014
#086360:0000000000340000
#087360:24
#0863b1:000000000000000000000000000000000000000000000000000000000000000000000000000000000000000000000000000000000000000000000000000000000000000000000000000000000000000000000000000000000000000000000000000000000000000000000000000000000000000000000000000000000000000000000000000000000000000000000000000000000000000000000000000000000000000000000000000000000000000000000000000000000000000000000000000000000000000000000000000000000000000000000000000000000000000000000000000000000000000000000000000000000000000000000000000000000000000000000000000000000000000000000000000000000000000000000000000000000000000000000000000000000000000000000000000000000000000000000000000000000000000000000000000000000000000000000000000000000000000000000000000000000000000000000000000000000000000000000000000000000000000000000000000000000000000000000000000000000000000000000000000000000000000000000000000000000000000000000000000000000000000000000000000000000000000000000000000000000000000000000000000000000000000000000000000000000000000000000000000000000000000000000000000000000000000000000000000000000000000000000000000000000000000000000000000000000000000000000000000000000000000000000000000000000000000000000000000000000000000000000000000000000000000000000000000000000000000000000000000000000000000000000000000000000000000000000000000000000000000000000000000000000000000000000000000000000000000000000000000000000000000000000000000000000000000000000000000000000000000000000000000000000000000000000000000000000000000000000000000000000000000000000000000000000000000000000000000000000000000000000000000000000000000000000000000000000000000000000000000000000000000000000000000000000000000000000000000000000000000000000000000000000000000000000000000000000000000000000000000000000000000000000000000000000000000000000000000000000000000000000000000000000000000000000000000000000000000000000000000000000000000000000000000000000000000000000000000000000000000000000000000000000000000000000000000000000000000000000000000000000000000000000000000000000000000000000000000000000000000000000000000000000000000000000000000000000000000000000000000000000000000000000000000000000000000000000000000000000000000000000000000000000000000000000000000000000000000000000000000000000000000000000000000000000000000000000000000000000000000000000000000000000000000000000000000000000000000000000000000000000000000000000000000000000000000000000000000000000000000000000000130000000000000000000000000000000000000000000000000000000000000000000000000000000000000000000000000000000000000000000000000000000000000000000000000000000000000000000000000000000000000000000000000000000000000000000000000000000000000000000000000000000000000000000000000000000000000000000000000000000000000000000000000000000000000000000000000000000000000000000000000000000000000000000000000000000000000000000000000000000000000000000000000000000000000000000000000000000000000000000023000000000000000000000000000000000000000000000000000000000000000000000000000000000000000000000000000000000000000000000000000000000000000000000000000000000000000000000000000000000000000000000000000000000000000000000000000000000000000000000000000000000000000000000000000000000000000000000000000000000000000000000000000000000000000000000000000000000000000000000000000000000000000000000000000000000000000000000000000000000000000000000000000000000000000000000000000000000000000000000000000000000000000000000000000000000000000000000000000000000000000000000000000000000000000000000000000000000000000000000000000000000000000000000000000000000000000000000000000000000000000000000000000000000000000000000000000000000000000000000000000000000000000000000000000000000000000000000000000000000000000000000000000000000000000000000000000000000000000000000000000000000000000000000000000000000000000000000000000000000000000000000000000000000000000000000000000000000000000000000000
#086321:000000000000000000000000000000000000000000000000000000000000000000000000000000000000000000000000000000000000000000000000000000000000000000000000000000000000000000000000000000000000000000000000000000000000000000000000000000000000000000000000000000000000000000000000000000000000000000000000000000000000000000000000000000000000000000000000000000000000000000000000000000000000000000000000000000000000000000000000000000000000000000000000000000000000000000000000000000000000000000000000000000000000000000000000000000000000000000000000000000000000000000000000000000000000000000000000000000000000000000000000000000000000000000000000000000000000000000000000000000000000000000000000000000000000000000000000000000000000000000000000000000000000000000000000000000000000000000000000000000000000000000000000000000000000000000000000000000000000000000000000000000000000000000000000000000000000000000000000000000000000000000000000000000000000000000000000000000000000000000000000000000000000000000000000000000000000000000000000000000000000000000000000000000000000000000000000000000000000000000000000000000000000000000000000000000000000000000000000000000000000000000000000000000000000000000000000000000000000000000000000000000000000000000000000000000000000000000000000000000000000000000000000000000000000000000000000000000000000000000000000000000000000000000000000000000000000000000000000000000000000000000000000000000000000000000000000000000000000000000000000000000000000000000000000000000000000000000000000000000000000000000000000000000000000000000000000000000000000000000000000000000000000000000000000000000000000000000000000000000000000000000000000000000000000000000000000000000000000000000000000000000000000000000000000000000000000000000000000000000000000000000000000000000000000000000000000000000000000000000000000000000000000000000000000000000000000000000000000000000000000000000000000000000000000000000000000000000000000000000000000000000000000000000000000000000000000000000000000000000000000000000000000000000000000000000000000000000000000000000000000000000000000000000000000000000000000000000000000000000000000000000000000000000000000000000000000000000000000000000000000000000000000000000000000000000000000000000000000000000000000000000000000000000000000000000000000000000000000000000000000000000000000000000000000000000000000000000000000000000000000000000000000000000000000000000000000000000000000000000000000000000000000000000000000000000000000000000000000000000000000000000000000000000000000000000000000000000000000000000000000000000000000000000000000000000000000000000000000000000000000000000000000000000000000000000000000000000000000000000000000000000000000000000000000000000000000000000000000000000000000000000000000000000000000000000000000000000000000000000000000000000000000000000000000000000000000000000000000000000000000000000000000000000000000000000000000000000000000000000000000001300000000000000000000000000000000000000000000000000000000000000000000000000000000000000000000000000000000000000000000000000000000000000000000000000000000000000000000000000000000000000000000000000000000000000000000000000000000000000000000000000000000000000000000000000000000000000000000000000000000000000000000000000000000000000000000000000000000000000000000000000000000000000000000000000000000000000000000000000000000000000000000000000000000000000000000000000000000000000000023000000000000000000000000000000000000000000000000000000000000000000000000000000000000000000000000000000000000000000000000000000000000000000000000000000000000000000000000000000000000000000000000000000000000000000000000000000000000000000000000000000000000000000000000000000000000000000000000000000000000000000000000000000000000000000000000000000000000000000000000000000000000000000000000000000000000000000000000000000000000000000000000000000000000000000000000000000000000000000000000
#0863b1:000000000000000000000000000000000000000000000000000000000000000000000000000000000000000000000000000000000000000000000000000000000000000000000000000000000000000000000000000000000000000000000000000000000000000000000000000000000000000000000000000000000000000000000000000000000000000000000000000000000000000000000000000000000000000000000000000000000000000000000000000000000000000000000000000000000000000000000000000000000000000000000000000000000000000000000000000000000000000000000000000000000000000000000000000000000000000000000000000000000000000000000000000000000000000000000000000000000000000000000000000000000000000000000000000000000000000000000000000000000000000000000000000000000000000000000000000000000000000000000000000000000000000000000000000000000000000000000000000000000000000000000000000000000000000000000000000000000000000000000000000000000000000000000000000000000000000000000000000000000000000000000000000000000000000000000000000000000000000000000000000000000000000000000000000000000000000000000000000000000000000000000000000000000000000000000000000000000000000000000000000000000000000000000000000000000000000000000000000000000000000000000000000000000000000000000000000000000000000000000000000000000000000000000000000000000000000000000000000000000000000000000000000000000000000000000000000000000000000000000000000000000000000000000000000000000000000000000000000000000000000000000000000000000000000000000000000000000000000000000000000000000000000000000000000000000000000000000000000000000000000000000000000000000000000000000000000000000000000000000000000000000000000000000000000000000000000000000000000000000000000000000000000000000000000000000000000000000000000000000000000000000000000000000000000000000000000000000000000000000000000000000000000000000000000000000000000000000000000000000000000000000000000000000000000000000000000000000000000000000000000000000000000000000000000000000000000000000000000000000000000000000000000000000000000000000000000000000000000000000000000000000000000000000000000000000000000000000000000000000000000000000000000000000000000000000000000000000000000000000000000000000000000000000000000000000000000000000000000000000000000000000000000000000000000000000000000000000000000000000000000000000000000000000000000000000000000000000000000000000000000000000000000000000000000000000000000000000000000000000000000000000000000000000000000000000000000000000000000000000000000000000000000000000000000000000000000000000000000000000000000000000000000000000000000000000000000000000000000000000000000000000000000000000000000000000000000000000000000000000000000000000000000000000000000000000000000000000000000000000000000000000000000000000000000000000000000000000000000000000000000000000000000000000000000000000000000000000000000000000000000000000000000000000000000000000000000000000000000000000000000000000000000000000000000000000000000000000000000000000000000000000000000000000000000000000000000000000000000000000000000000000000000000000000000000000000000000000000000000000000000000000000000000000000000000000000000000000000000000000000000000000000000000000000000000000000000000000000000000000000000000000000000000000000000000000000000000000000000000000000000000000000000000000000000000000000000000000000000000000000000000000000000000000000000000000000000000000000000000000000000000000000000000000000000000000000000000000000000000000000001300000000000000000000000000000000000000000000000000000000000000000000000000000000000000000000000000000000000000000000000000000000000000000000000000000000000000000000000000000000000000000000000000000000000000000000000000000000000000000000000000000000000000000000000000000000000000000000000000000000000000000000000000000000000000000000000000000000000000000000000000000000000000000000000000000000000000000000000000000000000000000000000000000000000000000000000000000000000000000000
#0873b1:23
#0873b1:0000000000000013
#087361:000000000000000000000000000000000000000000000054
#0883b1:0033002300000000
#088361:000000000054000000000000000000000000000000000000
#0883b1:0000000000000013
#089371:33330000
#0893b1:0033002300000000
#089360:0000001300330023
#089320:00003333
#0893b1:0000000000000013
#090361:0023000000000000
#0913c1:0000001200220000
#0913a1:0000000000000012
#0923a1:0022000000000000
#092381:0000001200220000
#093361:0000001200220000
#017970:000000000000000000000000000000000000000000000000000000000000000000000000000000000000000000000000000000000000000000000000000000000000000000000000000000000000000000000000000000000000000000000000000000000000000000000000000000000000000000000000000000000000000000000000000000000000000000000000000000000000000000000000000000000000000000000000000000000000000000000000000000000000000000000000000000000000000000000000000000000000000000000000000000000000000000000000000000000000000000000000000000000000000000000000000000000000000000000000000000000000000000000000000000000000000000000000000000000000000000000000000000000000000000000000000000000000000000000000000000000000000000000000000000000000000000000000000000000000000000000000000000000000000000000000000000000000000000000000000000000000000000000000000000000000000000000000000000000000000000000000000000000000000000000000000000000000000000000000000000000000000000000000000000000000000000000000000000000000000000000000000000000000000000000000000000000000000000000000000000000000000000000000000000000000000000000000000000000000000000000000000000000000000000000000000000000000000000000000000000000000000000000000000000000000000000000000000000000000000000000000000000000000000000000000000000000000000000000000000000000000000000000000000000000000000000000000000000000000000000000000000000000000000000000000000000000000000000000000000000000000000000000000000000000000000000000000000000000000000000000000001200000000000000000000000000000000000000000000000000000000000000000000000000000000000000000000000000000000000000000000000000000000000000000000000000000000000000000000000000000000000000000000000000000000000000000000000000000000000000000000000000000000000000000000000000000000000000000000000000000000000000000000000000000000000000000000000000000000000000000000000000000000000000000000000000000000000000000000000000000000000000000000000000000000000000000000000000000000000000000022000000000000000000000000000000000000000000000000000000000000000000000000000000000000000000000000000000000000000000000000000000000000000000000000000000000000000000000000000000000000000000000000000000000000000000000000000000000000000000000000000000000000000000000000000000000000000000000000000000000000000000000000000000000000000000000000000000000000000000000000000000000000000000000000000000000000000000000000000000000000000000000000000000000000000000000000000000000000000000000000000000000000000000000000000000000000000000000000000000000000000000000000000000000000000000000000000000000000000000000000000000000000000000000000000000000000000000000000000000000000000000000000000000000000000000000000000000000000000000000000000000000000000000000000000000000000000000000000000000000000000000000000000000000000000000000000000000000000000000000000000000000000000000000000000000000000000000000000000000000000000000000000000000000000000000000000000000000000000000000000000000000000000000000000000000000000000000000000000000000000000000000000000000000000000000000000000000000000000000000000000000000000000000000000000000000000000000000000000000000000000000000000000000000000000000000000000000000000000000000000000000000000000000000000000000000000000000000000000000000000000000000000000000000000000000000000000000000000000000000000000000000000000000000000000000000000000000000000000000000000000000000000000000000000000000000000000000000000000000000000000000000000000000000000000000000000000000000000000000000000000000000000000000000000000000000000000000000000000000000000000000000000000000000000000000000000000000000000000000000000000000000000000000000000000000000000000000000000000000000000000000000000000000000000000000000000000000000000000000000000000000000000000000000000000000000000000000000000000000000000000000000000000000000000000000000000000000000000000000000000000000000000000000000000000000000000000000000000000000000000
#017960:000000000000000000000000000000000000000000000000000000000000000000000000005400000000000000000054000000000000000000000000000000000000000000000000000000000000000000000000000000000000000000000000
#017970:00000012
#018970:22
#024960:00130000
#024920:0000002300000000
#024971:0000001300000000
#0249b1:0023
#0709b1:00000013
#070971:0000000000000053
#0719b1:23
#070960:00000013
#070920:0000000000000053
#071960:23
#086920:0000000000000000000000001c230000
#086920:000000000000001c
#0869b0:00000000000000000000000000000023
#0909a0:00000014
#090960:0000000000000054
#0919a0:24
