This file was generated by Ched 2.7.0.0.
#TITLE ""
#ARTIST ""
#DESIGNER ""
#DIFFICULTY 0
#PLAYLEVEL
#SONGID ""
#WAVE ""
#WAVEOFFSET 0
#JACKET ""
#REQUEST "ticks_per_beat 480"
#00002: 4
#BPM01: 195
#00008: 01
#TIL00: ""
#VOLUME: ""
#HISPEED 00
#MEASUREHS 00
#0121a:00140014
#01214:1414
#0111a:1414
#01014:1414
#0091a:2414
#00910:41
#01814:14
#01918:14
#01612:00140014
#01618:1414
#01512:1414
#01418:1414
#01312:2414
#02012:14
#0211a:14
#02214:14
#02318:14
#02412:1414
#02514:0014
#0251a:24
#02510:41
#0261a:14
#02612:0014
#0271a:14
#02714:0014
#0281a:14
#02814:0014
#02818:00000014
#02918:0014
#02912:24
#03012:14
#0301a:0014
#03112:14
#03118:0014
#03212:14
#03218:0014
#03214:00000014
#03414:14
#03412:0000003400000000
#03612:14
#03614:0000003400000000
#0331a:14
#03318:0000003400000000
#03518:14
#0351a:0000003400000000
#04118:0014
#04114:00000014
#0411a:24
#04112:00240000
#04110:41
#0421a:14
#04212:00140000
#04218:0014
#04214:00000014
#0431a:14
#04314:00140000
#04318:0014
#04312:00000014
#0441a:14140000
#04414:00001414
#0451a:14
#04512:0014
#04518:00000014
#04614:1414
#0461a:00140000
#04618:00000014
#0471a:00140000
#04712:14
#04714:0014
#04718:00000014
#0491a:00140000
#04914:0014
#04918:00000014
#05012:14
#0501a:00140000
#05014:0014
#05018:00000014
#05112:14
#05118:00140000
#05114:0014
#0511a:00000014
#05212:14140000
#05218:00001414
#05312:14
#0531a:0014
#05314:00000014
#05310:41
#05418:1414
#05412:00140000
#05414:00000014
#05512:00140000
#0551a:14
#05518:0014
#05514:00000014
#05712:0014
#05912:14
#06012:14
#06112:14
#06212:14
#0631a:14
#0641a:14
#0651a:14
#0661a:14
#06712:14140000
#06718:00001414
#06710:41
#06812:1414
#06818:00140014
#06914:14140000
#0691a:00001414
#07014:1414
#0701a:00140000
#08318:0014
#08314:00000014
#0831a:24
#08312:00240000
#0831f:21
#0841a:14
#08412:00140000
#08418:0014
#08414:00000014
#08410:41
#0851a:14
#08514:00140000
#08518:0014
#08512:00000014
#0861a:14140000
#08614:00001414
#0871a:14
#08712:0014
#08718:00000014
#08814:1414
#0881a:00140000
#08818:00000014
#0891a:00140000
#08912:14
#08914:0014
#08918:00000014
#09118:0014
#09214:14
#09218:0014
#09314:14
#0711a:14140000
#07114:00001414
#0711f:11
#0721a:1414
#07214:00140014
#07318:14140000
#07312:00001414
#07418:1414
#07412:00140000
#0171a:24
#08214:00000024
#04813:00340034
#05619:00340034
#09013:00340034
#0011a:5400545400005400
#0021a:0000545400005400
#00312:5400545400005400
#00412:0000545400005400
#00518:5400545400005400
#00618:0000545400005400
#00854:00000014
#03452:00000014
#03454:54
#03654:00000014
#03652:54
#0335a:54
#03358:00000014
#03558:54
#0355a:00000014
#03858:0000000000000014
#0455a:14
#04952:14
#0495a:00140000
#0415a:14
#04152:00140000
#05352:14
#0575a:14
#05752:0014
#08054:0000000000000014
#0875a:14
#0835a:14
#08352:00140000
#09152:14
#09458:0014
#007340:1400003400340034
#008340:00000024
#0333a0:14
#033380:0000003434002400
#034340:14
#034320:0000003434002400
#035380:14
#0353a0:0000003434002400
#036320:14
#036340:0000003434002400
#037380:1400000000000034
#0373a0:0000003400000000
#0383a0:0000003400000000
#038380:0000000000003424
#039340:0000140034340034
#040340:0034003424000000
#048320:14
#048330:00340034
#048350:0034
#049320:24
#0563a0:14
#056390:00340034
#056370:0034
#0573a0:24
#058380:1424
#075320:14
#075340:0034
#076320:34
#076340:0024
#0773a0:14
#077380:0034
#0783a0:34
#078380:0024
#079340:1400000000000034
#079320:0000003400000000
#080320:0000003400000000
#080340:0000000000003424
#081380:0000140034340034
#082380:0034003424000000
#090320:14
#090330:00340034
#090350:0034
#091320:24
#093380:0000000014000034
#094380:0034003424000000
#0019a0:14000054
#0029a0:00000024
#003920:14000054
#004920:00000024
#005980:14000054
#006980:00000024
