This file was generated by Ched 2.7.0.0.
#TITLE ""
#ARTIST ""
#DESIGNER ""
#DIFFICULTY 0
#PLAYLEVEL
#SONGID ""
#WAVE ""
#WAVEOFFSET 0
#JACKET ""
#REQUEST "ticks_per_beat 480"
#00002: 4
#BPM01: 199
#00008: 01
#TIL00: ""
#VOLUME: ""
#HISPEED 00
#MEASUREHS 00
#0361f:11
#03614:1200520052525200
#04518:1353535354545454
#04416:1252525200000000
#04415:0000000053535353
#0381a:1200520052525200
#03418:1200520052525200
#03410:41
#03216:1200520052525200
#01212:14545454
#0081a:14545454
#07916:1434343434343434
#07812:00140014
#07817:0013
#0781b:23
#07713:00140014
#07718:0013
#0771b:23
#07614:00140014
#07619:0013
#0761b:23
#07515:0013
#07512:23000014
#07518:0000000000130000
#0751a:00140000
#0741a:00140014
#07416:0013
#07412:23
#07319:00140014
#07315:0013
#07312:23
#0711b:0013001300130013
#07115:00130013
#07112:0013
#06518:0013001300130013
#06512:00131313
#06415:0000001300130013
#0641b:00131313
#06414:28
#06410:41
#0621b:00000013
#06215:0013
#06218:00130000
#06212:24
#0611a:14141414
#06115:0014001400140000
#06012:14
#06015:00000013
#06018:0013
#0601b:00130000
#05917:0014001400140014
#05912:14141414
#05818:00000013
#05815:0013
#05812:00130000
#0581a:24
#05718:13
#05714:00000014001400140014001400000000
#05715:0012121212120000
#05615:00000013
#0561b:0013
#05612:00130000
#05518:00000014001400140014001400140014
#05519:0012121212121212
#05515:13
#05418:00000013
#05412:2413
#0541b:00130000
#05312:13
#05318:00000014001400140014001400000000
#05319:0012121212120000
#05218:00000013
#05215:0013
#0521b:00130000
#05114:00000014001400140014001400140014
#05115:0012121212121212
#0511b:13
#05110:41
#05015:00000013
#05018:0013
#05012:00130000
#0501f:21
#0501a:24
#04818:00160016
#04812:6616
#03112:0013001300000000
#03118:13130000
#02918:00001313
#02912:0000000000130000
#03015:13130000
#0301b:0013001300000000
#02818:00131300
#0281b:0000000000000013
#02815:00000013
#02812:0000001300000000
#02212:00130000
#02215:13
#0221b:00000013
#02218:0013
#02112:00000013
#02115:0013
#0211b:00130000
#02118:13
#0201b:00000013
#02018:00131300
#02015:0000001300000000
#02615:00000013
#02619:0000000000330000
#02614:0000000000000033
#02712:0033133300000000
#02715:00000013
#02714:0000000000330000
#02713:3333
#0231b:00130000
#02315:0013000000000000
#02318:0000000000130000
#02312:0013
#02518:00001313
#02512:0000130000000013
#0251b:13
#02515:0000000000130000
#02510:41
#02415:00001313
#0241b:00130000
#02418:0000000000130000
#01915:1300001300000000
#0191b:0013
#01918:00130000
#01715:00001313
#0171b:0000130000000013
#01712:13
#01718:0000000000130000
#01618:00001313
#01612:00130000
#01615:0000000000130000
#0161a:24
#01610:41
#00713:0014
#00712:16
#00613:0014
#00612:16
#00513:0014
#00512:16
#00413:0014
#00412:16
#00410:41
#00319:0014
#00318:16
#00219:0014
#00218:16
#00119:0014
#00118:16
#00019:0014
#00018:16
#07012:0013001300130013
#07018:00130013
#0701b:0013
#06918:0000000000130013
#0691b:0013001300000000
#06912:00001313
#06915:00130000
#06619:00000013
#06612:0000000000000013
#06613:0000000000130000
#0661a:0013
#06614:0000001300000000
#0661b:00130000
#06615:0013000000000000
#06714:00000013
#0671b:0000000000000013
#0671a:0000000000130000
#06713:0013
#06719:0000001300000000
#06712:00130000
#06718:0013000000000000
#06316:1434343434343434
#0431a:12121212
#04216:12121212
#04118:12121212
#04014:12121212
#06815:0000000000130013
#06812:0013001300000000
#0681b:00001313
#06818:00130000
#04912:00160016001600160016001600000000
#04913:1414141414140000
#07218:00140014
#07214:0013
#07212:23
#01818:0000000000000013
#04614:24646464646464640000000000000000
#04613:00000000000000006565656565656565
#03918:0052525252525252
#03716:5252525252525252
#03518:0052525252525252
#03316:5252525252525252
#01512:54545454
#01412:54545454
#01312:54545454
#0111a:54545454
#0101a:54545454
#0091a:54545454
#04712:6666666666666666666666666666666666666666666666666666666666666666
#08054:18
#02452:13
#06454:18
#04953:6464646464641400
#04952:00660066006600660066006600000000
#04852:16
#0165a:14
#0505a:14
#07956:24
#07852:00140014
#07753:00140014
#07654:00140014
#07552:00000014
#0755a:00140000
#0745a:00140014
#07359:00140014
#05558:00000064006400640064006400640064
#05559:0062626262626262
#05754:00000054005400540054005400000000
#05755:0052525252520000
#05154:00000054005400540054005400540054
#05155:0052525252525252
#02252:00630000
#02255:63
#0225b:00000053
#02258:0053
#02152:00000063
#02155:0063
#0215b:00530000
#02158:53
#0205b:00000053
#02058:0053
#02655:00000063
#02752:00230000
#02755:00000063
#00753:0024
#00752:66
#00653:0024
#00652:66
#00553:0024
#00552:66
#00453:0024
#00452:66
#00359:0024
#00358:56
#00259:0024
#00258:56
#00159:0024
#00158:56
#00059:0024
#00058:56
#05358:00000064006400640064006400000000
#05359:0062626262620000
#06356:24
#07258:00140014
#000380:16
#000390:0054
#001380:56
#001390:0054
#002380:56
#002390:0054
#003380:56
#003390:0054
#004380:26
#004321:16
#004331:0054
#005321:56
#005331:0054
#006321:56
#006331:0054
#007321:56
#007331:0054
#008321:26
#018321:1333
#018351:00330023
#019351:00000013
#020321:23
#020381:0013
#0203b1:00000033
#021381:3323
#0213b1:00330000
#021350:0013
#021320:00000033
#022350:3323
#022320:00330000
#022381:0013
#0223b1:00000033
#023381:23
#023321:00000013
#024321:23
#0263b1:1333
#026381:00330023
#026391:0000000000330000
#026350:00000013
#026340:0000000000000033
#027330:3333
#027320:0033333300000000
#027340:0000000000330000
#027350:00000033
#028320:23
#029350:13230000
#030350:00001323
#031380:00001323
#049330:1434343434342400
#049320:00560056005600560056005600000000
#051350:0012323232323232
#051340:00000054005400540054005400540054
#052350:22
#053390:0012323232322200
#053380:00000054005400540054003400000000
#055390:0012323232323232
#055380:00000054005400540054005400540054
#056390:22
#057350:0012323232322200
#057340:00000054005400540054003400000000
#063360:1434343434343434
#064340:28
#079360:1434343434343434
#080340:28
#080340:0000123200003222
#080360:0000000032320000
#0813a0:0012320000323222
#081380:0000003232000000
#0089a0:14
#0119a0:00000024
#012920:14
#015920:00000024
#032960:12
#033960:0000000000000022
#034980:12
#035980:0000000000000022
#036940:12000052
#037960:5200000000000022
#0389a0:12000052
#039980:0052000000000022
#044960:1200005200000000
#044950:0000000053000023
#045980:1300005354000024
#046940:14000000000000540000000000000000
#046930:00000000000000005500000000000055
#047920:5600000000000000000000000000000000000000000000000056000000000000
#048920:26
