This file was generated by Ched 2.7.0.0.
#TITLE ""
#ARTIST ""
#DESIGNER ""
#DIFFICULTY 0
#PLAYLEVEL
#SONGID ""
#WAVE ""
#WAVEOFFSET 0
#JACKET ""
#REQUEST "ticks_per_beat 480"
#00002: 4
#BPM01: 199
#00008: 01
#TIL00: ""
#VOLUME: ""
#HISPEED 00
#MEASUREHS 00
#04913:1414141414140000
#04912:00160016001600160016001600000000
#07218:00140000
#07212:00001414
#07214:24
#01714:0014
#0171a:14
#06313:14
#0481a:0014
#05816:0014
#05812:24
#0591a:1414
#05914:00140014
#0601a:14
#06016:0014
#0641a:00140014
#06414:0014
#06412:26
#06410:41
#07314:00140000
#0731a:00001414
#07318:24
#01614:0014
#0161a:24
#01610:41
#01818:14
#01812:0014
#01918:14
#01912:0014
#0201a:1414
#02014:00140014
#02118:1414
#02112:00140014
#0221a:1414
#02214:00140014
#02318:14
#02312:00140000
#02518:0014
#02512:14
#02510:41
#02418:0014
#02412:24
#02614:14
#0261a:0014
#02714:14
#0271a:0014
#02812:1414
#02818:00140014
#02914:1414
#0291a:00140014
#03012:1414
#03018:00140014
#03114:14
#0311a:00140000
#0501a:0014
#05013:24
#0501f:21
#05218:0014
#05412:0014
#05419:24
#05614:0014
#06112:1414
#06118:00140014
#0621a:0014
#06212:24
#06512:1414
#06518:00140014
#06614:1414
#0661a:00140014
#06712:1414
#06718:00140000
#0681a:14
#06814:00140000
#06818:0014
#06812:00000014
#0691a:14
#06914:00140000
#06918:0014
#06912:00000014
#07018:14
#07014:00140000
#0701a:0014
#07012:00000014
#07118:14
#07114:00140000
#0711a:0014
#07418:00140000
#07414:00001414
#07412:24
#07514:00140000
#07518:00001414
#0751a:24
#07616:00140014
#07612:24
#0761a:0024
#07716:00140014
#07712:24
#0771a:0024
#07816:00140014
#07812:24
#0781a:0024
#07912:14
#07914:0034000000000000
#07915:0000343434340000
#0361f:11
#05110:41
#03410:41
#00410:41
#0111a:5454
#0101a:5454
#0091a:5454
#0081a:5454
#01512:5454
#01412:5454
#01312:5454
#01212:5454
#04018:5454
#04118:5454
#04214:5454
#04314:5454
#04418:54545454
#04518:54545454
#04953:6464646464640000
#04952:00660066006600660066006600000000
#06353:24
#06452:16
#05053:14
#04852:18
#05459:14
#07952:54
#000390:14
#001390:34
#002390:34
#003390:24
#004330:14
#005330:34
#006330:34
#007330:24
#023380:00001424
#031340:00001424
#032380:14
#0333a0:54
#034380:54
#0353a0:24
#036340:14
#037320:54
#038340:54
#039320:24
#046340:14
#048320:28
#049330:1434343434343400
#049320:00560056005600560056005600000000
#050330:24
#051320:14
#051340:00340034
#051360:0034
#052320:24
#053320:14
#053330:00340000
#053340:0034
#053350:00000024
#0553a0:14
#055380:00340034
#055360:0034
#0563a0:24
#0573a0:14
#057390:00340000
#057380:0034
#057370:00000024
#063330:14
#064320:26
#079320:14
#079340:0034000000000000
#079350:0000343434342400
#0803b0:1300330033333333
#081390:0033330033333323
#0089a0:14
#0119a0:0024
#012920:14
#015920:0024
#040980:14
#041980:0024
#042940:14
#043940:0024
#044980:14
#045980:00000024
