This file was generated by Ched 2.7.0.0.
#TITLE ""
#ARTIST ""
#DESIGNER ""
#DIFFICULTY 0
#PLAYLEVEL
#SONGID ""
#WAVE ""
#WAVEOFFSET 0
#JACKET ""
#REQUEST "ticks_per_beat 480"
#00002: 4
#BPM01: 166
#00008: 01
#TIL00: ""
#VOLUME: ""
#HISPEED 00
#MEASUREHS 00
#0051a:14
#00510:41
#0061a:14
#0211a:14
#02214:14
#0231a:14
#02414:14
#02518:14
#02510:41
#02612:14
#02718:14
#02812:14
#0371a:14
#03814:14
#0391a:14
#04014:14
#04118:14
#04212:14
#04318:14
#04412:14
#0451a:14
#0451f:11
#0461a:14
#04712:14
#04812:14
#04918:14
#05018:14
#00712:14
#00812:14
#00918:14
#01018:14
#01114:14
#01214:14
#02918:2616
#03012:1616
#03118:16
#03112:0016
#03312:1616
#03418:1616
#03512:16
#03518:0016
#03510:41
#05114:14
#05214:14
#05312:0016
#05318:26
#0531f:00210000
#05418:16
#05412:0016
#05410:41
#05612:16
#05618:0016
#05718:0016
#05712:16
#05812:16
#05818:0016
#06018:16
#06012:0016
#06118:2616
#06212:1616
#06318:16
#06312:0016
#06310:41
#06512:1616
#06618:1616
#06712:16
#06718:0016
#07114:1414
#07218:1414
#01510:41
#0133a0:14
#0143a0:24
#015320:14
#016320:24
#0173a0:14
#0183a0:24
#019320:14
#020320:24
#032380:1626
#036320:1626
#055380:1626
#059320:1626
#064380:1626
#068320:1626
#069380:16
#070380:26
