This file was generated by Ched 2.7.0.0.
#TITLE ""
#ARTIST ""
#DESIGNER ""
#DIFFICULTY 0
#PLAYLEVEL
#SONGID ""
#WAVE ""
#WAVEOFFSET 0
#JACKET ""
#REQUEST "ticks_per_beat 480"
#00002: 4
#BPM01: 123
#00008: 01
#TIL00: ""
#VOLUME: ""
#HISPEED 00
#MEASUREHS 00
#00518:14
#00612:14
#00718:14
#01312:14
#02112:14
#03018:16
#03012:0016
#03218:0016
#03212:26
#03618:14
#04412:14
#0461a:14
#0451a:14
#0381a:14
#03714:14
#03418:16
#0231a:14
#0221a:14
#01714:14
#01614:14
#0151a:14
#0141a:14
#0111a:14
#01014:14
#0091a:14
#00814:14
#01818:14
#01918:14
#01910:41
#03512:14
#00018:14
#00114:14
#00218:14
#04018:14
#04114:14
#0421a:14
#02818:0016
#02812:26
#0281f:21
#05718:16
#05712:0016
#05918:0016
#05912:26
#05518:0016
#05512:26
#05510:41
#0201f:11
#02012:24
#00412:24
#01212:24
#01210:41
#03912:24
#03910:41
#04312:24
#02910:41
#04710:41
#024320:1434
#025320:3424
#0263a0:14
#0273a0:24
#029320:1626
#031380:1626
#033320:1626
#047320:14
#048320:24
#049380:14
#050380:24
#051340:14
#052340:24
#0533a0:14
#0543a0:24
#056320:1626
#058380:1626
#060320:1626
#061380:1600003600363626
