This file was generated by Ched 2.7.0.0.
#TITLE ""
#ARTIST ""
#DESIGNER ""
#DIFFICULTY 0
#PLAYLEVEL
#SONGID ""
#WAVE ""
#WAVEOFFSET 0
#JACKET ""
#REQUEST "ticks_per_beat 480"
#00002: 4
#BPM01: 123
#00008: 01
#TIL00: ""
#VOLUME: ""
#HISPEED 00
#MEASUREHS 00
#00512:13
#00516:00000013
#0051b:00000000000000130000000013000000
#00517:0000130000130000
#01215:0013001300000000
#01218:000013000013000000000013000000000000000013000000
#0121b:1300000000130000
#01212:0000130013000013
#01216:000000000000000000000000000000000013000000000000
#01210:41
#02918:000000000000000000000000000000000000000013000013
#02915:00000013
#02912:2300000000000013
#02916:00000013000000000000000000000000
#0291b:00000023000000000000230000000000
#02910:41
#0041b:13
#00412:00000000000000130000000000000000
#00415:0000000000000013
#00416:1300130000130000
#00418:000000000000000000000000000000000000000000000013
#04912:0013000000000000
#04915:000000000000000000000013000000000000130000000000
#04918:0000001313000000
#0491b:0013000000000000
#04917:0000000000000013
#04916:0000000000130000
#00218:12000012
#00216:0000001200000012
#00212:12000012000000000000000000000000
#0031c:0000001200000000
#00312:0000001200002400
#0031a:00000024
#01315:000013000013000000000000000000000000000013000000
#01318:0013130000000000
#01312:1300001300130000
#0131b:1300000013000013
#01317:000000000000000000130000000000000013000000000000
#0231b:1313
#02312:0013001300131300
#02318:000000000013000013000000000000000000000000000000
#02315:000000000000130000000013000000000000000000000013
#02612:1300001300000013
#0261b:00131300
#02618:0000000000130000
#02615:00000013
#02617:1300001300000000
#02616:0013
#05116:13
#0511b:1300130013130000
#05117:00000013
#05112:00000013
#05412:000000000013000000130000000000000000000000000000
#0541b:1300130000130000
#05418:0013005300001300
#05415:000013000000000000000000000000000000000000130000
#0541a:000000000000005300000000000000000000000000000000
#05419:005300
#00018:12
#00016:0000001200000000
#00012:12000012000000000000000000000000
#00715:000013000013000000000000000000130000000000130000
#00718:000000130000130000000000000000000013000000000013
#00717:000000000000000000000013000000000000000000000000
#0071b:130000000000001300001300
#00712:00000013
#0141b:13131313
#01417:0013001300000000
#01418:0000000000130000
#01415:0000000000000013
#01412:1313000013001300
#01416:00130000
#0151b:000000000000000000000000000000130013000000000000
#01512:1300130013000013
#01514:0013001300000000
#01516:000000000000000000000000000000000013000000000000
#01618:0013000000000000
#01615:000000000013000000000000000000000000000000000000
#01616:130000000000000000000000000000000013000000000000
#01612:000013000000000000130000130000000000000013000000
#0161b:130000000000130000000000000000130013000000000000
#01617:0000000013000013
#0171b:131300001300000000000000
#01712:130000000000130000000000000000000013000000000000
#01715:000000130000000000000013000013000000000000000013
#01718:000000000013000000000000130000000000000000130000
#01912:1313
#01915:0013001300130000
#0191b:0000130000001353
#01918:0013001300130000
#01910:41
#01919:00000000000000000000000000530053
#01818:1300000013000013
#01812:00000013000000000000000013000000
#01816:0000001300000000
#01815:0000000000130013
#0181b:00000033000000000000000013000000
#02012:13131300
#02018:001300001300000000000000
#02015:0013001300000000
#0201b:530000000013000000000013000000130000000000000000
#02014:000000000000000000000000000000000000000000000014
#02017:000000000013
#0201f:11
#02118:140000000013000000000000130000000000000000130000
#02115:0013130013000000
#0211b:000000000000000013000000000000130000000000000000
#02112:0000001300130000
#02218:0013001313000013
#0221b:13130000
#02215:000013000000000013000013000000000000000000000013
#02212:000000000013000000000000000000000000000000000000
#02217:000000000000000000000000000000000013000000000000
#0241b:13
#02418:0013001300000000
#02412:00131300
#02415:0013000000000013
#02512:13001413
#02518:00130000
#0251b:1300001300000013
#02515:0013000000000000
#0251a:0014
#02517:00000013
#02516:0000000000000013
#02818:530000130000000000130000130000000013000000000013
#02815:130000000013000000000013000000130000000000130000
#0281b:000000130000000000001300
#02812:000000001300000000130000
#0281f:21
#03015:1300001300000013
#0301b:0013000000000000
#03012:000000000000000000000013000000000000000000000000
#03018:000000000000130000000013000000000000130000000000
#03112:1313
#0311b:130000000013000000130000000000230000130000000000
#03116:000000001300000000130000
#03412:0000131300000013
#03414:000000000000000000000000000000000000130000000053
#03416:0000000000130000
#03417:1300002300000023
#03419:00000023
#03413:000000000000000000000053
#03612:1300130000130000
#03616:00000000000000130000000013000000
#0361b:00000013
#0351b:1300130000130000
#03515:5300000000000013
#03517:00000000000000130000000000000000
#03518:000000000000000000000000000000000000000000000013
#0371b:13
#03718:000000000000130000000000000000000000000000000013
#03715:0000000000000013
#03712:0000000000130000
#03716:13
#03812:13130013
#0381b:001300000000001300001300
#03815:000000130000000000000013000000130000000000130000
#03818:000000000013000000000000000000000013000000000000
#03915:00000000000000130000000000000000
#03912:24000014
#0391a:24000014
#03918:00000000000000130000000000000000
#03910:41
#0401a:24000014
#04015:24000014
#04012:00000000000000130000000000000000
#04017:00000000000000130000000000000000
#0471b:1300130000130000
#04712:00000000000000130000000000000000
#04715:5300000000000013
#04716:0000130000130000
#04717:00000000000000130000000000000000
#04718:000000000000000000000000000000000000000000000013
#04710:41
#04812:1300001300001300
#0481b:00000013000000000000130000000000
#04816:0000000000130000
#04817:00000013
#05012:0013000023000000
#0501b:1300130000000023
#05015:0000001300230000
#05018:000000000000000000000013000000000000230000000000
#05017:0013000000000000
#05016:13130000
#05216:13
#05217:0000001300000000
#05212:0000000000130000
#05215:00000013
#05218:0000000000000013
#0521b:00130000
#0531b:1300001300001300
#05312:1300000000130000
#05315:0013000000000013
#05316:0000001300000000
#04112:24000014
#04117:24000014
#0411b:00000000000000130000000000000000
#04116:00000000000000130000000000000000
#04215:000000130000000000000013000000130000000000130000
#04218:000000000013000000130000000000000013000000000013
#0421b:230000230013
#04212:00230023
#04512:0000140014141400
#04517:00000000000000130000000000000000
#0451b:00130000
#04312:130000000000000000000013000000000000000000000000
#04318:000013000000000000000000000000000000000000000013
#04315:0013000000000013
#04316:00130000
#04317:0000001300000000
#0431b:000000130000130000001300
#04412:130000000000130000000000130000000000000000000013
#0441b:000013000000000013000000000000000013000000000000
#04415:000000130000000000130000000000000013000000000000
#04418:000000000013000000000000130000000000000000000013
#05518:000000000000000000000013000000130000000000130000
#05515:000000000000000000000000130000000000000000000013
#0551a:24000024
#05512:24000024
#05510:41
#00116:12
#00118:0000001200000000
#0011c:12000012000000000000000000000000
#00612:13000000000000130000000000000000
#00618:0000000000000013
#00615:000000000000000000000000000000000000000000000013
#00617:13
#00616:0000130000130000
#0091b:13
#00917:00000013
#00912:00000000000000130000000013000000
#00916:0000130000130000
#00812:13
#0081b:00000000000000130000000000000000
#00818:0000000000000013
#00817:0000130000130000
#00815:000000000000000000000000000000000000000000000013
#01118:000013000013000000000000000000130000000000130000
#01115:000000130000130000000000000000000013000000000013
#01116:000000000000000000000013000000000000000000000000
#01112:130000000000001300001300
#0111b:00000013
#0101b:13000000000000130000000000000000
#01015:0000000000000013
#01018:000000000000000000000000000000000000000000000013
#01016:13
#01017:0000130000130000
#03215:000000130000000000130000130000000013000000000013
#03218:130000000013000000000013000000130000000000130000
#03212:000000130000000000001300
#0321b:000000001300000000130000
#03317:00000013000000000000000013000000
#03316:0000000000000013
#03312:00000023000000000000230013000000
#0331b:23
#04615:00130000230000000013000000000000
#04618:23002600001300002300260000000000
#0461b:00000013
#04612:0000002600002313
#04613:000000000000000000000053
#04614:000000000000000000000000000000000000000000000053
#0611b:0000131300000013
#06119:00000013
#06117:0000000000130000
#06116:1300002300000023
#06114:00000023
#06017:0000000000000013
#06016:00000013000000000000000013000000
#0601b:00000023000000000000230013000000
#06012:23
#02718:0000000000001353
#0271a:24000000000024000000000000530053
#02712:00000024000024000000000000000000
#02717:00000023000000000000000000000000
#02716:23
#05615:000000000000000000000000000000000000000013000013
#05618:00000013
#0561b:2300000000000013
#05617:00000013000000000000000000000000
#05612:00000023000000000000230000000000
#05718:1300001300000013
#05712:0013000000000000
#0571b:000000000000000000000013000000000000000000000000
#05715:000000000000130000000013000000000000130000000000
#0581b:1313
#05812:130000000013000000130000000000230000130000000000
#05817:000000001300000000130000
#05918:000000130000000000130000130000000013000000000013
#05915:130000000013000000000013000000130000000000130000
#0591b:000000130000000000001300
#05912:000000001300000000130000
#0235b:5363
#02352:00000013
#02357:00000013
#02652:63
#05156:53
#0515b:0000000000630000
#05157:00000053
#05452:0000005300000000
#00058:62
#01252:0053
#01256:000000000000000000000000000000000053000000000000
#01352:0000006300000000
#0135b:0063
#01357:000000000000000000000000000000000063000000000000
#01552:0053
#0155b:000000000000000000000000000000000053000000000000
#01652:0063
#0165b:000000000000530000000000000000000063000000000000
#01952:53005333
#01955:0023000000230000
#0195b:00630000
#01958:0000002300000000
#01858:6300000000000063
#02052:0053
#0205b:0000000000630000
#02258:0063
#0245b:63
#02458:0023000000000000
#02452:00530000
#02552:0034
#0255a:0044
#02855:63
#02858:0053
#03055:63
#03052:000000000000000000000063000000000000000000000000
#03058:000000000000000000000063000000000000000000000000
#03152:53
#0315b:0000006300130000
#03156:00000053
#03955:00000000000000530000000000000000
#03952:34000014
#0395a:44000014
#03958:00000000000000630000000000000000
#0405a:44000014
#04055:34000014
#04052:00000000000000530000000000000000
#04057:00000000000000630000000000000000
#04852:53000013
#0485b:00000023000000000000130000000000
#05256:63
#05257:0000006300000000
#0535b:5300006300000000
#01452:0053000053000000
#01456:00530000
#0145b:00000063
#04152:34000014
#04157:44000014
#0415b:00000000000000630000000000000000
#04156:00000000000000530000000000000000
#04552:00140014
#04557:00000000000000530000000000000000
#0455b:00000013
#04356:00630000
#0435b:0053
#04357:000000000000000000000000000000000013000000000000
#04352:000000000000000000000000000000000013000000000000
#04455:000000000000000000630000000000000063000000000000
#04458:0053
#0445b:000000000000000000000000000000000063000000000000
#04452:0053
#04957:0000000000000013
#0495b:0000000000130000
#04952:0000000000000013
#04956:0000000000130000
#04955:00000053
#04958:0053
#0555a:14000014
#05552:14000014
#02752:0000003400000000
#0275a:0000004400000000
#04252:00330033
#0425b:4343
#0035a:00000014
#0035c:0000002200000000
#00352:0000002200001400
#02952:5300001300000000
#0295b:00000053000000000000130000000000
#02957:0000001300000000
#02956:00000053000000000000000000000000
#03457:1300005300000000
#03452:13
#05052:0013
#05055:0000000000130000
#05058:00000013
#0505b:0000000000000013
#00156:52
#00258:62
#0055b:00000013
#00952:00000013
#02158:14
#02155:0053
#02152:0000000000530000
#03258:53
#03255:0063
#03357:00000063000000000000000053000000
#0335b:6300001300000000
#03352:00000063000000000000130000000000
#03356:0000001300000063
#03656:00000013
#04658:0046000000460000
#04652:0000003600000000
#06156:1300006300000000
#0615b:13
#06057:0000001300000053
#06056:00000053000000000000000063000000
#0605b:00000053000000000000130000000000
#06052:5300001300000000
#01752:000000000000000000000000000000000013000000000000
#05758:53
#0575b:000000000000000000000053000000000000000000000000
#05755:000000000000000000000053000000000000000000000000
#0585b:63
#05852:0000005300130000
#05857:00000063
#05657:00000063000000000000000000000000
#0565b:6300001300000000
#05652:00000063000000000000130000000000
#05656:0000001300000000
#05955:63
#05958:0053
#000380:12
#0003c0:00000032000022000000000000000000
#001360:12
#001320:00000032000022000000000000000000
#002380:12
#0023c0:00000032000022000000000000000000
#0033c0:0000001200000000
#0033a0:00000024
#003321:0000001200002400
#0043b1:0000130000230000
#004371:00000000000000330000000000000000
#005321:0000130000230000
#005361:00000000000000330000000000000000
#0063b1:0000130000230000
#006371:00000000000000330000000000000000
#007321:000000000000000000130023000000000000000000000000
#008321:0000130000230000
#008361:00000000000000330000000000000000
#0093b1:0000130000230000
#009371:00000000000000330000000000000000
#010321:0000130000230000
#010361:00000000000000330000000000000000
#0113b1:000000000000000000130023000000000000000000000000
#012321:0013
#012361:0000000000230000
#012361:000000000000000000000000000000000013000000000000
#012321:000000000023
#013321:0000001300000000
#013361:0023
#0133b0:0013
#013370:0000000000230000
#013370:000000000000000000000000000000000013000000000000
#0133b0:000000000023
#014320:0013002300000000
#014360:00330000
#014320:0013
#014350:0000000000230000
#0143b0:00000013
#014380:0000000000000023
#0153b0:13332300
#015370:0033003300000000
#015321:0013
#015361:0000000000230000
#0153b1:000000000000000000000000000000000013000000000000
#015371:0000000000000023
#0163b1:00130000
#016371:0000002300000000
#016321:0013
#016361:0000000000230000
#0163b1:000000000000000000000000000000000013000000000000
#016371:000000000023
#017381:000000000000000000000000000000130023000000000000
#018381:13
#0183b1:00000033000023000000000000000000
#018381:0000000000000013
#0193b1:23
#019320:13230000
#019350:0033000000000000
#0193b1:00132300
#019381:0000003300000000
#019320:00001323
#019350:0000000000330000
#020320:0013
#020360:0000000000230000
#0203b1:0000000000130000
#020371:00000023
#020320:000000000000000000132300
#021350:0000000013000023
#021320:0000000000330000
#022380:0013
#0223b0:0000000000230000
#022321:000000000000000000000000000000130023000000000000
#0233b1:13
#023381:0023000000000000
#0233b1:0013
#023371:00000023
#0243b1:13230000
#024381:0033000000000000
#024320:00130000
#024350:0000002300000000
#0243b0:0000000013230000
#024351:0000000000132300
#024380:0000000000001323
#026320:13
#026360:00230000
#028350:13
#028320:0023000000000000
#028380:0013
#0283b0:0000000000230000
#029320:1300002300000000
#029360:00000033000000000000000000000000
#0293b1:00000013000000000000000000000000
#029371:0000002300000000
#030351:13
#030321:0023000000000000
#030321:000000000000000000000013000000000000000000000000
#030351:0000000000230000
#030380:000000000000000000000013000000000000000000000000
#0303b0:0000000000230000
#031320:13
#031360:000000000023000000000000000000000000000000000000
#0313b0:0000001300000000
#031370:0023
#031360:00000013
#032320:23
#032381:13
#0323b1:0023000000000000
#032351:0013
#032321:0000000000230000
#0333b1:1300002300000000
#033371:00000033000000000000000000000000
#033320:00000013000000000000000000000000
#033360:0000002300000000
#033370:00000013
#0333b0:0000000000000023
#033361:0000000000000013
#034321:23
#034371:0000001300000000
#0343b1:0000000000230000
#035361:0000130000230000
#035321:00000000000000330000000000000000
#036371:0000130000230000
#0363b1:00000000000000330000000000000000
#037321:00130000
#037361:00000000000000230000000000000000
#0373b0:00000000000000130000000000000000
#037370:0000000000230000
#038380:000000000000000000130023000000000000000000000000
#039350:00000000000000130000000000000000
#039320:0000000000240000
#039381:00000000000000130000000000000000
#0393a1:0000000000240000
#040321:00000000000000130000000000000000
#040351:0000000000240000
#040370:00000000000000130000000000000000
#0403a0:0000000000240000
#0413b0:00000000000000130000000000000000
#041370:0000000000240000
#041361:00000000000000130000000000000000
#041321:0000000000240000
#043361:00130000
#043321:0000002300000000
#0433b1:0013
#043371:000000000000000000000000000000330023000000000000
#043320:000000000000000000000000000000130023000000000000
#044350:0000001300230000
#044320:0033
#044381:0013
#0443b1:0000000000230000
#044351:000000000000000000000000000000000013000000000000
#044321:0000000000000023
#0443b0:000000000000000000000000000000000013000000000000
#044380:0000000000000023
#045370:00000000000000130000000000000000
#0453b0:0000000000332300
#048320:13
#048360:00000023000000000000000000000000
#0483b1:00000013000000000000000000000000
#048371:0000002300000000
#049381:0013
#0493b1:0000000000230000
#049351:00000013
#049321:0000000000000023
#051361:13
#051321:0000000000230000
#0513b0:0000000000130000
#051370:00000033
#0523b0:23
#052361:13
#052321:0000002300000000
#052370:0000001300000000
#0523b0:0000000000230000
#0533b0:13
#053380:0023000000000000
#0533b0:0000001300000000
#053370:0000000000230000
#054320:0000001300000000
#054360:0000000000230000
#0563b0:1300002300000000
#056370:00000033000000000000000000000000
#056321:00000013000000000000000000000000
#056361:0000002300000000
#057381:13
#0573b1:0023000000000000
#0573b1:000000000000000000000013000000000000000000000000
#057381:0000000000230000
#057350:000000000000000000000013000000000000000000000000
#057320:0000000000230000
#0583b0:13
#058370:000000000023000000000000000000000000000000000000
#058320:0000001300000000
#058360:0023
#058370:00000013
#0593b0:23
#059351:13
#059321:0023000000000000
#059381:0013
#0593b1:0000000000230000
#060321:1300002300000000
#060361:00000033000000000000000000000000
#0603b0:00000013000000000000000000000000
#060370:0000002300000000
#060360:00000013
#060320:0000000000000023
#060371:0000000000000013
#0613b1:23
#061361:0000001300000000
#061321:0000000000230000
#0199b0:0000000000001353
#019990:00000000000000000000000000530053
#0209b0:23
#027980:0000000000001353
#0279a0:00000000000000000000000000530053
#028980:23
#034920:0000000000000013
#035950:23
#046920:0000000000000013
#047950:23
#0549b0:00130000
#054980:0000002300000000
