This file was generated by Ched 2.7.0.0.
#TITLE ""
#ARTIST ""
#DESIGNER ""
#DIFFICULTY 0
#PLAYLEVEL
#SONGID ""
#WAVE ""
#WAVEOFFSET 0
#JACKET ""
#REQUEST "ticks_per_beat 480"
#00002: 4
#BPM01: 123
#00008: 01
#TIL00: ""
#VOLUME: ""
#HISPEED 00
#MEASUREHS 00
#01215:000000130000130000000000000000000033000000000000
#01218:000013000013000000130000000000000000000000000000
#01212:0013
#01210:41
#03018:13000000000000330000130000000000
#03012:0013000000000000
#0301b:0000001300003300
#0431a:14
#04312:00140000
#04318:0013
#00714:14
#00718:000000000000000000140000000014000000000000000000
#00712:000034340034000000000000000000000000000000000000
#0071a:000000000000000000000000000000340034340034000000
#02215:13131300
#02218:0013001300000013
#02212:0000000000330000
#03412:13
#03418:0000002300000000
#0471a:14
#04710:41
#04912:0013000000001300
#04915:0013
#0491b:0000001300000013
#04918:0000000000130000
#05015:1300000000230000
#0501b:0013000000000023
#05012:00132300
#05018:0000001300002300
#05318:1400001400003400
#0531a:0014000000140000
#00018:13
#0001b:00000033000000000000000000000000
#00218:13000013
#00215:0000000000000013
#0021b:00000033000000000000000000000000
#0031b:0000001300000000
#00312:0000001300002400
#00415:0000000000000013
#0041b:00130000
#00418:000000000000000000000000000000000000000000130000000000000000000000000000000000000000000000001300
#00614:0000000000000014
#00618:000000000000130000000000000000000000000000000014
#0061b:00000000000000130000000000000000
#0131b:000013000000000000000000000000000033000000000000
#01318:00131300
#01315:000000000013000000130000000000000000000000000000
#01415:0013001300000000
#01418:00130000
#0141b:00001313
#01412:0000000000130013
#0151a:14141400
#01518:0014001400340000
#01718:000013000013000000000000000000000000000000130000
#01715:000000130000130000000013000000000000000000000000
#0171b:001300
#0171a:0014
#01712:0000000000140000
#01812:14
#01816:0000000000000014
#01814:00000034000000000000000000000000
#0191a:1414
#01916:0014001400000000
#01912:00140000
#01918:0000000000340000
#01910:41
#02015:13130000
#02018:0013001300000000
#02012:00001313
#0201b:0000000000130000
#0201f:11
#0211a:14
#02115:00130000
#02118:0000001300000000
#02112:0013
#0211b:0000000000130000
#00115:13
#00112:00000033000000000000000000000000
#02312:13
#02318:0013000000000000
#02315:00130000
#0231b:0000001300000000
#02418:1313
#02415:0013000000130000
#0241b:00130013
#02412:0000001300000013
#0251b:1300000013000013
#02518:0013000000000000
#02515:00130000
#02512:0000001300001300
#02615:13001313
#0261b:0000001300000013
#02618:0000000000130000
#02818:0013000000130000
#02815:00130013
#0281b:0000001300000013
#02812:0013
#0281f:21
#0291b:00000013
#02915:2300000000000013
#02910:41
#03112:13000014
#0311a:00000014
#0321b:1313
#03215:0013000000130000
#03218:00130013
#03212:0000001300000013
#03315:00000013
#0331b:2300000000000013
#03518:0000000000000013
#03512:00130000
#03515:000000000000000000000000000000000000000000130000000000000000000000000000000000000000000000001300
#03912:24000000000000130000000000000000
#03918:00000000000000130000000000000000
#0391a:24
#03910:41
#04818:14000013
#04815:0000000000130000
#05114:14000014
#05212:1400000000140000
#05214:0000001400003400
#05412:13
#05418:0013000000000000
#05415:00130000
#0541b:0000001300000000
#05715:13000000000000330000130000000000
#0571b:0013000000000000
#05712:0000001300003300
#0611b:1300002300000000
#06112:13
#06115:0000002300000000
#05612:00001413
#05618:0000000000000013
#05613:00140000
#05619:00140000
#0561a:0014
#0581a:00000014
#05812:00000014
#05818:00000013000000000000000000000000
#0581b:1323
#05912:1313
#05915:0013000000130000
#05918:00130013
#0591b:0000001300000013
#06018:00000013
#06015:00000013000000000000000000001300
#06012:23
#00512:00130000
#00515:00000000000000130000000000000000
#00818:0000000000000013
#00812:00130000
#00815:000000000000000000000000000000000000000000130000000000000000000000000000000000000000000000001300
#0091b:00130000
#00918:00000000000000130000000000000000
#01015:00130000
#01012:00000000000000130000000000000000
#01018:0000000000000014
#01014:000000000000000000000000000000000000000000000014
#01118:14
#01114:000000000000000000140000000014000000000000000000
#0111a:000034340034000000000000000000000000000000000000
#01112:000000000000000000000000000000340034340034000000
#01618:000000130000130000000000000000000033000000000000
#01615:000013000013000000130000000000000000000000000000
#0161b:0013
#0361b:00130000
#03618:00000000000000130000000000000000
#03715:00130000
#03712:00000000000000130000000000000000
#03718:0000000000000014
#03714:000000000000000000000000000000000000000000000014
#03818:14
#03814:000000000000000000140000000014000000000000000000
#0381a:000034340034000000000000000000000000000000000000
#03812:000000000000000000000000000000340034340034000000
#0401b:00000000000000130000000000000000
#04015:00000000000000130000000000000000
#04012:24
#0401a:24
#04112:24000000000000130000000000000000
#04118:00000000000000130000000000000000
#0411a:24
#04215:0013000000130000
#04212:0000001300000013
#0421b:2323
#04218:00230023
#04412:14
#0441a:00140000
#04415:0013
#0451a:14
#04512:00140000
#04518:00001313
#04515:0000000000130013
#05512:24001424
#0551a:24001424
#05510:41
#02714:24
#02718:00000024000000000000000000000000
#02712:0000002400000000
#0271a:0000002400000000
#0461a:24
#04614:00240000
#04618:0024
#04612:00000024
#00754:64
#00758:000000000000005400000000
#0475a:64
#05358:5400006400000000
#0535a:0064000000640000
#00058:63
#01252:0063
#01358:0063
#0155a:54545400
#01558:0024002400000000
#01852:64
#0195a:0054
#01958:00000014
#00155:53
#00258:63
#02255:0053
#02655:53
#03058:0000000000230000
#0305b:0000005300000000
#03952:00000000000000530000000000000000
#03958:00000000000000530000000000000000
#04358:0053
#0435b:000000000000000000000000000000000013000000000000
#04858:64000013
#04855:0000000000130000
#05154:64000064
#05252:6400000000640000
#05254:0000006400000000
#0545b:0000006300000000
#05755:0000000000230000
#05752:0000006300000000
#00352:00000014
#0555a:14000054
#05552:14000054
#02752:0000003400000000
#0275a:0000004400000000
#02952:0000001300000000
#02955:53
#0335b:53
#03358:0000001300000000
#03458:0000005300000000
#05858:00000053000000000000000000000000
#0585b:5313
#06055:00000063000000000000000000000000
#06052:6300001300000000
#0615b:1300005300000000
#06155:0000005300000000
#06152:13
#0045b:00530000
#00458:00000000000000530000000000000000
#00552:00630013
#00555:00000000000000630000000000000000
#00658:00630000
#0065b:00000000000000630000000000000000
#00852:00630000
#00855:00000000000000630000000000000000
#0095b:00530013
#00958:00000000000000530000000000000000
#01055:00530000
#01052:00000000000000530000000000000000
#01158:54
#01154:000000000000006400000000
#0165b:0053
#0215a:14
#03152:53
#03552:00530000
#03555:00000000000000530000000000000000
#0365b:00630013
#03658:00000000000000630000000000000000
#03755:00630000
#03752:00000000000000630000000000000000
#03858:54
#03854:000000000000006400000000
#0405b:00000000000000630000000000000000
#04055:00000000000000630000000000000000
#04152:00000000000000530000000000000000
#04158:00000000000000530000000000000000
#04455:0063
#04452:000000000000000000000000000000000013000000000000
#02352:00000013
#0255b:0013
#04552:00140000
#05654:14
#05658:14
#000380:13
#0003b0:00000033000023000000000000000000
#001350:13
#001320:00000033000023000000000000000000
#002380:13
#0023b0:00000033000023000000000000000000
#0043b0:1300330000230000
#004380:00000000000000330000000000000000
#005320:1300330000332300
#005350:00000000000000330000000000000000
#006380:1300330000230000
#0063b0:00000000000000330000000000000000
#007340:14
#007320:000034340034240000000000000000000000000000000000
#007380:000000000000000000000014000034000000000000000000
#0073a0:000000000000000000000000000000340034340034240000
#008320:1300330000230000
#008350:00000000000000330000000000000000
#0093b0:1300330000332300
#009380:00000000000000330000000000000000
#010350:1300330000230000
#010320:00000000000000330000000000000000
#011380:14
#0113a0:000034340034240000000000000000000000000000000000
#011340:000000000000000000000014000034000000000000000000
#011320:000000000000000000000000000000340034340034240000
#012320:0013
#012350:000000000000000000000000000000000033000000230000
#013380:0013
#0133b0:000000000000000000000000000000000033000000230000
#0153a0:14343400
#015380:000000340000000000340000000000340024000000000000
#0163b0:0013
#016380:000000000000000000000000000000000033000000230000
#018320:14
#018340:00000034000024000000000000000000
#0193a0:0014
#019380:0000000000342400
#022350:0013
#022320:000000000000000000000000000000330023000000000000
#023320:00001323
#023350:0000000000330000
#026350:13
#026320:00230000
#027340:0000000000001434
#027330:00000000000000000000000000340034
#028340:24
#029350:13
#029320:00000033000023000000000000000000
#0303b0:0000001300003323
#030380:00000000000000330000330000000000
#031320:13
#031350:00000033000033002300000000000000
#0333b0:13
#033380:00000033000023000000000000000000
#034380:0000001300000000
#0343b0:0000000000333323
#035320:1300330000230000
#035350:00000000000000330000000000000000
#0363b0:1300330000332300
#036380:00000000000000330000000000000000
#037350:1300330000230000
#037320:00000000000000330000000000000000
#038380:14
#0383a0:000034340034240000000000000000000000000000000000
#038340:000000000000000000000014000034000000000000000000
#038320:000000000000000000000000000000340034340034240000
#039320:00000000000000130000000000000000
#039350:0000000000332300
#039381:00000000000000130000000000000000
#0393b1:0000000000332300
#0403b1:00000000000000130000000000000000
#040381:0000000000332300
#040350:00000000000000130000000000000000
#040320:0000000000332300
#041320:00000000000000130000000000000000
#041350:0000000000332300
#041381:00000000000000130000000000000000
#0413b1:0000000000332300
#043381:0013
#0433b1:000000000000000000000000000000330023000000000000
#044351:0013
#044321:000000000000000000000000000000330023000000000000
#0473a1:1400000000000034
#047381:0000000000340000
#048381:34
#0483a1:0024
#051341:14000034
#051321:0000000000340000
#052321:3400000000340000
#052341:0000003400003424
#053381:1400003400003424
#0533a1:0034000000340000
#0543b1:0000001300000000
#054381:0000000000332300
#0553a1:00000014
#056381:24
#055320:00000014
#056340:24
#057320:0000001300003323
#057350:00000000000000330000330000000000
#0583b0:1300003323000000
#058380:00000033000000000000000000000000
#060320:1300002300000000
#060350:00000033000000000000000000000000
#0613b0:0000001300000000
#061380:0000000000333323
#061351:0000001300000000
#061321:0000000000333323
