This file was generated by Ched 2.7.0.0.
#TITLE ""
#ARTIST ""
#DESIGNER ""
#DIFFICULTY 0
#PLAYLEVEL
#SONGID ""
#WAVE ""
#WAVEOFFSET 0
#JACKET ""
#REQUEST "ticks_per_beat 480"
#00002: 4
#BPM01: 123
#00008: 01
#TIL00: ""
#VOLUME: ""
#HISPEED 00
#MEASUREHS 00
#00515:13
#00512:00001300000000130000000013000000
#00516:00130000
#0051b:00130000
#00517:00001300000000130000000013000000
#00519:0000000000000013
#01212:0013000013000000
#0121b:000000000000000000130000000000130013000000000000
#01215:130000000013000000130000000000000000000000000000
#01218:001300130000000000000000
#01217:000000000000000000000013000000000000000000000000
#01216:000000000000000000000000000000000013000000000000
#01210:41
#0291b:000000000000000000230000000000000000000000000000130000000000230000000000000000000000000000001300
#02916:0000000000141414
#02912:230000000000000000230000130000000000130013000000
#02910:41
#00417:13130000
#0041b:00001300000000130000000013000000
#00412:1300130000130013
#00418:000000000000000000000000000000000000000000000013
#00416:0013001300001300
#04916:0013001300131300
#04912:130000000000130000000013000000000000000000000000
#04917:1300000013000013
#0491b:00000013
#00218:00000012
#00216:0000000000000012
#00217:12
#00212:12121212
#0031c:0000001200000000
#00312:0000001200002c00
#01318:001300000000000000000000
#01312:130000000000000000130000000000130013000000000000
#0131b:13131300
#01315:000000130013000000000000000000000000000000000000
#01317:000000000000000000000000000000000013000000000000
#02315:000000130000000013000013000000000000130000000000
#02312:000000000013000000000000000000130000000000000000
#02318:0000131313000000
#0231b:1300000000130000
#0231a:000000000000000000000000000000000000000000000014
#02612:1300001314001300
#0261a:00140014
#02616:1400001400140014
#0261b:0000000013000013
#05116:13
#0511b:1300130013130000
#05117:00000013
#05118:0013001300000000
#05114:0000000000000013
#05112:00000013
#05412:000000000013000000130000000000000000000000000000
#0541b:1300130000130000
#05419:0000000000001313
#05414:0000000000001313
#05415:000013000000001300000000000000000000000000000000
#05418:000000130000000013000000000000000000000000000000
#00017:12000012000000000000000000000000
#00012:1200001200000000
#0061b:13130013
#00617:00001300000000130000000000000000
#00615:0000000000000013
#00618:000000000000000000000000000000000000000000000013
#00616:1300130000130000
#00612:0013001300001300
#00712:130000000000000000000000000000000013000000000013
#00715:000013000000130000000013000000130000000000130000
#00718:0013000000001300
#0071b:000000000013000000000000000013000000000013000000
#0141b:1300130000131300
#01417:0013001300000000
#01412:1313000013000013
#01416:00130000
#01912:13131300
#01916:00131400000014000000130000000000
#01919:0000000000130000
#0191b:00131300
#01917:00000000001300000000000000000000
#01910:41
#01718:000000130013000000000000000000000000000000130000
#01715:000013000000130000000000000000000000000000000013
#0171b:13
#01712:130000000000000000000014000000000000000000130000
#0171a:001400
#01716:000000000000000000000000000014000014000000000000
#01818:13
#01816:00000013130000000000130000000000
#01814:0000001300000000
#01817:0000000013001313
#0181b:0000130000130000
#01819:0000001300000000
#01812:0000000013000013
#0201b:001300130000130000000000
#02016:000000140000000014000014000000000000000000000000
#02012:130000000013000000130000000000130000000013000000
#02018:000000000000000000000000000000000000000000000014
#0201f:11
#02114:14
#02115:000000000013000000000000130000000000000000000000
#02118:000000000000130000000013000000000000130000130000
#0211b:000000130000000013000000000000130000000000000000
#02112:0013001300130000
#02216:0013
#0221b:130000000013000000000013000000000000000000000000
#02215:000013000000160000160000000000000000000000000013
#02218:0013000000000013
#02212:130000000000000013000000000000000000000000130000
#02217:000000000000000000000000000000130013000000000000
#0281b:000000130000000013000000000000000000000000130000
#02812:000000000013000000000013000000000000130000000000
#02815:0000161600000000
#02816:130000000000000000000000000000140014000014000014
#02817:0013
#0281f:21
#03016:140000140000000000130013000000000000000000000000
#03017:000000000000000000000000001300000000130000000000
#0301b:000000000000130000130013000000000000000000000000
#03012:000000000000130000000000001300000000130000000000
#03019:0000000000000013
#03014:0000000000000013
#03116:13001313
#0311b:130000000013000000000000000000000000130000000000
#03112:000000000013000000000000000000001300000000000000000000000000230000000000000000000000000000000000
#03117:0000001300000000
#03412:0000131300002300
#03417:1300002300001300
#03416:0000000000130000
#0341b:0000130000000023
#03415:000000000000000000000013
#03418:000000000000000000000000000000000000000000000013
#03917:00000014
#0391b:00000013
#0391a:24000000000000140000000000000000
#03912:24
#03910:41
#0481b:0000000000000000001300000000000000000000130000000000000000000000
#04812:13000013000000001300000013000000
#04816:0000001300000000001300000000000000000000140000001400000000000000
#04817:00000013000000000000000000000000
#05012:0013001326282a2c
#0501b:130000000000000000000013000000000000000000000000
#05017:0013000000000000
#05016:13180000
#05216:13000014
#05217:0000001300000000
#05218:0013000000000000
#0521b:00130000
#05212:0000000000140000
#0521a:0000000000000014
#0531b:1300131300001300
#05312:1300130000130013
#05314:0013
#05316:0000001300000000
#05515:000000000000000000000000130000130000000000000013
#05518:000000000000000000000013000000130000000000130000
#0551a:24000024
#05512:24000024
#05510:41
#02518:0016
#02512:00000014
#02517:00000013
#02516:0000000000000013
#0251a:0000000000000014
#0251b:13130000
#02515:0013001300000000
#04212:2c00001300132c00000000002c00000000002c0013000000
#04218:000000000000000000130013000000000000000000000000
#04215:000000000000000000000000000000130013000000160000
#0421b:000000000000000000000000000000000000000000000013
#04512:14141414
#04517:00000000000000120000000000000000
#04516:0000000000140000
#0451c:00120000
#04315:1616000000000016
#04312:000013000000000000000013000000130013000000000013
#04316:00130000
#04317:0000001300000000
#0431b:000000130000130000001300
#04415:16
#04416:0014001300000000
#04412:0000140000000013
#04417:000000000000000000000000130000000000000000000013
#0441b:000000000000000000000000000000000013000000000000
#02412:000000000000000000000000130000000000130000000013
#0241b:0000000000130013
#02416:0014000000000000
#0241a:0000001400000000
#0151a:14
#01515:0014000000000000
#0151b:00131300
#01512:000000130000000000130000000000130013000000000000
#01517:000000000000140000000000000000000013000000000000
#0161b:000000130013000000000000000000130013000000000000
#01618:000000000000000000130013000000000000000000000000
#01612:1413
#0161a:14
#01616:001300130000000000000000
#02716:14000014000000000000000000000000
#02712:2400002400000000
#0271a:00000024000024000000000000000000
#03515:000000000000000000000000000000000000000000000013
#0351b:00001300130000130000000013000000
#03518:0000001300000013
#03512:13131313
#03612:00001300130000130000000013000000
#0361b:13131313
#03615:0000001300000016
#03812:130000000000000000000000000000000013000000000000
#03815:000013000000160000000013000000130000160000160000
#03818:0013000000000000
#0381b:000000000013000000000000000013000000000013000000
#03718:000000000000000000130000000000000000000000000013
#03715:0000000000000013
#0371b:13001300130000130000000013000000
#03712:13131313
#04115:0000000000000016
#04117:00000014
#0411b:00000013
#0411a:24000000000000140000000000000000
#04112:24
#04618:000000000000000000000013
#04615:000000000000000000000000000000000000000000000013
#04612:0024240000242413
#04616:00140000001400000014000000000000
#0461a:2400002424000000
#0471b:13001300130000130000000013000000
#04715:0000001300000013
#04712:0000130000130000
#04718:000000000000000000000000000000000000000000000013
#04716:0013000000001300
#04710:41
#00117:12000012000000000000000000000000
#0011c:1200001200000000
#00918:13
#0091b:00001300000000130000000013000000
#00917:00130000
#00912:00130000
#00916:00001300000000130000000013000000
#00914:0000000000000013
#00812:00001300000000130000000013000000
#00816:00130000
#0081b:1300130000130013
#00815:000000000000000000000000000000000000000000000013
#00817:0013001300001300
#01012:13130013
#01016:00001300000000130000000000000000
#01018:0000000000000013
#01015:000000000000000000000000000000000000000000000013
#01017:1300130000130000
#0101b:0013001300001300
#0111b:130000000000000000000000000000000013000000000000
#01118:000013000000130000000013000000130000000000000000
#01115:0013000000001300
#01112:000000000013000000000000000013000000000013000000
#03212:000000130000000013000000000000000000000000130000
#0321b:000000000013000000000013000000000000130000000000
#03215:0000161600000000
#03216:000000000000000000000000130000140014000014000014
#03217:13
#0331b:2300002313000000
#03316:0000000013000013
#03317:00000013
#03312:00000023000000000000230013000000
#04015:00000014
#04012:24000000000000140000000013000000
#0401a:24
#05612:000000000000000000230000000000000000000000000000130000000000230000000000000000000000000000001300
#05616:0000000000141414
#0561b:230000000000000000230000130000000000130013000000
#05716:140000140000000000000000001300000000130000000000
#05717:000000000000000000130013000000000000000000000000
#05712:000000000000130000130013000000000000000000000000
#0571b:000000000000130000000000001300000000130000000000
#05714:0000000000000013
#05719:0000000000000013
#05817:13001313
#05812:130000000013000000000000000000000000130000000000
#0581b:000000000013000000000000000000001300000000000000000000000000230000000000000000000000000000000000
#05816:0000001300000000
#0611b:0000131300001300
#06112:1300130000000013
#06116:0000002300242424
#0591b:000000130000000013000000000000000000000000130000
#05912:000000000013000000000013000000000000130000000000
#05915:0000161600000000
#05916:130000000000000000000000000000140014000014000014
#05917:0013
#06012:2300002313000000
#06017:0000000013000013
#06016:00000013
#0601b:00000023000000000000230013000000
#00257:62
#02358:00006313
#0235b:6300000000230000
#02355:00000013
#02652:6314
#02656:0000000000140014
#0265a:00000014
#05156:53
#0515b:0000000000630000
#05157:00000053
#05452:0000005300000000
#00057:62
#01252:0053
#01256:000000000000000000000000000000000053000000000000
#01257:0000000000000013
#01352:0000006300000000
#0135b:00536300
#01357:000000000000000000000000000000000063000000000000
#01356:0000000000000013
#01457:0000001300000013
#0145b:0000000000136300
#01452:0053001353000013
#01456:0000530000130000
#01952:53005333
#01956:00231400000014000000230000000000
#0195b:00630000
#01957:00000000002300000000000000000000
#01858:63
#01857:0000000000000063
#01852:0053
#01856:0000000000230000
#0205b:0063
#02052:0000000000530000
#02154:14
#02152:0000000000230000
#02155:0053
#02256:0053
#02856:63
#02857:0053
#03056:640000140000000000000063000000000000000000000000
#03052:000000130000000000000000002300000000000000000000
#0305b:000000000000000000000063000000000000000000000000
#03057:000000000000000000000000002300000000000000000000
#03156:53000053
#03157:0000006300000000
#03152:000000000023000000000000000000000000000000000000000000000000330000000000000000000000000000000000
#03957:00000014
#0395b:00000013
#03952:34
#0395a:44000000000000540000000000000000
#0485b:0000000000000000002300000000000000000000130000000000000000000000
#04852:53000053000000000000000013000000
#04856:0000002300000000002300000000000000000000140000001400000000000000
#04857:00000053000000000000000000000000
#05256:63
#05257:0000006300000000
#0535b:5300006300002300
#05352:6300000000230023
#05355:0013000000000000
#05358:0013000000000000
#02558:0046
#02552:0036
#0255b:23230000
#02555:0023002300000000
#04552:00140014
#04557:00000000000000520000000000000000
#0455c:00000012
#04356:00630000
#04352:000000000000000000000000000000000013000000000000
#0435b:0053
#04357:000000000000000000000000000000000013000000000000
#04456:0034006300000000
#04452:00340000
#04457:0053
#0445b:000000000000000000000000000000000023000000000000
#04956:0000000000136300
#04957:0000000053000013
#0495b:0000000000130000
#04952:0000000000000013
#0045b:00000000000000530000000000000000
#00557:00000000000000630000000000000000
#00552:00000000000000630000000013000000
#00657:00000000000000630000000000000000
#0155a:54
#01555:0024000000000000
#0155b:00535300
#01552:000000630000000000630000000000000063000000000000
#01557:000000000000240000000000000000000063000000000000
#01652:0000000053000013
#0165b:000000000000000000000000000000000053000000000000
#01656:00530000
#02452:00005353
#0245b:0000000000630000
#02456:0054000000000000
#0245a:0000002400000000
#03552:33333333
#0355b:00000000000000530000000000000000
#0365b:43434343
#03652:00000000000000630000000000000000
#03752:33333333
#0375b:00000000000000530000000000000000
#0475b:00000000000000530000000000000000
#05056:00180000
#05052:0000000016181a1c
#00352:0000001c
#0555a:14000014
#05552:14000014
#02752:3400003400000000
#0275a:00000044000044000000000000000000
#04252:1c1c1c1c
#02952:5300001300000000
#0295b:00000023000000000000430000000000
#02956:0000001300000000
#03457:1300005300000000
#03452:13
#00157:52
#0095b:00000000000000530000000013000000
#00956:00000000000000530000000000000000
#00852:00000000000000630000000000000000
#01056:00000000000000530000000000000000
#0175a:002400
#01756:000000000000000000000000000000000014000000000000
#03257:53
#03256:0063
#0335b:6300001300000000
#03352:00000023000000000000330000000000
#03357:0000001300005300
#03356:0000000000000063
#04052:34000000000000540000000013000000
#0405a:44
#04055:00000014
#04157:00000014
#0415b:00000013
#0415a:44000000000000640000000000000000
#04152:34
#05756:540000140000000000000000002300000000000000000000
#05757:000000000000000000000053000000000000000000000000
#0575b:000000130000000000000000002300000000000000000000
#05752:000000000000000000000053000000000000000000000000
#05857:63000063
#05856:0000005300000000
#0585b:000000000023000000000000000000000000000000000000000000000000430000000000000000000000000000000000
#05956:63
#05957:0053
#06152:13
#06156:0000006300000000
#0615b:13
#06057:0000000000000053
#06056:0000001300006300
#06052:5300001300000000
#0605b:00000023000000000000430000000000
#05652:00000023000000000000330000000000
#0565b:6300001300000000
#05657:0000001300000000
#04652:0034000000340000
#0465a:0000004400000000
#000370:12
#0003c0:00000032000022000000000000000000
#001370:12
#001320:00000032000022000000000000000000
#002370:12
#0023c0:00000032000022000000000000000000
#0043b0:00000000000000130000000000000000
#004370:0000000000230000
#005370:00000000000000130000000000000000
#0053b0:0000000000230000
#005321:00000000000000130000000000000000
#005361:0000000000230000
#006371:00000000000000130000000000000000
#0063b1:0000000000230000
#007381:000000000000000000130023000000000000000000000000
#008321:00000000000000130000000000000000
#008361:0000000000230000
#009361:00000000000000130000000000000000
#009321:0000000000230000
#0093b0:00000000000000130000000000000000
#009370:0000000000230000
#010360:00000000000000130000000000000000
#010320:0000000000230000
#011350:000000000000000000130023000000000000000000000000
#011380:000000000000000000000000000000000000000000135300
#0113a0:000000000000000000000000000000000000000000000000000000000000000000000000000000000000005300000000
#012380:23
#012320:0013
#012360:0000000000230000
#012360:000000000000000000000000000000000013000000000000
#012320:000000000023
#012371:000000000000000000000000000000000000000013230000
#0133b1:00130000
#013371:0000002300000000
#013320:0000001300000000
#013360:0023
#0133b1:0013
#013371:0000000000230000
#013371:000000000000000000000000000000000013000000000000
#0133b1:000000000023
#013360:000000000000000000000000000000000000000013230000
#014320:0013002300000000
#014360:00330000
#014320:0013
#014360:0000000000230000
#0143b0:00000013
#014370:0000000000000023
#0153a0:14
#015350:0034002400000000
#0153b0:00330000
#015321:0013003300000000
#015371:00342400
#0153b0:0013
#015370:0000000000230000
#015320:000000000000000000000000000000000013000000000000
#015360:0000000000000023
#015371:000000000000000000000000000000000013000000000000
#0153b1:0000000000000023
#016361:00130000
#016321:0000002300000000
#016321:0013
#016361:0000000000230000
#0163b1:000000000000000000000000000000000013000000000000
#016371:000000000023
#016320:000000000000000000000000000000000000000013230000
#0173a0:001400
#017360:000000000000000000000024000000000000000000000000
#0173a0:000000000000142400000000
#017320:000000000000000000000000000000140024000000000000
#018380:13
#0183b0:00000023000000000000000000000000
#018320:00001323
#018360:0000000000330000
#018370:0000000000000013
#0193b0:23
#019321:1323000000000000
#019361:00530000000000000000000000000000
#0193b1:0000132300000000
#019371:00000000005300000000000000000000
#019321:00001323
#019361:0000000000330000
#019370:0000000000001333
#0193b0:00000000000000000000000000330033
#020370:23
#0203b0:0013
#020370:0000000000230000
#020321:0000000000130000
#020361:00000023
#0203b0:000000000000000000132300
#021350:0000000013003323
#021320:0000000000330000
#022360:0013
#022320:000000000000000000000000000000330023000000000000
#0233b0:13
#023380:0023000000000000
#023380:00001323
#0233b0:0000000000330000
#024320:1424000000000000
#024361:0014000000000000
#0243a1:00240000
#024360:0000142400000000
#0243a1:0000001400000000
#024361:0024
#024320:0013
#024370:0000000000230000
#0243b1:0000000000130000
#024361:00000023
#024320:00000013
#024370:0000000000000023
#0253b0:13
#025380:0023000000000000
#025351:0013000000000000
#025321:00230000
#0253b0:00130000
#025380:0000002600000000
#025351:0000001300000000
#025321:0026
#026321:13
#026361:00230000
#027321:0000000000001323
#027361:00000000000000000000000000330000
#0273b0:0000000000000013
#027370:00000000000000000000000000000033
#0283b0:23
#028361:13
#028321:0023000000000000
#028371:0013
#0283b1:0000000000230000
#029321:13
#029371:00000023000000000000000000000000
#0293b0:00000013000000000000000000000000
#029360:0000002300000000
#030360:14
#030320:0023000000000000
#030360:000000000000000000000013000000230000000000000000
#030320:000000000000000000000000005300000000000000000000
#0303b1:000000000000000000000013000000230000000000000000
#030371:000000000000000000000000005300000000000000000000
#031361:130000000023000000000000000000000000000000000000
#031321:000000000053000000000000000000000000000000000000000000000000000000000000000000000000000000000000
#031371:0000001300000000
#0313b1:0023
#031361:00000013
#032321:23
#032370:13
#0323b0:0023000000000000
#032360:0013
#032320:0000000000230000
#0333b0:13
#033360:00000023000000000000000000000000
#033321:00000013000000000000000000000000
#033371:0000002300000000
#033371:00000013
#0333b1:0000000000000023
#033360:0000000000000013
#034320:23
#034370:0000001300000000
#0343b0:0000000000230000
#0353b0:00000000000000130000000000000000
#035370:0000000000230000
#036320:00000000000000130000000000000000
#036360:0000000000230000
#0373b0:00000000000000130000000000000000
#037370:0000000000230000
#038380:000000000000000000130023000000000000000000000000
#0393a0:00000000000000140000000000000000
#039350:0000000000240000
#039321:00000000000000130000230000000000
#040321:00000000000000140000000000000000
#040371:0000000000240000
#0403b0:00000000000000130000230000000000
#0413a0:00000000000000140000000000000000
#041350:0000000000240000
#041321:00000000000000130000230000000000
#043361:00130000
#043321:0000002300000000
#0433b1:0013
#043371:000000000000000000000000000000330023000000000000
#0443b1:000013230000000000000000000000000000000000000000
#044381:000000000013230000000000000000000000000000000000
#0443b1:000000000000000013230000000000000000000000000000
#044360:0000001300000000
#044320:0023
#044371:0013
#0443b1:0000000000230000
#044360:000000000000000000000000000000130023000000000000
#0443b1:000000000000000000000000000000000013000000000000
#044371:0000000000000023
#045371:00000000000000120000000000000000
#0453c1:0000000000322200
#0463a1:0014240000000000
#046321:0000001424000000
#0463a1:0000000000142400
#0473b1:00000000000000130000000000000000
#047371:0000000000230000
#048321:13000033000023000000000000000000
#048361:0000005300000000005300000000000000000000000000000000000000000000
#048370:00000013000023000000000000000000
#0483b0:0000000000000000005300000000000000000000000000000000000000000000
#0493a0:0014002400000000
#049370:0013
#0493b0:0000000000230000
#049360:00000013
#049320:0000000000000023
#051360:13
#051320:0000000000230000
#0513b1:0000000000130000
#051371:00000033
#0523b1:23
#052360:13
#052320:0000002300000000
#052371:0000001300000000
#0523b1:0000000000230000
#053321:13
#053351:0023000000000000
#0533b0:13
#053380:0023000000000000
#0533b0:0000001300000000
#053370:0000000000230000
#053321:0000000000130000
#053361:00000023
#0533b0:00000013
#053370:0000000000000023
#053321:0000000000000013
#054361:23
#054321:0000001300000000
#054361:0000000000230000
#0563b1:13
#056361:00000023000000000000000000000000
#056320:00000013000000000000000000000000
#056370:0000002300000000
#057360:14
#0573b0:0023000000000000
#057370:000000000000000000000013000000230000000000000000
#0573b0:000000000000000000000000005300000000000000000000
#057321:000000000000000000000013000000230000000000000000
#057361:000000000000000000000000005300000000000000000000
#058371:130000000023000000000000000000000000000000000000
#0583b1:000000000053000000000000000000000000000000000000000000000000000000000000000000000000000000000000
#058361:0000001300000000
#058321:0023
#058371:00000013
#0593b1:23
#059360:13
#059320:0023000000000000
#059370:0013
#0593b0:0000000000230000
#060320:13
#060370:00000023000000000000000000000000
#0603b1:00000013000000000000000000000000
#060361:0000002300000000
#060361:00000013
#060321:0000000000000023
#060370:0000000000000013
#0613b0:23
#061360:0000001300000000
#061320:0000000000230000
