This file was generated by Ched 2.7.0.0.
#TITLE ""
#ARTIST ""
#DESIGNER ""
#DIFFICULTY 0
#PLAYLEVEL
#SONGID ""
#WAVE ""
#WAVEOFFSET 0
#JACKET ""
#REQUEST "ticks_per_beat 480"
#00002: 4
#BPM01: 175
#00008: 01
#TIL00: ""
#VOLUME: ""
#HISPEED 00
#MEASUREHS 00
#0551f:0011
#05512:0000131300242424
#0551b:1313000000000000
#05516:14241400
#0551a:0000000000242424
#02416:0000140000140000
#0241a:00001414
#02412:0014000024002600
#02516:0014000000000000
#0251a:14140000
#02512:2400260013000013
#0251b:0013
#02518:0000000000130013
#02515:00000013
#02616:0000000000140000
#02612:00001414
#0261b:0013000000000000
#02618:00130026
#02615:0000001300000000
#0261a:0024
#02716:0014000000000000
#02712:14141300
#0271b:0000000013000013
#02715:0000000000130013
#02718:00260013
#0271a:24
#02812:0013000023001300
#02815:0000001300130013
#02818:00130013
#0281b:0000000023000013
#02918:0013000000001300
#02916:0000001300000000
#02912:00000000000000000000001300000000
#03012:0000130000000013
#0301b:1323
#03018:0000001300130013
#03015:00001313
#00112:0000120000000012
#00116:0000000012120000
#00118:0000120000000012
#0011c:0000000012120000
#00812:2424002600140000
#00816:00000014
#0081a:0024000000000000
#00818:0000002600000000
#00912:2400000013130000
#00916:0000130000000013
#0091b:0000130000000013
#00917:0000000013130000
#0091a:24
#00910:41
#01017:00130000
#01012:0000001313000013
#0101b:0000000013000013
#01018:0000000000130000
#01015:00000013
#0111b:00000013
#01116:00000000001300000000000000000000
#01212:1313
#0121b:1313
#01215:0013001300001300
#01218:0000130000130013
#01312:1400130000000013
#0131a:14
#0131b:0000000013130000
#01317:0000130000000013
#01316:0000000013130000
#01416:0013001300000024
#01417:0000000000130000
#0141b:0000131300000000
#01412:0000000000001313
#0151b:0013000013000013
#01515:0000130000130000
#01518:0000001300001300
#01512:0013
#01612:12120000
#01618:0012000000000000
#0161a:0000001200120000
#01614:00001212
#0161c:0000000000000012
#01716:12
#0171c:12
#01712:00001212
#01718:0000000000121200
#01816:0000001212000000
#0181c:00121200
#01812:00000012
#01818:00000012
#01916:12
#0191c:12
#01918:00120000
#01912:00120000
#02012:00130014
#02017:0000001300001400
#0201a:0014
#02015:0024
#02010:0041
#02112:0000140013131600
#02118:0000000026001313
#02117:00140000
#02115:14
#0211a:14
#02215:1313000000000000
#0221b:0000131300000000
#02218:16
#02212:0000160013130000
#02217:00000000000000000013001300000000
#02214:0000000000001313
#02219:00000000000000000000000000130013
#02316:1313140000000000
#0231b:00130013000000000000000000000000
#0231a:0000000024240000
#02318:0000000000000026
#02312:00000000003434340000240000002600
#0311b:1300001300000000
#03115:0013000000000000
#03112:0000130024240026
#0311a:0000000024240000
#03118:0000000000000026
#0321a:0014000000001400
#03216:00141400
#03218:0000000000140000
#03212:00002426
#03210:0041
#03316:14
#03318:0014000013001300
#0331a:00140000
#03312:2400260013000013
#03315:0000000000130000
#0331b:0000000000000013
#03412:0013000000001400
#03415:00130000
#03418:0000001300002600
#03416:0014
#03414:0000000000140000
#0341a:0024
#03516:14
#03514:0014000000000000
#03512:0000140000000013
#03515:00001313
#0351b:0000000013000013
#03518:0000260000130000
#0351a:24
#03618:0000001300130013
#03615:00130013
#0361b:0013000023001300
#03612:0000000023000013
#03715:0013000000001300
#03717:0000001300000000
#0371b:00000000000000000000001300000000
#03818:00131313
#03812:1323
#03815:0000001300130013
#0381b:0013000000000013
#03912:1300001324240024
#03918:0013000000000000
#0391b:00130000
#03916:00000014
#0391a:0000000024240024
#0021c:0000001200000000
#00212:0012
#00216:00000012
#00218:0000000000120012
#00418:0000001200000000
#00412:0000001212000000
#00518:1200000012120000
#0051c:0000120000000012
#00516:0000120000000012
#00512:0000000012120000
#00612:0000001200000000
#0061c:0012
#00618:00000012
#00616:0000000000120012
#00718:00000013
#00712:0012
#0071c:0012
#0071a:00000000000000000000000000333333
#00715:00000000000000000032323200000000
#04016:00140000
#0401a:0024002400000000
#04012:0024002400000000
#0421b:0000000000001313
#04215:00000000000000000000000000130000
#04218:0000002600000000
#04212:0000002600000000
#04312:1313000000000000
#04318:00130000000000000000000000000000
#0431b:00000000130013000000000000330000
#04315:00000000001300000033000000000000
#0441b:00130000
#04415:00330000001300000000000000001300
#04418:00000000000013001600000000130000
#04412:00000000000000130000000013000000
#0451b:13000000000000001300000000130000
#04515:00130000000013000000000013000000
#04518:00001300001300000000130000000000
#04512:00000000130000000013000000001300
#0461b:13000000001300000033000000000000
#04612:00130000000013000000000000330000
#04618:0013000000000000
#04615:00130000
#04715:00130000
#0471b:00330000001300000000000000000000
#04718:00000000000000130000260000002600
#04712:0000001326000026
#04812:0014000024001300
#04816:00140024
#04814:0000000000000013
#0481a:0024
#04810:0041
#04912:0000131300000016
#04916:1300241400130000
#0491a:1400000000002414
#04914:0013000000000000
#05018:0016000000000000
#05012:0014001600131300
#05014:0000000000000013
#0501a:0000001400000000
#05016:00000024
#05116:14241424
#05119:0013000000000000
#05112:0000130000001313
#05114:0000001300000000
#0511b:1300000013130000
#0521b:1313000000001300
#05212:00140000
#05219:0000000000000013
#05216:24242424
#0521a:0024
#0531b:0000131300000000
#05316:0000241400000000
#05317:1300000000130000
#05312:1400000000001424
#05319:0013000000000000
#05318:0000000000000016
#05416:0013000000002400
#0541a:0000241400000000
#0541b:0000000000130000
#05412:0000002600001313
#05618:0012
#05612:2412
#0561a:24
#0571c:12120000
#05716:0012120000000000
#05718:0000000000000012
#05712:00000012
#05812:1212
#05818:1212
#0581c:00120012
#05816:00120012
#0591b:00000013
#05916:0000000000000013
#0611b:1313000000000000
#06115:0000131300000000
#06118:0000160013131600
#06112:2600000016001313
#0621b:1313000000000000
#06216:00130013000000000000000014000000
#06219:0000131300000000
#06214:00000000001300130000000000000000
#06217:0000000013130000
#06212:00000000000000000013001300000000
#0621a:00000000000000000000000000343434
#0631a:0024000000140000
#06316:00000014
#06312:2424002600000000
#06318:0000002600000000
#06015:00140014
#0601a:00140014
#06017:2414
#06012:1414
#06412:14142426
#06416:0014000000140000
#0641a:24001414
#0641f:21
#06418:00260000
#06512:1300001300000000
#06518:1300130000130013
#06515:0013000000001300
#0651b:0000001300000000
#0671b:1300001300000000
#06715:1300130000130013
#06718:0013000000001300
#06712:0000001300000000
#06815:0013001300000000
#06818:00130000
#0681b:2300001300000013
#06812:2300130000130000
#06917:00000013000000000000000000000000
#06912:00131300
#06915:00000013
#06918:0000000000000013
#07012:1300001300000000
#07018:0013001300001300
#07015:0000130013000013
#0701b:2300000000130000
#07112:2424002600140000
#07116:00000014
#0711a:2424000000000000
#07118:0000002600000000
#0661a:14142400
#06616:0014000000140000
#06612:24261414
#06618:00000026
#06610:41
#07216:1414
#07214:0014000000000000
#07212:00142426
#07218:0000260000140000
#0721a:24000014
#07416:1414
#07418:0014000000002600
#0741a:00142400
#07414:0000000000140000
#07412:24260014
#0731b:1300000000130000
#07312:1300001300000000
#07318:0013001300001300
#07315:0000130000000013
#07512:1300000000130000
#0751b:1300001300000000
#07515:0013001300001300
#07518:0000130000000013
#07618:0013001300000000
#07615:00130000
#07612:2300001300000013
#0761b:2300130000130000
#07716:00000013000000000000000000000000
#0771b:00131300
#07718:00000013
#07715:0000000000000013
#0781b:1300001300000000
#07815:0013001300001300
#07818:0000130013000013
#07812:2300000000130000
#07916:0000140000140000
#07912:2424002400001400
#0791a:2424002400001400
#0801a:1414
#08016:0014000000140000
#08012:24142414
#08010:41
#08212:1414
#08216:0014000000140000
#0821a:24142414
#08112:0000140000141400
#0811b:1313
#08117:00130000
#08119:0013001300000000
#0811a:00000000000000000000001400000000
#08116:2400000024000014
#0831a:0000140000141400
#08312:13000000000000001300001400001600
#08316:24132400
#08314:0013001300000000
#08318:00000000000000000000000000000016
#0841a:0014000000140000
#08416:00140000
#08412:2600001400160014
#08418:0000001600000016
#0851b:0013130000001300
#08514:0000001300000013
#08512:0013
#08516:00241424
#08519:0000000000130000
#08612:13000000003400000000000014000000
#08616:14141400
#0861a:00340000000000000034000000140000
#08614:0000000000000014
#08618:00000000000000000000000000000014
#08818:16
#08812:16
#00314:0000000022220000
#0031a:0000000000002222
#08712:2600002600242400
#08718:0026002600000000
#0871a:00000024
#02552:0000360000000053
#0275b:0000000000000063
#02758:00460000
#02855:0000000000000053
#0285b:0000000000000013
#02958:0063000000000000
#02956:0000005300000000
#02952:00001300000000000000002300000000
#0295b:0000001300000000
#00956:0000000000000053
#00952:14
#0095a:14
#01052:0000000000000053
#01156:00000000002300000000000000000000
#01352:14
#0135a:14
#01357:0000000000000063
#01456:0000005300000014
#01452:0000000000000063
#0175c:62
#01752:00000052
#01958:00620000
#01952:00620000
#02152:00000016
#02157:00140000
#02155:14
#02258:16
#02252:00160000
#02356:00540000
#02358:0000000000000056
#03058:0000000000000063
#0315b:23
#03155:0053000000000000
#03152:0000230000000066
#02057:00000014
#02055:0014
#03658:0000000000000063
#03652:0000000000000013
#03755:0053000000000000
#03757:0000006300000000
#0375b:00001300000000000000002300000000
#03752:0000001300000000
#03855:0000000000000053
#03952:23
#03958:0063000000000000
#0395b:00230000
#00558:12
#0055c:0000000000000062
#00556:0000000000000062
#00152:0000000000000052
#00158:0000000000000052
#00258:0000000000000062
#00656:0000000000000052
#00758:00000053
#00752:0052
#0335b:0000000000000053
#03352:00160000
#03552:0000000000000063
#03558:00160000
#04458:0016
#04956:0000005400000000
#04952:0000000000000036
#05058:0046000000000000
#05052:0000003600000000
#0505a:0000005400000000
#05252:00540000
#05256:0014
#0525a:0014
#05356:0000006400000000
#05358:0000000000000046
#05652:0052
#0575c:00620000
#05856:00000052
#0585c:00000052
#06158:00160016
#06152:0016
#06256:00000064
#06055:00140014
#06057:1414
#06552:0000005300000000
#0675b:0000006300000000
#06855:0000001300000013
#0685b:0000005300000053
#06852:0000000000630000
#06858:0000000000130000
#06957:00000023000000000000000000000000
#07052:0000005300000000
#07055:0023
#0705b:0000000000630000
#07058:00000023
#07352:0000005300000000
#0755b:0000006300000000
#07658:0000001300000013
#07652:0000006300000063
#0765b:0000000000530000
#07655:0000000000130000
#07756:00000023000000000000000000000000
#0785b:0000006300000000
#07858:0023
#07852:0000000000530000
#07855:00000023
#0805a:54445444
#08056:0024000000240000
#08052:14
#08252:64346434
#08256:0024000000240000
#08152:00140000
#0835a:00140000
#08458:0000004600000046
#08452:1600000000360064
#08656:54645400
#08858:56
#08852:66
#02452:00000036
#02658:00000046
#00858:0000005600000000
#03252:00000016
#03458:00000016
#0405a:0000005400000000
#04052:0000006400000000
#04258:0000004600000000
#04252:0000005600000000
#04758:0000000000000056
#04852:0014
#0485a:0014
#05452:0000001600000000
#06352:0000006600000000
#06458:00460000
#06452:00000036
#07158:0000005600000000
#06652:00360000
#06658:00000046
#07258:00160000
#07252:00000016
#07452:00160000
#07458:00000016
#08758:0000005600000000
#001320:0000000000000012
#002360:00220000
#001381:0000000000000012
#0023c1:00220000
#002381:0000000000000012
#0033c1:0000002200000000
#004381:0012
#0043a1:0000000000320000
#0043c1:00000022
#004360:00000012
#004340:0000000000000032
#005320:22
#0053c0:0000000000000012
#006380:00220000
#005361:0000000000000012
#006321:00220000
#006361:0000000000000012
#007321:0000002200000000
#007321:0012
#007351:00000000000000000032323223000000
#007380:00000013
#0073a0:00000000000000000000000000333333
#0083a0:24
#008380:0000001600000000
#0083a0:0000000000240000
#009360:0000000000000013
#010320:00230000
#010320:0000000000000013
#011360:00000000005300000000000000000000
#011320:00000023
#013370:0000000000000013
#0143b0:0023000000000000
#014360:0000001300000000
#014320:0000000000230000
#014320:0000000000000013
#015360:0023000000000000
#0173c0:12
#017380:0022
#017320:00000012
#018360:00220000
#019380:00120000
#0193c0:00000000000000000000525252525252
#0193b0:0000000000000000000000000000000000000000005200520052005200520052
#0203c0:22
#019321:00120000
#019361:00000000000000000000525252525252
#019351:0000000000000000000000000000000000000000005200520052005200520052
#020361:22
#023361:00140000
#023321:00000000003434342400000000000000
#023381:0000000000000016
#0243a1:0024000000000000
#025321:0000000000000013
#026351:0023000000000000
#0273b1:0000000000000013
#028381:0023000000000000
#028351:0000000000000013
#029321:0023000000000000
#029380:0013000000000000
#0293b0:0000002300000000
#029361:0000001300000000
#029321:00000000000000000000005300000000
#030361:23
#030381:0000000000000013
#0313b1:53
#031381:0023000000000000
#031350:0013002300000000
#031320:00530000
#031320:0000000000000016
#032320:0024000000000000
#0333b0:0000000000000013
#034380:0023000000000000
#035320:0000000000000013
#036350:0023000000000000
#036380:0000000000000013
#0373b0:0023000000000000
#037351:0013000000000000
#037321:0000002300000000
#037370:0000001300000000
#0373b0:00000000000000000000005300000000
#038370:23
#038350:0000000000000013
#039320:53
#039350:0023000000000000
#039381:0013002300000000
#0393b1:00530000
#0403a1:0000001400000000
#040381:00000000000000000000000052525252
#040391:0000000000000000000000000000000000000000000000000052005200520052
#041381:52525252525222000000000000000000
#041391:0052005200520052005200520000000000000000000000000000000000000000
#040320:0000001400000000
#040360:00000000000000000000000052525252
#040350:0000000000000000000000000000000000000000000000000052005200520052
#041360:52525252525222000000000000000000
#041350:0052005200520052005200520000000000000000000000000000000000000000
#042320:0000001600002300
#043320:0013
#043350:00000000000000000033333323000000
#043381:00000013
#0433b1:00000000000000000000000000333333
#0443b1:23
#044320:13
#044350:00333333230000000000000000000000
#046380:0013
#0463b0:00000000000000000033333323000000
#046351:00000013
#046321:00000000000000000000000000333333
#047321:23
#047380:13
#0473b0:00333333230000000000000000000000
#047380:0000000000000016
#0483a0:0024000000000000
#049360:0000001400000000
#0493a0:0000000000240000
#0503a0:0000001400000000
#050360:0000000000240000
#052320:00140000
#052360:0024
#053360:0000001400000000
#053320:0000000000240000
#056320:0012
#057360:22
#0573c0:00120000
#057380:00000022
#058360:00000012
#059320:00005252525252522200000000000000
#059330:0000000000520052005200520052005200000000000000000000000000000000
#0583c1:00000012
#059381:00005252525252522200000000000000
#059391:0000000000520052005200520052005200000000000000000000000000000000
#062361:00000014
#0623a1:00000000000000000000000000343434
#0633a1:24
#063321:0000001600240000
#065321:0000001300000000
#065351:0000000000230000
#0673b1:0000001300000000
#067381:0000000000230000
#0683b1:0000001300000000
#068381:0000000000230000
#068320:0000000000130000
#068350:0000000000000023
#0683b1:0000000000000013
#069371:00000053000000000000000000000000
#0693b1:0023
#070321:0000001300230000
#070351:0053
#0703b0:0000000000130023
#070380:00000053
#071380:0000001600000000
#0713a0:0000000000240000
#073320:0000001300000000
#073350:0000000000230000
#0753b0:0000001300000000
#075380:0000000000230000
#076320:0000001300000000
#076350:0000000000230000
#0763b1:0000000000130000
#076381:0000000000000023
#076320:0000000000000013
#077360:00000053000000000000000000000000
#077320:0023
#0783b0:0000001300230000
#078380:0053
#078321:0000000000130023
#078351:00000053
#0803a1:14240000
#080361:0054000000000000
#0803a1:00001424
#080361:0000000000540000
#082321:14240000
#082361:0054000000000000
#082321:00001424
#082361:0000000000540000
#084321:0000000000000014
#085361:0024000000000000
#086361:14
#0863a1:00343434240000000000000000000000
#086360:00140000
#086320:00000000003434342400000000000000
#086361:0014
#0863a1:00000000000000000034343424000000
#087381:0000001600000000
#0873a1:0000000000240000
#088381:16
#0913c1:22
#088320:16
#091320:22
