This file was generated by Ched 2.7.0.0.
#TITLE ""
#ARTIST ""
#DESIGNER ""
#DIFFICULTY 0
#PLAYLEVEL
#SONGID ""
#WAVE ""
#WAVEOFFSET 0
#JACKET ""
#REQUEST "ticks_per_beat 480"
#00002: 4
#BPM01: 175
#00008: 01
#TIL00: ""
#VOLUME: ""
#HISPEED 00
#MEASUREHS 00
#0551f:0011
#05516:14
#05512:0000140000240024
#0551a:00001424
#0011b:00130000
#00115:0000000013130000
#00118:0000000000000013
#00212:0013
#00218:0000000000130000
#00215:00000013
#0021b:0000000000000013
#00512:00130000
#00518:0000000013130000
#00515:0000000000000013
#0061b:0013
#00615:0000000000130000
#00618:00000013
#00612:0000000000000013
#0091b:00130000
#00915:0013
#00918:0000000000130000
#00912:2400000000000013
#0091a:24
#00910:41
#01018:0013
#01012:0000000000130000
#0101b:00000013
#01015:0000000000000013
#01112:00000000001300000000000000000000
#01312:14130000
#01318:0013
#01315:0000000000130000
#0131b:0000000000000013
#0131a:14
#01415:00130000
#01418:0000001300000000
#01412:00000013
#0141a:0000000000000024
#01512:00140000
#01516:0014
#0151a:00000014
#01218:13130000
#01215:00001313
#01612:14
#01616:0034343434343434
#0171b:13
#01712:00000013
#0181b:0013
#01818:00000013
#01915:13
#01912:00130000
#0191b:00130000
#02014:00000014
#0201a:0024
#02010:0041
#02118:14
#02112:00140014
#0211a:0024
#02216:14000014
#0221a:00140000
#0251b:0013
#02512:0000240000130000
#02518:00000013
#02515:0000000000000013
#0251a:24
#02712:2413
#0271b:0000000000130000
#02715:00000013
#02718:0000000000000013
#0271a:00240000
#02815:0000001300000000
#02818:00001313
#02812:0000000000000013
#03018:00130000
#03012:0000001300000000
#0301b:00001313
#03015:0000000000000013
#03315:0013
#0331b:0000000000130000
#03312:24000013
#03318:0000000000000013
#0331a:00240000
#03518:0013
#0351b:00000013
#03515:0000000000000013
#03512:0000240000130000
#0351a:24
#03618:0000001300000000
#0361b:0000000000000013
#03615:00001313
#0421b:00000013
#04216:0000000000000013
#04212:0000002400000000
#0421a:0000002400000000
#04319:13
#04317:00130000
#04312:0000001300000000
#04314:0013000000000000
#0431b:00001313
#04315:0000000000130013
#04418:1300130000000013
#04412:0013001300001300
#0441b:0013
#04515:13001313
#0451b:0013000000130013
#04512:00130000
#04518:0000001300000000
#04612:13131300
#04618:0013001300001300
#04615:0000000000130000
#0461b:0000000000000013
#04712:1300000024000024
#04715:0013000000000000
#04718:00130000
#0471b:0000001300000000
#0471a:0000000000240024
#0481b:00000013
#04812:0024
#0481a:0024
#04810:0041
#04912:13
#04918:0013000000000000
#04915:0000001300000000
#0491a:0000000000000014
#05212:00001413
#0521a:0014
#05218:13130000
#0531b:13
#05315:0013000000001300
#05318:0000001300000013
#05418:00130000
#0541a:00000014
#05412:0013000000000000
#05415:0000002300000000
#05115:00001313
#0511b:13130000
#05112:0013000000000000
#05812:13000013
#05815:00130000
#05818:0013
#0581b:00000013
#06018:00140000
#06014:0014
#0601a:00000014
#06012:24
#0611a:00140000
#06116:0014
#06112:24000014
#06216:00140000
#05012:0014000000000000
#0501a:0000001400000000
#05015:00000013
#05615:0013
#0561a:24
#03815:0013130000000000
#03818:0000000000000013
#03812:00001313
#0381b:0000001300000000
#0391b:0013000000000000
#03912:0000000024000024
#0391a:0000000000240000
#03918:0000000000000024
#03718:00001300000000000000001300000000
#0371b:0000001300000000
#03112:0013000000240024
#0311a:0000000024000024
#02915:00001300000000000000001300000000
#02912:0000001300000000
#05718:00130000
#0651b:13
#06515:0013000000000000
#06518:00130000
#06512:0000001300000000
#06712:1300000000000013
#06718:0013000000000000
#06715:00130000
#0671b:0000001300000000
#0681b:13130000
#06815:0000001300000013
#06812:0000000000130000
#0691b:00000013
#06915:0000000000000013
#06912:00000013000000000000000000000000
#07018:13130000
#07015:0000000000130000
#07012:0000001300000000
#07315:13
#07318:0013000000000000
#07312:00130000
#0731b:0000001300000000
#07518:13
#0751b:0000130000000013
#07515:0013000000000000
#07512:0000001300000000
#07612:13130000
#07618:0000001300000013
#0761b:0000000000130000
#07712:00000013
#07718:0000000000000013
#0771b:00000013000000000000000000000000
#07815:13130000
#07818:0000000000130000
#0781b:0000001300000000
#07918:0000000000130000
#07915:00000013
#07912:2400002400000000
#0791a:0024002400000000
#08018:1313
#08015:00130013
#08012:2313
#0801b:00130013
#08010:41
#08215:1313
#08218:00130013
#0821b:2313
#08212:00130013
#08112:13
#08118:0013000000000013
#08115:00130013
#0811b:0000001300000000
#0831b:13
#08315:0013000000000013
#08318:00130013
#08312:0000001300000000
#08418:0000131300000013
#08412:2300001300000013
#08415:0000000000130000
#0841b:2300000000130000
#08515:00000000331333000000330000000000
#0851b:00000000331333000000330000000000
#08615:00130013
#0861b:1313
#08618:0013000000130000
#08612:0000001300000013
#08812:14
#0881a:14
#0641f:21
#06412:00260026
#06418:2626
#0081a:2400002400000000
#00812:0024002400000000
#02312:0000000024000024
#0231a:0000000000240024
#02412:00000024
#0241a:0024
#0261a:00000024
#02612:0024
#04014:0024000000000000
#0401a:0024002400000000
#04012:0000002400000000
#0631a:2400002400000000
#06312:0024002400000000
#03212:0024
#0321a:00000024
#03210:0041
#0341a:0024
#03412:00000024
#06618:00260026
#06612:2626
#06610:41
#0711a:2400002400000000
#07112:0024002400000000
#07218:00260026
#07212:2626
#07412:00260026
#07418:2626
#0871a:2400002400000000
#08712:0024002400000000
#08714:0000000000240000
#08718:00000024
#00158:0000000000000053
#0025b:0000000000000063
#00555:0000000000000063
#00652:0000000000000053
#0085a:0000005400000000
#00852:0000006400000000
#00952:1400000000000053
#0095a:14
#01055:0000000000000063
#01152:00000000002300000000000000000000
#0135b:0000000000000063
#01352:14
#0135a:14
#01458:0000005300000000
#0145a:0000000000000014
#01652:54
#0175b:53
#01752:00000063
#01952:00530000
#0195b:00630000
#02054:00000014
#0205a:0014
#02158:14
#02152:00140000
#02256:00000024
#0225a:00540000
#0235a:0000000000000054
#02352:0000000000000064
#02452:00000014
#02552:00140000
#02555:0000000000000063
#02758:0000000000000053
#0275a:00140000
#0265a:00000014
#03152:0053000000000064
#0315a:0000000000000054
#03358:0000000000000053
#0335a:00140000
#04052:0000006400000000
#0405a:0000005400000000
#04252:0000001400000000
#0425a:0000001400000000
#0445b:0013
#0475a:0000000000000054
#04752:0000000000000064
#04852:0014
#0485a:0014
#0525a:0014
#05252:0014
#0585b:00000063
#05852:00000053
#06058:00140000
#06054:0014
#0605a:00000014
#06052:14
#06152:00000064
#06256:00240000
#05455:0000001300000000
#06352:0000006400000000
#0635a:0000005400000000
#04955:0000006300000000
#0495a:0000000000000014
#05052:0014000000000000
#0505a:0000001400000000
#05358:0000005300000013
#05655:0053
#03858:0000000000000063
#0395b:0063000000000000
#0365b:0000000000000063
#03758:00006300000000000000002300000000
#0375b:0000006300000000
#03555:0000000000000063
#03552:00140000
#0325a:00000014
#03452:00000014
#03055:0000000000000053
#02852:0000000000000053
#02955:00005300000000000000002300000000
#02952:0000005300000000
#05758:00630000
#06552:0000006300000000
#0675b:0000005300000000
#0735b:0000005300000000
#06952:00000023000000000000000000000000
#06855:0000006300000063
#06852:0000000000630000
#07055:0000000000630000
#07052:0000006300000000
#07552:0000006300000000
#0775b:00000023000000000000000000000000
#07658:0000005300000053
#0765b:0000000000530000
#07858:0000000000530000
#0785b:0000005300000000
#06452:00160016
#06658:00160016
#07152:0000006400000000
#0715a:0000005400000000
#07258:00160016
#07452:00160016
#0815b:0000005300000000
#08352:0000006300000000
#08452:0000000000000053
#08458:0000000000000053
#0855b:00000000002300000000000000000000
#08555:00000000002300000000000000000000
#08852:64
#0885a:54
#001380:0000000000000013
#0023b0:0000002300000000
#0023b0:0000000000000013
#003370:0023
#005350:0000000000000013
#006320:0000002300000000
#006320:0000000000000013
#007360:0023
#0083a0:0000001400000000
#008380:00000024
#008321:0000001400000000
#008341:00000024
#009321:0000000000000013
#010351:0000002300000000
#010351:0000000000000013
#011321:00000000005300000000000000000000
#011351:00000023
#0133b1:0000000000000013
#014381:0023000000000000
#014381:0000001300000000
#0143b1:0000000000230000
#016321:14
#016361:0034343434343434
#017361:24
#0173b0:13
#017380:0023
#017320:00000013
#018350:00230000
#019320:00130000
#020350:23
#0193b1:00130000
#020381:23
#0223a1:00140000
#022361:00000054
#0233a1:00240000
#0233a1:0000000000000014
#024381:00240000
#023320:0000000000000014
#024340:00240000
#025350:0000000000000013
#026320:00230000
#027380:0000000000000013
#0283b0:00230000
#028320:0000000000000013
#029350:00003300000000000000005300000000
#029320:0000003300000000
#030320:23
#030350:0000000000000013
#031320:0033000000000000
#031350:0000002300000000
#031320:0000000000000014
#032340:00240000
#0313a1:0000000000000014
#032381:00240000
#033381:0000000000000013
#0343b1:00230000
#035351:0000000000000013
#036321:00230000
#0363b1:0000000000000013
#037381:00003300000000000000005300000000
#0373b1:0000003300000000
#0383b1:23
#038381:0000000000000013
#0393b1:0033000000000000
#039381:0000002300000000
#040321:0000001400000000
#041351:0000002300000000
#0403a0:0000001400000000
#041380:0000002300000000
#0473a0:0000000000000014
#048380:00240000
#047321:0000000000000014
#048341:00240000
#049351:0000001300000000
#049321:00000023
#053381:0000001300000000
#0533b1:0000000000230000
#056351:0013
#057321:23
#057381:00130000
#0573b1:00000023
#0583b1:00000013
#059381:0023
#058320:00000013
#059350:0023
#061320:00000014
#062360:00540000
#062320:00000024
#063320:0000001400000000
#063340:00000024
#0633a1:0000001400000000
#063381:00000024
#065321:0000001300000000
#065351:00000023
#0673b1:0000001300000000
#067381:00000023
#068351:0000001300000033
#068321:0000000000330000
#069321:00000053000000000000000000000000
#069351:0023
#070321:0000001300000023
#070351:0000000000330000
#071321:0000001400000000
#071341:00000024
#0713a0:0000001400000000
#071380:00000024
#0733b0:0000001300000000
#073380:00000023
#075320:0000001300000000
#075350:00000023
#076380:0000001300000033
#0763b0:0000000000330000
#0773b0:00000053000000000000000000000000
#077380:0023
#0783b0:0000001300000023
#078380:0000000000330000
#0813b0:0000001300000000
#081380:0000000000230000
#083320:0000001300000000
#083350:0000000000230000
#084320:0000000000000013
#085350:00000000335333000000330000000000
#085320:00000023
#084381:0000000000000013
#0853b1:00000000335333000000330000000000
#085381:00000023
#088321:14
#091361:22
#0883a0:14
#091380:22
