This file was generated by Ched 2.7.0.0.
#TITLE " "
#ARTIST ""
#DESIGNER ""
#DIFFICULTY 0
#PLAYLEVEL
#SONGID ""
#WAVE ""
#WAVEOFFSET 0
#JACKET ""
#REQUEST "ticks_per_beat 480"
#00002: 4
#BPM01: 175
#00008: 01
#TIL00: ""
#VOLUME: ""
#HISPEED 00
#MEASUREHS 00
#0551f:0011
#0551a:14140024
#05512:140024001c232425
#05517:0013000000000000
#05516:0000001300000000
#05519:0000000000000025
#0551b:0000000000230000
#0011c:1212001212120000
#00112:0000120000120000
#00116:0000000012000012
#00118:0000000000000012
#00212:1212001212120012
#0021c:0000001200001200
#00218:0012
#0021a:0000000000120012
#00318:1212001212120012
#00316:1222
#00312:00000012000000000000000022000000
#00314:0000000000220022
#00812:2425002600131c00
#0081a:24
#00819:0025000000000000
#00818:0000002600000000
#01716:0012
#01714:0000000000120000
#0171c:0000001200000000
#01718:12
#01712:12000012
#01816:0012000000001200
#0181c:0000120000000012
#0181a:0000001200000000
#01818:0012
#01914:12
#01918:00120000
#01912:00120000
#0241a:00001414
#02416:0000000000140014
#02412:00131c0024002800
#0251a:14140000
#02516:0014001400001414
#02512:2400280014000013
#02514:0000000000140000
#02517:0013
#02519:0000000000130000
#0251b:00000013
#03217:00140000
#0321b:00000013
#03219:0000000000130013
#03212:00001200003434340000000028000000
#0321c:00120000
#03216:0024
#03210:0041
#03312:14281414
#0331b:0000130000130013
#03319:0013001300000000
#03316:2400000000140014
#03317:00001313
#02612:00141414
#02616:0013000000142814
#0261a:00000014000000002400000000000000
#0261b:0000001300000000
#02614:13
#02712:14140013
#02716:0014281413001414
#0271a:2414
#02718:0000000000140000
#02714:0000000000130000
#0271b:0000000000000013
#02816:00001414000000000000000014000000
#0281b:00130013
#02812:00000000001300002600000000001400
#02818:0000001326000000
#02815:00000000000000130000000000000000
#02817:0000000000000013
#02819:13
#02814:00000000001a0000
#0291a:0014000000001200
#02916:0013000014000014
#02912:0000001400140000
#02914:18180014
#0291c:0000000012000012
#02918:0000000000120000
#02917:0000001300000000
#03018:12
#0301b:00130013
#03019:0000001300000000
#03014:0000001300000000
#03016:0000140024181414
#03012:0018000013000013
#0341a:00141400
#03412:00000014000013000000000013000000
#03414:0000000000130013
#03417:0013000000000000
#03419:13
#03416:00002428
#0351a:14001414
#03512:0000130000130013
#03514:0013001300000000
#03516:2400280013141314
#03115:00000016
#03116:0014181400000000
#0311b:0013000000000000
#03112:1800000026260026
#03118:0000000026260026
#03616:00001414000000000000000014001300
#03612:00001300261a1300
#0361b:00000000001300000000000000000000
#03615:0000001300000000
#03618:00000000000000132600000000000000
#0361a:0000000000000014
#03614:13
#03714:18180012
#03712:0014000012000012
#03716:0000001314120014
#0371a:0000001400140000
#03718:00000014
#03717:0013000000000000
#03816:1218140024001414
#03812:0000130000181300
#03814:0000001300000000
#0381b:0000000013000013
#03819:0000001300000000
#03916:1814001400000000
#03915:00000016
#03912:0013180026260026
#03918:0000000026260026
#00416:1212001200000000
#00412:0012
#0051a:1212001212120000
#00512:0000000012000012
#00516:0000120000120000
#00518:0000000000000012
#00614:1212001212120012
#0061c:0012
#0061a:0000000000120012
#00618:0000001200001200
#00712:12
#0071c:1212001200000000
#0071a:0000000012120000
#00714:00000000000000000012001200000000
#00718:0000000000001212
#00716:00000000120000000000000000120012
#00912:2600130013130013
#00917:0000000013130000
#00916:0000001300001313
#0091b:00000013
#00918:26
#00910:41
#01016:1313001300001400
#01012:0000130013130000
#0101a:0014
#0101b:00130000000000000000000013000000
#01018:0000000000140000
#01014:0000000000000014
#04012:0026000000001200
#04014:00180000
#04018:0026002200000000
#04016:0000002200000000
#04114:1212000000000000
#04116:0000001200000000
#04118:0000000000000012
#04214:12
#0421a:0012000000000000
#04216:00000000120000000000000000120012
#0421c:00000012
#04218:0000002600000012
#04212:0000002600000000
#04415:1313000000000000
#04412:00130013001600161c00000013001300
#04418:0000161600000000
#04417:00000000000000000000000000130013
#0431b:1300000013130000
#04314:00130013000000000000000000000000
#04317:0013000000000000
#0431a:00140000
#04312:00000000001400140000000000160016
#04316:0000001400000000
#04318:00000000000000000013001316001600
#04514:1313000000000000
#04516:00000000130013000000000000141400
#0451b:00000000001300130000000000000000
#04519:00130013000000000000001300000000
#04513:00000013
#0451a:00000000000000000000000000000013
#04512:0013
#04515:00000000000000000014140000000000
#07012:1300001400000000
#07016:2418140013000014
#0701b:00130000
#0701a:0000000000140000
#07017:00000013
#07115:00160014
#0711c:0000000000120000
#07112:2626002600001200
#07118:2626002600000000
#0711a:00000000000000000000000000343434
#04614:13
#04617:00141400000000000000000000000000
#0461b:00000013000000130013000000000000
#04612:0000130000001313
#04615:00000000001300001600130000130000
#04618:00000000000013000000001300000013
#04715:16001300001300000000000000000000
#0471b:00130000000000000000000000000000
#04718:00000013000000130000000000002600
#04712:0000131324250026
#0471a:0024
#04719:0000000000250000
#0481b:0013000000000000
#04812:00001c0026001313
#04818:0026
#0481a:00000024
#04810:0041
#04916:1400001413131300
#04912:1313131300000018
#04918:0014000000000000
#0491a:0000240000002414
#0111b:1313001313000000
#01115:0000000000130013
#01112:14
#01116:00140000
#01118:00000013
#01212:13131300
#0121b:13001313
#01218:00130000
#01215:0016001600161316
#0131b:0000130013130013
#01316:0000000013130000
#01317:0000001300001313
#01312:16000013
#01318:16
#01417:1313000000001300
#0141b:00130000
#01412:0000001300001326
#01416:0000131313130000
#0141a:0000000000000014
#01612:12
#01614:0012000000000000
#01616:00121200
#01618:0000001200120000
#0161a:00000012
#0161c:0000000000000012
#02012:00000000120000002800001400001400
#02015:0000001200000000
#0201a:00000000000000000000140000000014
#02016:00000018
#02010:0041
#05016:0018000000002400
#05012:0014001800131313
#0501a:0000001400000000
#01512:0013000013130000
#01516:00141414
#0151b:0000131300001313
#02112:1800001426000000
#0211a:0014000014141414
#02116:00000014180000140000000000000000
#02114:00000016
#0511a:14001414
#05116:1313240013140000
#05112:0000131300002414
#05118:00000000000000000000001400000000
#0521a:14240000
#05216:2414000000000000
#05212:00132c24
#05215:00000000001300000000000000000000
#05218:0000001300000000
#0521b:00000000000000130000000013001300
#05316:1400001400001318
#0531b:1313131300000000
#05317:0013
#05314:0014000000000000
#05312:0000240000000024
#0541a:0014001400002400
#05417:0000230000130000
#05412:0000002800001400
#05416:0000000000000013
#05718:1200000000120000
#0571a:0012000000000000
#0571c:00120000
#05712:00000012
#05714:0000000000000012
#05612:2600000000000012
#05616:0012
#0561c:0012
#05617:00120000
#05618:26
#05812:0000001200000000
#05816:12000012
#05818:00120000
#0581a:0012
#0581c:00000012
#0591c:00000012
#05919:0000000000000012
#06012:00001400180000140000140018000000
#0601a:00000014000014000000000000001400
#06016:28000000000000001800001400000014
#0631b:0000000000130000
#06312:2425002600001c00
#0631a:24
#06319:0025000000000000
#06318:0000002600000000
#06112:1414141400001600
#0611a:0000000014141414
#06116:00160000
#06114:0016
#06118:26
#06218:2614000000000000
#06219:00140000
#0621a:0000001400000000
#06217:0000000000160000
#06216:00000000000000000000000015001414
#06215:00140000000000000000000000150000
#06214:00000014000000000000001500000000
#06213:00000000001400000000000000000000
#06212:24000000000000142c16000000000000
#06416:1814001418140014
#0641b:00130013
#0641f:21
#06412:23282328
#06612:18131813
#06616:0014281400142814
#0661b:2323
#06610:41
#06516:1814141300001400
#06517:0000000000000013
#06512:1300130013130000
#0651b:00001300000000000000001300000000
#0651a:0000001400000000
#0671b:1300130013130013
#06712:18001300000014000000001300000013
#06717:0000001300000000
#06716:00001400140000000000000014140000
#06912:0012000012180000
#06916:1214001200001400
#0691a:1400001400000000
#06918:00140000
#06914:0000120000000013
#0691b:00000013
#06919:0000000000000013
#06816:0000131418140014
#06812:2600001300001813
#0681b:0000000000130000
#06814:0018000000000000
#0681a:00140000
#06818:26
#07316:1414140000001413
#0731b:1300130013130000
#07312:00001300000014000000001300000000
#07317:0000001300000000
#0781b:13
#07812:0018130000140000
#07816:2400140000001314
#0781a:0000001400000000
#07817:0013
#07912:2626002600261c00
#07915:00160000
#07918:2626002600260000
#07512:1300130013130013
#0751a:0000001400000000
#07516:14001400140013000000000014140000
#0751b:00001300000000000000001300000013
#0771c:0012000012000000
#07716:0014000000181400
#07712:1400001400001300
#07714:0000140000000013
#07718:1200001200000000
#0771a:00120000
#07719:0000000000000013
#07612:261a140018130000
#07616:0000001400141814
#0761b:0000001300000013
#07617:00130000
#07618:26
#07216:2416280024162800
#07212:0000141600001416
#0721a:0014
#07414:0016000000160000
#07418:0000001600000016
#0741a:00140014
#07412:14281428
#07416:2424
#0801b:00001300000000130000130000000013
#08012:26000013000013000000001300001300
#08015:00162616
#08018:26
#08010:41
#08112:2c14181400001400
#08116:00000000000000001400141418000000
#08117:0013001300000000
#0811b:00132300
#08115:0000000000000016
#08212:26001300000000130000130000000013
#0821b:00000013000013000000001300001300
#08215:00162616
#08218:26
#0831a:00001400000014000000000000140000
#08312:2c00130023001814
#08316:00001300180013001400141400000014
#0841b:0013000000130000
#08419:00130000
#08416:0014001814001418
#08412:2c00001300180013
#08414:00130000
#02218:00000000160000000000001400000000
#02212:1414141426000014
#02216:16
#02214:0000000000140000
#02213:00000014
#02217:00000000000000000014000000000000
#02219:00000000000000000000000000140000
#0221a:00000000000000002400000000000014
#0851a:1400001400140000
#08512:0014000000000014
#08516:1414001414140014
#08514:00140024
#08518:00240014
#08612:1816141216000000
#0861a:00140000000000000000001400000000
#08618:00000014000000000016000000001400
#08616:00000000001400000000000014000000
#08614:00000000000000140000140000000000
#0861c:00000000000000000000000000120012
#08715:00160000
#08718:2626002600000000
#08712:2626002600222c00
#08812:16
#08818:16
#02313:0016000000000000
#02315:00150000
#02316:00000000001514140000000000000000
#02318:00160000000000000000000000002600
#02317:00000015000000000000000000000000
#02312:2c00000024250026
#0231a:0024
#02319:0000000000250000
#0175c:0000002200000000
#01758:62
#01752:00000062
#01856:0022000000000000
#0185c:0000000000000022
#01858:0062
#01958:00620000
#01952:00620000
#0245a:0044
#02452:00000038
#0255a:44
#02556:0000000000000064
#02552:00380000
#03257:00240000
#0325c:00120000
#03252:00003438
#03352:34380000
#03356:0000000000000054
#02652:00543400
#02656:00000048
#02752:34
#02756:0000480000000054
#02852:0000000016000034
#02858:0016
#0295a:0044000000000000
#02952:0000003400240000
#02956:0000000064000024
#02954:00000064
#0345a:00544400
#03456:00000048
#0355a:44
#03556:0000480000000064
#03056:0000000000000044
#03156:0034000000000000
#03152:0000000036000036
#03158:0000000000460056
#0365a:0000000000000044
#03652:0016
#03658:0016
#0375a:0000004400240000
#03756:0000000054000024
#03758:00000054
#03752:0034000000000000
#00356:52
#00352:00000022000000000000000000000000
#00158:0000000000000062
#00752:62
#00756:00220000
#00956:0000000000000053
#00958:16
#00952:16
#0105b:00230000000000000000000000000000
#04156:0000005200000000
#04452:001c
#03856:0000000000000034
#03956:0044000000000000
#03958:0000000046000046
#03952:0000000000360036
#07052:0000001400000000
#0705a:0000000000140000
#07155:00000024
#07152:0036006600001200
#07158:4600004600000000
#04956:0000005400000000
#04952:0000000000000038
#00558:0000000000000062
#00552:12
#01152:54
#01156:00240000
#01357:0000000000000063
#01352:16
#01358:16
#01456:0000005300000000
#0145a:0000000000000054
#01452:0000000000000016
#05056:0048000000000000
#0505a:0000005400000000
#05052:0000003800000000
#02056:00000048
#02052:0038
#02152:38
#02156:00480000
#02154:00000036
#05356:0000006400000048
#05652:0000000000000022
#05656:0052
#05758:0000000000220000
#0575c:00520000
#05852:0000002200000000
#05856:52000052
#0585c:00000052
#06052:00380038
#06056:4848
#06152:00000046
#06156:00460000
#06154:0046
#06456:4848
#06452:00380038
#06652:3838
#06656:00480048
#06556:00000054
#0655a:0000005400000000
#06752:0000006400000000
#06956:0024000000000000
#0695a:6400002400000000
#06958:00640000
#06856:0000004400340044
#06852:16
#06858:16
#07356:00000064
#07352:0000006400000000
#0785a:0000001400000000
#07852:0000000000140000
#0755a:0000005400000000
#07756:0024000000000000
#07752:5400002400000000
#07754:00540000
#07656:0000003400440034
#07658:16
#07652:16
#0725a:4444
#07256:00480048
#07452:34383438
#08055:00160016
#08052:16
#08058:16
#08152:0000186400000000
#08156:00002418
#08255:00160016
#08352:00000018
#08356:00182400
#0835a:0000005400000000
#08456:0000004800000048
#08452:1c00000000380000
#02258:00360000
#02256:36
#08552:0024000000000000
#08556:6400002454000024
#08554:00640000
#0855a:0000000000240000
#08558:00000054
#08852:66
#08858:56
#00858:0000005600000000
#04058:0046005200000000
#04052:0036000000000000
#04258:0000004600000000
#04252:0000005600000000
#04752:0000000000000066
#04852:0016
#04858:0016
#02358:0000000000000056
#05252:001c
#05452:0000003800000000
#06352:0000006600000000
#07952:3600003600000000
#07958:0046004600000000
#08752:3600003600000000
#08758:0046005600000000
#001380:0000000000000012
#0023c0:0022000000000000
#003360:1200002200000000
#003320:00000052000000000000000000000000
#004380:0000000012220000
#004361:0000000000122200
#0043c0:0000000000001222
#004321:0000000000000012
#005321:22
#005381:0000000000000012
#0063c1:0022000000000000
#007321:1222
#007361:00520000
#008381:0000001600000000
#0083b1:0000000000230000
#0093b1:0000132300000000
#009361:0000000000000013
#0103b1:00530000000000000000000000000000
#010361:00230000
#011321:1424
#011361:00540000
#013321:0000132300000000
#013371:0000000000000013
#014321:0023000000000000
#014361:0000001300000000
#0143b1:0000000000230000
#0143a1:0000000000000014
#015361:0024000000000000
#017381:12000022
#0173c1:0000005200000000
#017320:00000012
#018360:0052000000000000
#018320:0022
#018381:0012
#0183c1:0000000000000052
#019381:00320000
#0193c1:00000000000000000000525252525252
#0193b1:0000000000000000000000000000000000000000005200520052005200520052
#0203c1:52525252525252522200000000000000
#0203b1:0052005200520052005200520052005200000000000000000000000000000000
#019320:00120000
#019360:00000000000000000000525252525252
#019350:0000000000000000000000000000000000000000005200520052005200520052
#020360:22
#023381:0000000000000016
#0243b1:0023000000000000
#025361:0000000000000014
#0263a1:0024000000000000
#026321:00140000
#026361:0000002400000000
#027361:0000000000000014
#028321:0024000000000000
#029361:0000000014000054
#029321:0000000000540000
#029341:00000054
#030321:24
#031381:0000000000000016
#0323c1:0022000000000000
#032371:00140000
#032321:00000000003434342400000000000000
#033361:0000000000000014
#034321:0024000000000000
#0343a1:00140000
#034361:0000002400000000
#035361:0000000000000014
#0363a1:0024000000000000
#037361:0000000014000054
#0373a1:0000000000540000
#037381:00000054
#0383a1:24
#040381:0000001200000000
#0403c1:00000000000000000000000052525252
#0403b1:0000000000000000000000000000000000000000000000000052005200520052
#0413c1:52525252525222000000000000000000
#0413b1:0052005200520052005200520000000000000000000000000000000000000000
#041360:0000001200000000
#041320:0000000000000022
#042320:0000001600002200
#047320:0000000000000016
#048320:0023000000000000
#049360:0000001400000000
#0493a0:0000000054240000
#0503a0:0000001400000000
#050360:0000000000240000
#053360:0000001400000000
#053320:0000000054240000
#053371:0000000000130000
#0533a1:00000000000000000000005424000000
#054361:0013000000000000
#054321:00000054240000000000000000000000
#056361:0012
#056321:0000000000000052
#057361:00220000
#0573c0:00120000
#057380:0000000000520000
#0583c0:22
#058361:12000032
#058321:0000005200000000
#059321:00005252525252525252525252525252
#059331:0000000000520052005200520052005200520052005200520052005200520052
#060321:22
#0583c0:00000012
#059380:00005252525252522200000000000000
#059390:0000000000520052005200520052005200000000000000000000000000000000
#063321:0000001600230000
#0653a1:0000001400000000
#065361:0000000000240000
#065361:00000014
#065321:0000000000000024
#067321:0000001400000000
#067361:0000000000240000
#0693a1:1400005400000000
#069361:0054000024000000
#069381:00540000
#070361:0000001400000000
#0703a1:00000000000000542400000000000000
#070361:0000000000140000
#070321:00000000000000000000005424000000
#071321:0000001600220000
#071351:00000014
#0713a1:00000000000000000000000000343434
#0723a1:24
#073321:0000001400000000
#073361:0000000000240000
#073361:00000014
#0733a1:0000000000000024
#0753a1:0000001400000000
#075361:0000000000240000
#077321:1400005400000000
#077361:0054000024000000
#077341:00540000
#078361:0000001400000000
#078321:00000000000000542400000000000000
#078361:0000000000140000
#0783a1:00000000000000000000005424000000
#081321:0000001400240000
#081361:0054
#0833a1:0000001400240000
#083361:0054
#085361:1400005400000000
#085321:0054000024000000
#085341:00540000
#085360:0000000014000054
#0853a0:0000000000540000
#085380:00000054
#0863a0:24
#087380:0000001600000000
#0873c0:0000000000220000
#088320:16
#091360:22
#088381:16
#091381:22
