This file was generated by Ched 2.7.0.0.
#TITLE ""
#ARTIST ""
#DESIGNER ""
#DIFFICULTY 0
#PLAYLEVEL
#SONGID ""
#WAVE ""
#WAVEOFFSET 0
#JACKET ""
#REQUEST "ticks_per_beat 480"
#00002: 4
#BPM01: 170
#00008: 01
#TIL00: ""
#VOLUME: ""
#HISPEED 00
#MEASUREHS 00
#05112:14
#05110:41
#0011a:14
#0021a:14
#00314:14
#00414:14
#00518:14
#00618:14
#00712:14
#00812:14
#0091a:14
#00910:41
#01014:14
#01118:14
#01212:14
#0131a:14
#01414:14
#01518:14
#01612:14
#0171a:14
#01710:41
#0181a:14
#01914:14
#02014:14
#02118:14
#02218:14
#02312:14
#02412:14
#03312:0016
#03318:26
#0331f:21
#03418:1616
#03410:41
#03512:16
#03518:0016
#03612:1616
#03718:16
#03712:0016
#03818:16
#03812:0016
#04012:0016
#04118:1616
#04212:1616
#04318:1616
#04412:1616
#05212:14
#05318:14
#05418:14
#05514:14
#05614:14
#0571a:14
#0581a:14
#05912:14
#05918:0014
#05910:41
#06012:14
#0611a:14
#06114:0014
#0621a:14
#06312:14
#06318:0014
#06412:14
#0251f:11
#04918:24
#0651a:24
#0691a:34
#0681a:34
#07312:34
#07212:34
#06710:41
#0253a0:14
#0263a0:24
#027340:14
#028340:24
#029380:14
#030380:24
#031320:14
#032320:24
#039380:16
#040380:26
#045380:1626
#046320:1626
#047380:1626
#048320:1626
#049380:14
#050380:24
#0653a0:1400003400003400
#067380:34
#0683a0:34
#0693a0:34
#0703a0:24
#071340:14
#072320:34
#073320:34
#074320:34003424
