This file was generated by Ched 2.7.0.0.
#TITLE ""
#ARTIST ""
#DESIGNER ""
#DIFFICULTY 0
#PLAYLEVEL
#SONGID ""
#WAVE ""
#WAVEOFFSET 0
#JACKET ""
#REQUEST "ticks_per_beat 480"
#00002: 4
#BPM01: 146
#00008: 01
#TIL00: ""
#VOLUME: ""
#HISPEED 00
#MEASUREHS 00
#0031a:14
#00412:14
#00714:14
#00710:41
#00814:14
#00918:14
#01018:14
#01112:14
#01212:14
#0131a:14
#0141a:14
#01914:14
#02018:14
#0231a:0014
#02412:14
#02512:0016
#02518:26
#02510:41
#02618:1616
#02712:16
#02718:0016
#02812:1616
#02918:16
#02912:0016
#03018:1616
#03318:1616
#03310:41
#03412:1616
#03518:16
#03512:0016
#03712:16
#03718:0016
#03812:16
#03818:0016
#03912:16
#03918:0016
#04718:14
#04814:14
#05112:0014
#05612:0016
#05618:16
#05610:41
#05812:2616
#05918:16
#05912:0016
#06212:1616
#06318:1616
#06412:16
#06418:0016
#06618:16
#06612:0016
#06718:16
#06712:0016
#06818:16
#06812:0016
#0451f:11
#04118:2400003400003400
#05412:26
#0541f:21
#07012:26
#07010:41
#07412:26
#07118:0000000000000026
#04218:0034000034000000
#01510:41
#07452:66
#001320:14
#002320:24
#005380:14
#006380:24
#015320:14
#016320:24
#0173a0:14
#0183a0:24
#021320:14
#022340:34
#023340:24
#031320:1636
#032320:3626
#036380:1626
#040320:1626
#041380:1400003400003400
#042380:0034000034000000
#0423a0:0000000000000034
#0443a0:24
#045320:14
#046320:24
#0493a0:14
#050380:34
#051380:24
#0523a0:14340000
#053380:0024
#054320:16
#055320:26
#057380:1626
#060380:1636
#061380:3626
#065320:1626
#069380:1626
#070320:1600003600003600
#071320:0036000026000000
#071380:0000000000000016
#072380:0000360000360000
#073380:3600003600002600
#074320:16000034
#075320:00240000
