This file was generated by Ched 2.7.0.0.
#TITLE ""
#ARTIST ""
#DESIGNER ""
#DIFFICULTY 0
#PLAYLEVEL
#SONGID ""
#WAVE ""
#WAVEOFFSET 0
#JACKET ""
#REQUEST "ticks_per_beat 480"
#00002: 4
#BPM01: 146
#00008: 01
#TIL00: ""
#VOLUME: ""
#HISPEED 00
#MEASUREHS 00
#00114:13
#00119:13
#0011b:00001300000000130000000013000000
#00112:00001300000000130000000000130000
#00118:00000000130000000013000000001300
#00115:00000000001300000000130000000013
#00216:00000000001400000000000000000000
#00212:00260000
#0021a:00000024
#00318:00000000000014000000000000000014
#00314:00000000000000140000000000001400
#0031a:0014
#00412:14000014
#00418:0000001400000000
#00414:00000000000000140000000000000000
#0041a:0014
#0051a:14141414
#00512:14
#00516:0000000014343434
#0061a:14000014
#00616:00000034140034000000000014000000
#00612:00141400
#0071a:14
#00712:00000000130013000000001300000000
#00717:0000000013130000
#0071b:0000000000000013
#00710:41
#00816:1300000013130000
#0081b:13000000130013000000001300000000
#00812:0000000000000013
#00912:13
#00917:1300000000000013
#0091b:00130000
#00916:00130000
#00914:00000000000000000000000000000013
#01116:0000131313130000
#0111b:00000000130000001300001300000000
#01112:2400000000000013
#0111a:24
#01217:1300131313130000
#01212:13000000130000001300001300000000
#0121b:0000000000000013
#0131b:1300001300000000
#01312:00000013000000001300000000000000
#01316:1300001300000013
#01319:00000000000000000000000000000013
#01317:0013
#01014:00000013
#01019:00000013
#0101a:2424
#01016:00000024000000000000000000000000
#01012:0000002424000000
#01516:1400002400001400
#01514:00000014000000000000000000000000
#01512:240000000000000000000034
#01518:00000024000000000000000000000000
#01510:41
#0161a:140000000034000000000000
#01612:0014
#01616:000034140000000034000000
#01716:1400002400001400
#01718:00000014000000000000000000000000
#0171a:240000000000000000000034
#01714:00000024000000000000000000000000
#01812:140000000034000000000000
#01816:000034140000000000000000
#01813:00000014
#01819:00000024
#01918:1400001300000024
#01915:00000000000000130000000000000000
#01913:00000000000000000000001400000000
#0191a:0014
#01914:24
#01919:00000000000000000000002400000000
#01912:0024
#02013:00140000
#02019:00140000
#0201a:0000001400000000
#02012:0000002400000013
#02017:0000000000000013
#02116:13
#02115:00130000
#02114:0013
#02113:00000013
#0211b:13
#02218:00140000
#02219:0014
#02212:13
#0221a:0000000000001424
#0231a:00001400000000000000005400000000
#02313:00000000140000000000000000540000
#02318:00000000000014000054000000002400
#02312:0024000000000054
#02319:00000000240000000000540000000054
#02314:0000002400005400
#02317:0024
#02315:00000000000000000000002400000000
#02518:00000013000000001300000000000000
#02515:0000130000130024
#0251b:0000001300001300
#02512:2400001300001300
#0251a:2400000000000024
#02510:41
#02616:00001434343434000000000000000000
#02615:0000000000000013
#02618:00000000000000000000000000000013
#02612:00141424
#0261a:00000000000000003434343400000000
#02715:00000013000000000000000000000000
#02718:0000130000130000
#0271b:0000001300001300
#02712:2400001300001324
#0271a:24
#02717:0000000000000024
#02816:00001434340000000000000000000000
#0281a:00141424
#02815:0000000000000013
#02814:00000000000034343400000000000000
#02812:0000000000340000
#02918:0013001300000000
#02912:2400000000130013
#0291b:0000000000130013
#02919:00000013
#02914:00000013
#0291a:24
#03012:00140014
#03019:0000001400000014
#0301a:0014
#03013:0000000000140000
#03018:00140014
#03014:0014
#03114:0000130000230000
#03119:00130000
#03112:2400002400000000
#0311a:2400002400000000
#03118:0000000000260000
#03117:00000000000000000000000000260000
#03113:00000000000000000000000000230000
#03318:00001300000000130000130000000013
#03315:00000013000013000000001300001300
#03312:2413
#0331a:24
#0331b:00230023
#03310:41
#03412:1300001300000013
#0341b:0013000000130000
#03415:00000013000000001300001300000000
#03418:00000000230000130000000023000000
#0361a:0014
#03612:0014
#03215:00000016
#03217:0000001400000000
#03212:2300002400000000
#03216:26
#0321a:00000024000000000000000000000000
#03718:13
#0371b:0000130000000013
#03712:0000001300001300
#03714:0013
#03715:23
#03719:0023
#0381a:13
#0381b:00132300
#03812:0000001313000000
#03814:0000000000000013
#03816:00000013
#03819:0000000000000013
#03813:23
#04012:00241400
#0401a:00241400
#04112:1400140000140000
#04117:2400140000140000
#04113:0000001400000000
#04114:00000014
#04118:0000002400000000
#04119:00000024
#04212:1400001400000014
#04217:1400001400000000
#04215:0014000014000000
#0421a:0024000024000000
#04216:0000000000002424
#04316:0014000000000000
#0431b:0013131300000000
#0431a:0000000014140000
#0451a:2412
#04516:00000000000000000000001200000000
#04518:0000000000000012
#04514:0012
#0451f:11
#04512:24
#04613:13
#0461a:13
#04615:0000120016000012
#04617:0000001200000000
#04619:0000000000000012
#04713:1313
#0471a:13
#04716:00000000000012000000000000000012
#04718:00000000000000120000000000001200
#0481a:130000223232000000000000
#04812:0000001600000000
#04818:0000001600000000
#04819:000014
#04813:000014
#04814:000000223232000000000000
#04917:13
#04918:00130000
#04919:0013
#0491a:00000013
#04912:23
#05014:00140000
#05013:0014
#05012:0000000000001424
#0501b:23
#05112:00001400000000000000005400000000
#05119:00000000140000000000000000540000
#05114:00000000000014000054000000002400
#0511a:0024000000000054
#05113:00000000240000000000540000000054
#05118:0000002400005400
#05115:0024
#05117:00000000000000000000002400000000
#05515:00000053000000000014000000000014
#0551a:00000053000000002400140000002400
#05517:0000005300001400
#05512:00000000000053000000002400140000
#0551b:0013000000000000
#05516:0013000000000000
#05519:00530000
#05518:00000000005300000000000000000000
#05514:00530000
#05513:00000000005300000000000000000000
#05616:00000000000000140000000000000000
#05615:00140000
#05617:00140000000000000000000000000000
#0561a:2400002400000000
#05612:00000024000000000000240024002400
#05610:41
#05716:00001434340000000000000000000000
#0571a:0000000000140000
#05717:00000022
#05714:00000000000034343400000000000000
#02418:0000000000000013
#02412:24240000
#0241a:54240000
#05815:0013000000001200
#05812:2400001300140014
#0581b:0000000000130000
#05819:00000012
#0581a:2400000000000014
#05818:00000013000000000000000000000000
#05914:0000001400000014
#05916:00141414
#05918:0000000000140000
#0591a:00240024
#05912:0024
#06019:0000130000230000
#06014:00130000
#0601a:24000000000024000000000000230000
#06012:2400002400260000
#06013:00000000000000000000000000260000
#06115:0000001500001600
#0611b:2300002300000000
#06114:26
#06112:00000025000000000000000000000000
#06215:00001300000000130000130000000013
#06218:00000013000000001300001300000000
#0621b:0000001300000013
#06212:24230023
#0621a:24
#06318:13000013000013000000001300000000
#06312:0013000000130000
#06315:00000000230000130000000023000000
#0631b:0000000013000013
#06512:0014
#0651a:0014
#06618:1324
#0661b:0000130000000013
#06612:0000001300001300
#06614:0014
#06615:23
#0671b:00130000
#06712:0000001313000000
#06714:0000000000000013
#06716:00000013
#06719:0000000000000013
#06718:1526
#06713:25
#06912:00241400
#0691a:00241400
#07015:1400141400001400
#0701a:2400142400002400
#07019:0000000000140000
#07014:0000000000140000
#07010:41
#07113:14
#07118:14
#07115:0014000014000000
#07112:0000001400000024
#07117:0000001400001414
#0711a:0024000024000000
#07212:0014240000240000
#07217:0014140000140000
#07213:0014
#07218:0014
#07219:0000000000000014
#07214:0000000000000014
#07317:1400002400000000
#0731a:0000140000000014
#07315:00140000
#07312:2400002400240000
#07314:00000024
#07316:0000000000000024
#07416:0014000000000012
#0741a:00000014
#07418:0000000000000012
#07412:0023232324242400
#06817:1313
#06814:0013001300000000
#06816:00130000
#06819:0000002300130000
#06812:2300000000130013
#0681b:00130013
#06818:0000000000000023
#06815:00000023
#03912:1300000000131300
#03919:0013000000000000
#03916:0000132300000023
#0391b:0000131300000013
#03914:0013
#03917:2300000000132300
#01412:2424
#01416:00000024000000000000000000000000
#0141a:0000002424000000
#0351a:2400002400002424
#03515:2400002400000024
#03512:0024000000240000
#03517:00000024000000000000000000000000
#05212:54240000
#0521a:24240000
#05412:26
#05418:26
#0541f:21
#06412:2400002400002424
#06416:24000024000000000000000000002400
#0641a:0024002400240000
#07512:00630000
#0751b:00630000
#00258:00160000
#00252:00660000
#00256:00000000002400000000000000000000
#00352:14
#0035a:1414
#00452:14000014
#0045a:0014
#00552:54
#0055a:14
#00556:0024
#00656:00240024
#0065a:5414
#00652:1464
#00752:00000000000000000000005300000000
#0085b:00000000000000000000006300000000
#00952:53
#00957:53
#00956:00230000
#0095b:00230000
#0115b:00000000000000000000006300000000
#01152:14
#0115a:14
#01252:00000000000000000000005300000000
#0135b:6300005300130000
#01352:00000053000000002300000000000000
#01356:0000005300130000
#01357:0023
#01054:00000063
#01059:00000053
#01452:0064
#0145a:0064
#01556:00000064
#0165a:64
#01652:0064
#01656:00540000
#01756:00000054
#01852:5414
#01856:00640000
#0185a:0014
#01853:00000014
#01859:00000014
#01954:54
#01958:54
#02052:0000005400000000
#0205a:0000005400000000
#02055:0000000000130000
#02058:0000000000130000
#0215b:23
#02252:23
#02255:0000000000000014
#0225a:0000000000000014
#02552:14
#0255a:1400000000000054
#02555:0000000000000034
#02656:0024000000000000
#02856:0024000000000000
#02752:0000005300000064
#02757:0000000000000044
#02955:0000001300000000
#02958:0000001300000000
#02952:0000000000000013
#0295b:0000000000000013
#03152:1400001400000000
#0315a:1400001400000000
#03252:5300005400000000
#03256:46
#03255:00000016
#03257:0000006400000000
#0325a:00000054000000000000000000000000
#03452:13
#0355a:1400005400000014
#03557:00000014000000000000000000000000
#03555:0000001400000054
#0365a:0054
#03652:0064
#0245a:00540000
#02452:00640000
#03352:14
#0335a:14
#03758:13
#03754:0013
#0385a:13
#03852:0013
#04052:0024
#0405a:0024
#04157:14
#04152:14
#04153:0000001400000000
#04158:0000001400000000
#04154:00000014
#04159:00000014
#04255:0014000054000000
#0425a:0014000014000000
#04252:0000000000000064
#04256:0000000000000044
#04356:0024000000000000
#04352:0000000000000014
#0435a:0000000000000014
#04657:0000002200000000
#04655:0056
#04852:0000006600000000
#04854:00220000
#04858:0000005600000000
#0485a:00220000
#04853:000014
#04859:000014
#05252:00640000
#0525a:00540000
#05057:0000000000000014
#0505b:23
#05052:0000000000000014
#04952:23
#05655:00240000
#05657:00240000000000000000000000000000
#05656:00000000000000240000000000000000
#05652:00000054000034000000000000006400
#0565a:54000044000054000000000000004400
#05756:0024000000000000
#05852:1400001300000014
#0585a:1400000000000014
#0585b:0000001300000000
#05858:00000053000000000000000000000000
#06155:0000005500001600
#0615b:6300006300000000
#06154:36
#06152:00000065000000000000000000000000
#0605a:1400001400000000
#06052:1400001400360000
#06053:00000000000000000000000000360000
#06358:13
#06552:0064
#0655a:0054
#06252:14
#0625a:14
#06452:1400006400000014
#06456:00000014000000000000000000006400
#0645a:0000001400000000
#06658:1364
#06654:0014
#06655:63
#06752:0013
#06758:1566
#06753:65
#06952:0024
#0695a:0024
#07055:1400001400001400
#0705a:1400001400001400
#07155:0014000054000000
#0715a:0014000014000000
#07157:0000000000000014
#07152:0000000000000014
#07257:0000140000140000
#07252:0000140000140000
#07357:1400005400000000
#07352:1400001400000000
#0735a:0000000000000054
#07356:0000000000000034
#07456:0024000000000052
#07452:00000024
#0745a:00000024
#07458:0000000000000052
#06857:13
#06854:0000001300000000
#0685b:00000013
#06852:0000000000000013
#03952:13000013
#0395b:0000001300000013
#002380:16260000
#002321:00160034
#002361:00000000005400000000000000000000
#003321:24
#0023a0:00000014
#0033a0:24
#005320:14
#005360:0000000054343434
#006320:24
#0063a1:1424
#006361:00000034540034000000000000000000
#006320:0014
#006360:00000054
#007320:24
#007320:00000000000000000000001300000000
#007360:0000000000000023
#0083b0:00000000000000000000001300000000
#008370:0000000000000023
#009370:13000023
#0093b0:00530000
#009321:13000023
#009361:00530000
#010341:00000013
#011321:24
#010390:00000013
#0113a0:24
#0113b0:00000000000000000000001300000000
#011370:0000000000000023
#012320:00000000000000000000001300000000
#012360:0000000000000023
#0133b0:13
#013370:00000023000000000000000000000000
#013321:00000013000000005300000000000000
#013361:0000003300230000
#0133b0:0000001300230000
#013370:0053
#014320:0014
#014350:00000023
#0143a1:0014
#014381:00000023
#015361:000000000000000000140000000034003400340000000000
#015321:000000000000000000000034
#016321:34343400
#016361:000000000000000034240000
#0153a0:000000000000000000140000000034003400340000003400
#0163a0:340000000034340000240000
#016360:000034340000000000000000
#017360:000000000000000000140000000034003400340000000000
#0173a0:000000000000000000000034
#0183a0:34342400
#017321:000000000000000000140000000034003400340000003400
#018321:340000000034240000000000
#018361:000034340000000000000000
#019341:14
#019321:00230000
#019380:14
#0193b0:00230000
#019380:0000000000000014
#020380:0024000000000000
#019341:0000000000000014
#020341:0024000000000000
#020321:0000001400000000
#020351:0000000053230000
#0203a0:0000001400000000
#020380:0000000053230000
#0213b0:13
#022370:24
#022321:13
#022351:0000000000000024
#0243a1:00140000
#024381:00000023
#024320:00140000
#024350:00000023
#0253a0:0000000000000014
#026360:00003434343434000000000000000000
#0263a0:00000000000000003434343424000000
#027320:0000001300000000
#027350:0000000000230000
#027320:0000000000000014
#028360:00003434340000000000000000000000
#028340:00000000000034343400000000000000
#028320:0000000000342400
#029350:00000013000023000000000000000000
#032320:13
#032360:00000023000000000000000000000000
#0323a1:00000014000000000000240000000000
#032371:0000003400000000
#032320:0000001400000000
#032350:0000000000240000
#0353a0:0000001400000000
#035370:0000000000240000
#035350:0000000000000014
#036320:0034
#036350:00000023
#0363a1:0014
#036381:00000023
#037351:13230000
#037391:00001323
#038331:13230000
#0383b1:00001323
#0403a1:00145400
#040381:00000023
#040320:00145400
#040350:00000023
#042350:0014
#042320:0000000000003434
#043360:0054000000000000
#043320:0000000000003424
#0433a1:0000000000001424
#046371:0000001200220000
#046351:0056
#048341:000000123232220000000000
#048321:0000005600000000
#0483a0:000000123232220000000000
#048380:0000005600000000
#049320:13
#050350:24
#0503b1:13
#050371:0000000000000024
#052321:00140000
#053361:0022
#0523a0:00140000
#053380:0022
#054320:1600000000000022
#054381:16
#0543c1:0000000000000022
#0563a1:14000024000000000000000000000000
#056371:00540000000000000000000000000000
#056320:00000014000024000000000000000000
#056350:00540000
#0563a1:0000001400000024
#056361:00000000000000540000000000000000
#056320:0000000000000014
#057360:00003434340000000000000000000000
#057340:00000000000034343400000000000000
#057320:0000000000240000
#058380:00000013000000000000000000000000
#0583b0:0000002300000000
#0613b0:13
#061380:00000023000000000000000000000000
#061321:00000015000000000000250000000000
#061351:0000003500000000
#0613b0:0000001300000000
#061380:0000000000230000
#064320:0000001400000000
#064360:0000000000240000
#064360:0000000000000014
#0653a0:0034
#065380:00000023
#065321:0014
#065351:00000023
#066351:13
#066321:00230000
#066381:0014
#0663b1:00000023
#067331:15
#067321:00230000
#067381:0016
#0673b1:00000023
#0693a1:00145400
#069381:00000023
#069320:00145400
#069350:00000023
#071350:0014
#071320:00000024
#073370:0000001400000000
#0733a0:0000000000003434
#074360:0054000000000000
#0743a0:00000034
#074380:0000000000000032
#0753b0:00230000
#074321:00000014
#074361:0000000000000032
#075321:00230000
#023970:000000000000000000000000000000000000000000000000000000000000000000000000000000000000000000000000000000000000000000000000000000000000000000000000000000000000000000000000000000000000000000000000000000000000000000000000000000000000000000000000000000000000000000000000000000000000000000000000000000000000000000000000000000000000000000000000000000000000000000000000000000000000000000000000000000000000000000000000000000000000000000000000000000000000000000000000000000000000000000000000000000000000000000000000000000000000000000000000000000000000000000000000000000000000000000000000000000000000000000000000000000000000000000000000000000000000000000000000000000000000000000000000000000000000000000000000000000000000000000000000000000000000000000000000000000000000000000000000000000000000000000000000000000000000000000000000000000000000000000000000000000000000000000000000000000000000000000000000000000000000000000000000000000000000000000000000000000000000000000000000000000000000000000000000000000000000000000000000000000000000000000000000000000000000000000000000000000000000000000000000000000000000000000000000000000000000000000000000000000000000000000000000000000000000000000000000000000000000000000000000000000000000000000000000000000000000000000000000000000000000000000000000000000000000000000000000000000000000000000000000000000000000000000000000000000000000000000000000000000000000000000000000000000000000000000000000000000000000000000000000000000000000000000000000000000000000000000000000000000000000000000000000000000000000000000000000000000000000000000000000000000000000000000000000000000000000000000000000000000000000000000000000000000000000000000000000000000000000000000000000000000000000000000000000000000000000000000000000000000000000000000000000000000000000000000000000000000000000000000000000000000000000000000000000000000000000000000000000000000000000000000000000000000000000000000000000000000000000000000000000001400000000000000000000000000000000000000000000000000000000000000000000000000000000000000000000000000000000000000000000000000000000000000000000000000000000000000000000000000000000000000000000000000000000000000000000000000000000000000000000000000000000000000000000000000000000000000000000000000000000000000000000000000000000000000000000000000000000000000000000000000000000000000000000000000000000000000000000000000000000000000000000000000000000000000000000000000000000000000000000000000000000000000000000000000000000000000000000000000000000000000000000000000000000000000000000000000000000000000000000000000000000000000000000000000000000000000000000000000000000000000000000000000000000000000000000000000000000000000000000000000000000000000000000000000000000000000000000000000000000000000000000000000000000000000000000000000000000000000000000000000000000000000000000000000000000000000000000000000000000000000000000000000000000000000000000000000000000000000000000000000000000000000000000000000000000000000000000000000000000000000000000000000000000000000000000000000000000000000000000000000000000000000000000000000000000000000000000000000000000000000000000000000000000000000000000000000000000000000000000000000000000000000000000000000000000000000000000000000000000000000000000000000000000000000000000000000000000000000000000000000000000000000000000000000000000000000000000000000000000000000000000000000000000000000000000000000000000000000000000000000000000000000000000000000000000000000000000000000000000000000000000000000000000000000000000000000000000000000000000000000000000000000000000000000000000000000000000000000000000000000000000000000000000000000000000000000000000000000000000000000000000000000000000000000000000000000000000000000000000000000000000000000000000000000000000000000000000000000000000000000000000000000000000000000000000000000000000000000000000000000000000000000000000000000000000000000000000000000000000
#0239a0:00000000000000000000002400000000
#023950:000000000000000000000000000000000000000000000000000000000000000000000000000000000000000000000000000000000000000000000000000000000000000000000000000000000000000000000000000000000000000000000000000000000000000000000000000000000000000000000000000000000000000000000000000000000000000000000000000000000000000000000000000000000000000000000000000000000000000000000000000000000000000000000000000000000000000000000000000000000000000000000000000000000000000000000000000000000000000000000000000000000000000000000000000000000000000000000000000000000000000000000000000000000000000000000000000000000000000000000000000000000000000000000000000000000000000000000000000000000000000000000000000000000000000000000000000000000000000000000000000000000000000000000000000000000000000000000000000000000000000000000000000000000000000000000000000000000000000000000000000000000000000000000000000000000000000000000000000000000000000000000000000000000000000000000000000000000000000000000000000000000000000000000000000000000000000000000000000000000000000000000000000000000000000000000000000000000000000000000000000000000000000000000000000000000000000000000000000000000000000000000000000000000000000000000000000000000000000000000000000000000000000000000000000000000000000000000000000000000000000000000000000000000000000000000000000000000000000000000000000000000000000000000000000000000000000000000000000000000000000000000000000000000000000000000000000000000000000000000000000000000000000000000000000000000000000000000000000000000000000000000000000000000000000000000000000000000000000000000000000000000000000000000000000000000000000000000000000000000000000000000000000000000000000000000000000000000000000000000000000000000000000000000000000000000000000000000000000000000000000000000000000000000000000000000000000000000000000000000000000000000000000000000000000000000000000000000000000000000000000000000000000000000000000000000000000000000000000000000000000000000000000000000000000000000000000000000000000000000000000000000000000000000000000000000000000000000000000000000000000000000000000000000000000000000000000000000000000000000000000000000000000000000000000000000000000000000000000000000000000000000000000000000000000000000000000000000000000000000000000000000000000000000000000000000000000000000000000000000000000000000000000000000000000000000000000000000000000000000000000000000000000000000000000000000000000000000000000000000000000000000000000000000000000000000000000000000000000000000000000000000000000000000000000000000000000000000000000000000000000000000000000000000000000000000000000000000000000000000000000000000000000000000000000000000000000000000000000000000000001400000000000000000000000000000000000000000000000000000000000000000000000000000000000000000000000000000000000000000000000000000000000000000000000000000000000000000000000000000000000000000000000000000000000000000000000000000000000000000000000000000000000000000000000000000000000000000000000000000000000000000000000000000000000000000000000000000000000000000000000000000000000000000000000000000000000000000000000000000000000000000000000000000000000000000000000000000000000000000000000000000000000000000000000000000000000000000000000000000000000000000000000000000000000000000000000000000000000000000000000000000000000000000000000000000000000000000000000000000000000000000000000000000000000000000000000000000000000000000000000000000000000000000000000000000000000000000000000000000000000000000000000000000000000000000000000000000000000000000000000000000000000000000000000000000000000000000000000000000000000000000000000000000000000000000000000000000000000000000000000000000000000000000000000000000000000000000000000000000000000000000000000000000000000000000000000000000000000000000000000000000000000000000000000000000000000000000000000000000000000000000000000000000000000000000000000000000000000000000000
#023920:0000000000000024
#023980:000000000000000000000000000000000000000000000000000000000000000000000000000000000000000000000000000000000000000000000000000000000000000000000000000000000000000000000000000000000000000000000000000000000000000000000000000000000000000000000000000000000000000000000000000000000000000000000000000000000000000000000000000000000000000000000000000000000000000000000000000000000000000000000000000000000000000000000000000000000000000000000000000000000000000000000000000000000000000000000000000000000000000000000000000000000000000000000000000000000000000000000000000000000000000000000000000000000000000000000000000000000000000000000000000000000000000000000000000000000000000000000000000000000000000000000000000000000000000000000000000000000000000000000000000000000000000000000000000000000000000000000000000000000000000000000000000000000000000000000000000000000000000000000000000000000000000000000000000000000000000000000000000000000000000000000000000000000000000000000000000000000000000000000000000000000000000000000000000000000000000000000000000000000000000000000000000000000000000000000000000000000000000000000000000000000000000000000000000000000000000000000000000000000000000000000000000000000000000000000000000000000000000000000000000000000000000000000000000000000000000000000000000000000000000000000000000000000000000000000000000000000000000000000000000000000000000000000000000000000000000000000000000000000000000000000000000000000000000000000000000000000000000000000000000000000000000000000000000000000000000000000000000000000000000000000000000000000000000000000000000000000000000000000000000000000000000000000000000000000000000000000000000000000000000000000000000000000000000000000000000000000000000000000000000000000000000000000000000000000000000000000000000000000000000000000000000000000000000000000000000000000000000000000000000000000000000000000000000000000000000000000000000000000000000000000000000000000000000000000000000000000000000000000000000000000000000000000000000000000000000000000000000000000000000000000000000000000000000000000000000000000000000000000000000000000000000000000000000000000000000000000000000000000000000000000000000000000000000000000000000000000000000000000000000000000000000000000000000000000000000000000000000000000000000000000000000000000000000000000000000000000000000000000000000000000000000000000000000000000000000000000000000000000000000000000000000000000000000000000000000000000000000000000000000000000000000000000000000000000000000000000000000000000000000000000000000000000000000000000000000000000000000000000000000000000000000000000000000000000000000000000000000000000000000000000000000000000000000000000000000000000000000000000000000000000000000000000000000000000000000000000000000000000000000000000000000000000000000000000000000000000000000000000000000000000000000000000000000000000000000000000000000000000000000000000000000000000000000000000000000000000000000000000000000000000000000000000000000000000000000000000000000000000000000000000000000000000000000000000000000000000000000000000000000000000000000000000000000000000000000000000000000000000000000000000000000000000000000000000000000000000000000000000000000000000000000000000000000000000000000000000000000000000000000000000000000000000000000000000000000000000000000000000000000000000000000000000000000000000000000000000000000000000000000000000000000000000000000000000000001400000000000000000000000000000000000000000000000000000000000000000000000000000000000000000000000000000000000000000000000000000000000000000000000000000000000000000000000000000000000000000000000000000000000000000000000000000000000000000000000000000000000000000000000000000000000000000000000000000000000000000000000000000000000000000000000000000000000000000000000000000000000000000000000000000000000000000000000000000000000000000000000000000000000000000000000000000000000000000000
#0249a0:24
#051950:000000000000000000000000000000000000000000000000000000000000000000000000000000000000000000000000000000000000000000000000000000000000000000000000000000000000000000000000000000000000000000000000000000000000000000000000000000000000000000000000000000000000000000000000000000000000000000000000000000000000000000000000000000000000000000000000000000000000000000000000000000000000000000000000000000000000000000000000000000000000000000000000000000000000000000000000000000000000000000000000000000000000000000000000000000000000000000000000000000000000000000000000000000000000000000000000000000000000000000000000000000000000000000000000000000000000000000000000000000000000000000000000000000000000000000000000000000000000000000000000000000000000000000000000000000000000000000000000000000000000000000000000000000000000000000000000000000000000000000000000000000000000000000000000000000000000000000000000000000000000000000000000000000000000000000000000000000000000000000000000000000000000000000000000000000000000000000000000000000000000000000000000000000000000000000000000000000000000000000000000000000000000000000000000000000000000000000000000000000000000000000000000000000000000000000000000000000000000000000000000000000000000000000000000000000000000000000000000000000000000000000000000000000000000000000000000000000000000000000000000000000000000000000000000000000000000000000000000000000000000000000000000000000000000000000000000000000000000000000000000000000000000000000000000000000000000000000000000000000000000000000000000000000000000000000000000000000000000000000000000000000000000000000000000000000000000000000000000000000000000000000000000000000000000000000000000000000000000000000000000000000000000000000000000000000000000000000000000000000000000000000000000000000000000000000000000000000000000000000000000000000000000000000000000000000000000000000000000000000000000000000000000000000000000000000000000000000000000000000000000001400000000000000000000000000000000000000000000000000000000000000000000000000000000000000000000000000000000000000000000000000000000000000000000000000000000000000000000000000000000000000000000000000000000000000000000000000000000000000000000000000000000000000000000000000000000000000000000000000000000000000000000000000000000000000000000000000000000000000000000000000000000000000000000000000000000000000000000000000000000000000000000000000000000000000000000000000000000000000000000000000000000000000000000000000000000000000000000000000000000000000000000000000000000000000000000000000000000000000000000000000000000000000000000000000000000000000000000000000000000000000000000000000000000000000000000000000000000000000000000000000000000000000000000000000000000000000000000000000000000000000000000000000000000000000000000000000000000000000000000000000000000000000000000000000000000000000000000000000000000000000000000000000000000000000000000000000000000000000000000000000000000000000000000000000000000000000000000000000000000000000000000000000000000000000000000000000000000000000000000000000000000000000000000000000000000000000000000000000000000000000000000000000000000000000000000000000000000000000000000000000000000000000000000000000000000000000000000000000000000000000000000000000000000000000000000000000000000000000000000000000000000000000000000000000000000000000000000000000000000000000000000000000000000000000000000000000000000000000000000000000000000000000000000000000000000000000000000000000000000000000000000000000000000000000000000000000000000000000000000000000000000000000000000000000000000000000000000000000000000000000000000000000000000000000000000000000000000000000000000000000000000000000000000000000000000000000000000000000000000000000000000000000000000000000000000000000000000000000000000000000000000000000000000000000000000000000000000000000000000000000000000000000000000000000000000000000000000000000000000
#051920:00000000000000000000002400000000
#051970:000000000000000000000000000000000000000000000000000000000000000000000000000000000000000000000000000000000000000000000000000000000000000000000000000000000000000000000000000000000000000000000000000000000000000000000000000000000000000000000000000000000000000000000000000000000000000000000000000000000000000000000000000000000000000000000000000000000000000000000000000000000000000000000000000000000000000000000000000000000000000000000000000000000000000000000000000000000000000000000000000000000000000000000000000000000000000000000000000000000000000000000000000000000000000000000000000000000000000000000000000000000000000000000000000000000000000000000000000000000000000000000000000000000000000000000000000000000000000000000000000000000000000000000000000000000000000000000000000000000000000000000000000000000000000000000000000000000000000000000000000000000000000000000000000000000000000000000000000000000000000000000000000000000000000000000000000000000000000000000000000000000000000000000000000000000000000000000000000000000000000000000000000000000000000000000000000000000000000000000000000000000000000000000000000000000000000000000000000000000000000000000000000000000000000000000000000000000000000000000000000000000000000000000000000000000000000000000000000000000000000000000000000000000000000000000000000000000000000000000000000000000000000000000000000000000000000000000000000000000000000000000000000000000000000000000000000000000000000000000000000000000000000000000000000000000000000000000000000000000000000000000000000000000000000000000000000000000000000000000000000000000000000000000000000000000000000000000000000000000000000000000000000000000000000000000000000000000000000000000000000000000000000000000000000000000000000000000000000000000000000000000000000000000000000000000000000000000000000000000000000000000000000000000000000000000000000000000000000000000000000000000000000000000000000000000000000000000000000000000000000000000000000000000000000000000000000000000000000000000000000000000000000000000000000000000000000000000000000000000000000000000000000000000000000000000000000000000000000000000000000000000000000000000000000000000000000000000000000000000000000000000000000000000000000000000000000000000000000000000000000000000000000000000000000000000000000000000000000000000000000000000000000000000000000000000000000000000000000000000000000000000000000000000000000000000000000000000000000000000000000000000000000000000000000000000000000000000000000000000000000000000000000000000000000000000000000000000000000000000000000000000000000000000000000000000000000000000000000000000000000000000000000000000000000000000000000000000000000000000000001400000000000000000000000000000000000000000000000000000000000000000000000000000000000000000000000000000000000000000000000000000000000000000000000000000000000000000000000000000000000000000000000000000000000000000000000000000000000000000000000000000000000000000000000000000000000000000000000000000000000000000000000000000000000000000000000000000000000000000000000000000000000000000000000000000000000000000000000000000000000000000000000000000000000000000000000000000000000000000000000000000000000000000000000000000000000000000000000000000000000000000000000000000000000000000000000000000000000000000000000000000000000000000000000000000000000000000000000000000000000000000000000000000000000000000000000000000000000000000000000000000000000000000000000000000000000000000000000000000000000000000000000000000000000000000000000000000000000000000000000000000000000000000000000000000000000000000000000000000000000000000000000000000000000000000000000000000000000000000000000000000000000000000000000000000000000000000000000000000000000000000000000000000000000000000000000000000000000000000000000000000000000000000000000000000000000000000000000000000000000000000000000000000000000000000000000000000000000000000000
#0519a0:0000000000000024
#051940:000000000000000000000000000000000000000000000000000000000000000000000000000000000000000000000000000000000000000000000000000000000000000000000000000000000000000000000000000000000000000000000000000000000000000000000000000000000000000000000000000000000000000000000000000000000000000000000000000000000000000000000000000000000000000000000000000000000000000000000000000000000000000000000000000000000000000000000000000000000000000000000000000000000000000000000000000000000000000000000000000000000000000000000000000000000000000000000000000000000000000000000000000000000000000000000000000000000000000000000000000000000000000000000000000000000000000000000000000000000000000000000000000000000000000000000000000000000000000000000000000000000000000000000000000000000000000000000000000000000000000000000000000000000000000000000000000000000000000000000000000000000000000000000000000000000000000000000000000000000000000000000000000000000000000000000000000000000000000000000000000000000000000000000000000000000000000000000000000000000000000000000000000000000000000000000000000000000000000000000000000000000000000000000000000000000000000000000000000000000000000000000000000000000000000000000000000000000000000000000000000000000000000000000000000000000000000000000000000000000000000000000000000000000000000000000000000000000000000000000000000000000000000000000000000000000000000000000000000000000000000000000000000000000000000000000000000000000000000000000000000000000000000000000000000000000000000000000000000000000000000000000000000000000000000000000000000000000000000000000000000000000000000000000000000000000000000000000000000000000000000000000000000000000000000000000000000000000000000000000000000000000000000000000000000000000000000000000000000000000000000000000000000000000000000000000000000000000000000000000000000000000000000000000000000000000000000000000000000000000000000000000000000000000000000000000000000000000000000000000000000000000000000000000000000000000000000000000000000000000000000000000000000000000000000000000000000000000000000000000000000000000000000000000000000000000000000000000000000000000000000000000000000000000000000000000000000000000000000000000000000000000000000000000000000000000000000000000000000000000000000000000000000000000000000000000000000000000000000000000000000000000000000000000000000000000000000000000000000000000000000000000000000000000000000000000000000000000000000000000000000000000000000000000000000000000000000000000000000000000000000000000000000000000000000000000000000000000000000000000000000000000000000000000000000000000000000000000000000000000000000000000000000000000000000000000000000000000000000000000000000000000000000000000000000000000000000000000000000000000000000000000000000000000000000000000000000000000000000000000000000000000000000000000000000000000000000000000000000000000000000000000000000000000000000000000000000000000000000000000000000000000000000000000000000000000000000000000000000000000000000000000000000000000000000000000000000000000000000000000000000000000000000000000000000000000000000000000000000000000000000000000000000000000000000000000000000000000000000000000000000000000000000000000000000000000000000000000000000000000000000000000000000000000000000000000000000000000000000000000000000000000000000000000000000000000000000000000000000000000000000000000000000000000000000000000000000000000000000000000000001400000000000000000000000000000000000000000000000000000000000000000000000000000000000000000000000000000000000000000000000000000000000000000000000000000000000000000000000000000000000000000000000000000000000000000000000000000000000000000000000000000000000000000000000000000000000000000000000000000000000000000000000000000000000000000000000000000000000000000000000000000000000000000000000000000000000000000000000000000000000000000000000000000000000000000000000000000000000000000000
#052920:24
#0559b0:0013000000000000
#055970:0000002300000000
#055961:0013000000000000
#055921:0000002300000000
