This file was generated by Ched 2.7.0.0.
#TITLE ""
#ARTIST ""
#DESIGNER ""
#DIFFICULTY 0
#PLAYLEVEL
#SONGID ""
#WAVE ""
#WAVEOFFSET 0
#JACKET ""
#REQUEST "ticks_per_beat 480"
#00002: 4
#BPM01: 146
#00008: 01
#TIL00: ""
#VOLUME: ""
#HISPEED 00
#MEASUREHS 00
#00318:0014
#00413:14
#00419:0014
#00412:00000014
#00915:0000000000000013
#00918:00000000000000000000000000000013
#0091a:14
#00916:0000001400000000
#01318:0000000000000013
#01315:00000014000000000000000000000013
#01312:1400001400000000
#01813:00000014
#01819:00000024
#02615:0000000000000013
#02618:00000000000000000000000000000013
#0281b:0000000000000013
#02918:0013000000130000
#0291a:0000000000000014
#02912:13
#02915:00000013000000000000000013000000
#03012:00140014
#03016:0000001400140014
#0301a:0014
#03112:2400142400000000
#0311a:2400142400240000
#03116:0000000000230000
#03118:00000000000000000000000000240000
#03114:00000000000000000000000000230000
#0371a:1400140000140000
#03712:1400001400000014
#03716:00001414
#04015:0013
#04018:0013
#04012:00240000
#0401a:00240000
#04112:0000140000140000
#0411a:24
#04119:0000002400000000
#04118:00000024
#04212:1400001400001400
#04216:0000000024000014
#04217:0024000000000000
#04613:13
#0461a:13
#04617:0012
#04713:13
#0471a:13
#04717:0000001300000000
#04716:0000000000000013
#04719:00000000000000530000000000000000
#0471b:0053
#04714:00000000000000000000000000000053
#04812:530014
#04817:00140000
#0481a:0000000054000014
#04818:005400
#04819:000000000054000000000000
#0551b:0013000000000000
#05518:00000000005300000000000000000013
#05512:0024
#0551a:00000053000000000000002400000000
#05514:0000000000000024
#05519:00530000
#05517:0000005300000000
#0051a:14
#00517:0014
#00516:0000000000343434
#00612:0014
#0071a:1400000000000014
#00712:00131300
#0071b:0000001300000000
#00718:0000000000130000
#00715:00000000000000000000001300000000
#00710:41
#00812:1400001300000014
#0081b:00131300
#00815:0000000000130000
#00818:00000000000000000000001300000000
#0111b:0000131313000000
#01115:0000000000130000
#01118:00000000000000000000001300000000
#01112:0000000000000014
#01114:23
#01119:23
#0121a:1400000000000014
#01212:0000131313000000
#01218:0000000000130000
#01215:00000000000000000000001300000000
#01912:0000000000000014
#01918:0000000000000014
#01914:24
#0201a:14
#02014:14
#02012:0000000000000014
#0211a:14
#02115:0013000000000013
#02118:00000013000000000000000000000013
#0211b:0000000000000000000000000000001300000000000000000000000000000000
#02215:13000013000000000000000000000000
#02218:0013000000000000
#02212:0000000000000000000000000000001300000000000000000000000024000000
#0221a:0000000000000024
#02318:0014001400000000
#02314:00142454
#02313:00000000000000000054005400540054
#02312:0000000000540054
#02512:24000023000000000000130000001300
#02518:00000023000000000000130000001300
#0251b:00000013
#02515:00000013
#0251a:24
#02510:41
#0271b:00000023000000000000130000002300
#02715:00000023000000000000130000002300
#02712:24000013
#02718:00000013
#03315:00001300000000000000001300000000
#03318:00000013000000000000000000130000
#0331b:0000000000130000
#03312:2400000013000013
#0331a:24
#03310:41
#0341b:0000001300000000
#03414:0013
#03419:0000000000130000
#03412:00000013
#03417:0000000000000013
#03618:00000013000000000000000000000000
#03615:00000013000000000000000000000000
#03616:00000014
#0381a:1400001400000000
#03812:0014000000000014
#03816:00140000
#03916:0014000014000000
#03912:0000140000140024
#0391a:2400002400002400
#0431b:0013000000000000
#04517:0012
#0451f:11
#04512:24
#0451a:24
#04912:1400000000000000000000000000001300000000000000000000000000000000
#04918:0013000000000013
#04915:00000013000000000000000000000013
#05018:13000013000000000000000000000000
#05015:0013000000000000
#0501b:0000000000000000000000000000001300000000000000000000000000000000
#0501a:0000000000000024
#05012:0000000000000024
#05114:0014001400000000
#05118:00142454
#05119:00000000000000000054005400540054
#0511a:0000000000540054
#05415:000000000013000000000000
#05418:000000000013000000000000
#05412:24
#0541a:24
#0541f:21
#05718:00001300000000130000130000000000
#05715:00000013000013000000001300000000
#0571b:00130023
#05712:2413
#05815:0013000000000000
#05812:0000001300000014
#05818:00000013000000000000000013000000
#0581a:24
#0591a:00140014
#05916:0000001400140014
#05912:0014
#0601a:2400142400000000
#06012:2400142400240000
#06017:0000000000230000
#06014:00000000000000000000000000240000
#06019:00000000000000000000000000230000
#06612:1400140000140000
#0661a:1400001400000014
#06616:00001414
#06918:0013
#06915:0013
#0691a:00240000
#06912:00240000
#0701a:0000140000140000
#07012:24
#07013:0000002400000000
#07014:00000024
#07010:41
#0711a:1400001400001424
#07115:0024000000000000
#07116:0024
#06218:00001300000000000000001300000000
#06215:00000013000000000000000000130000
#06212:2400000000130000
#0621b:0000000013000013
#0621a:24
#06312:0000001300000000
#06319:0013
#06314:0000000000130000
#0631b:00000013
#06316:0000000000000013
#06515:00000013000000000000000000000000
#06518:00000013000000000000000000000000
#06516:00000014
#06712:1400001400000000
#0671a:0014000000000014
#06716:00140000
#06816:0014000014000000
#0681a:0000140000140024
#06812:2400002400002400
#07212:0014000014000014
#07219:00240000
#07218:0000000000240000
#07312:0000140000140000
#07317:24
#07316:0000002400000024
#0731a:00000024
#07412:0013000000000016
#07418:0000000000002616
#00115:13000000000000130013000000130013
#00118:0013130000001313
#00113:0000000000530000
#0011a:00000000005300000000000000000000
#01012:2424
#01016:00000024000000000000000000000000
#0101a:0000002400000000
#01414:0023
#0141a:24
#01416:00000024000000000000000000000000
#01412:0000002400000000
#01419:0023
#01512:24
#01516:00000024000000000000000000000000
#0151a:0000002400000000
#01510:41
#0351a:2400002400000024
#03512:2400002400000024
#03514:0024000000240000
#03518:00000024000000000000000024000000
#0241a:00240000
#02412:00240000
#02414:54
#00214:00000024
#0171a:24
#01716:00000024000000000000000000000000
#01712:0000002400000000
#03216:24
#03212:23000024
#0321a:00000024
#0521a:00240000
#05212:00240000
#05218:54
#05614:24
#05618:0024
#05610:41
#06412:2400002400000024
#0641a:2400002400000024
#06418:0024000000240000
#06414:00000024000000000000000024000000
#06116:24
#0611b:23
#06112:00000024
#0611a:00000024
#07512:00630000
#0751b:00630000
#0025b:00130000
#00358:0014
#00354:14
#00453:14
#00459:0014
#00452:00000014
#01853:00000014
#01859:00000014
#01852:0014
#01858:0014
#02552:1400000000000063
#0255a:14
#02558:0000000000000063
#0295a:0000000000000014
#02955:00000053000000000000000000000000
#03152:1400001400000000
#0315a:1400001400000000
#03552:0000001400000064
#0355a:0000001400000054
#0245a:00540000
#02452:00640000
#03352:1400000000000053
#0335a:14
#03358:00000063000000000000000000000000
#0375a:14
#03752:14
#04055:0023
#04052:00540000
#04058:0023
#0405a:00640000
#0415a:14
#04159:0000001400000000
#04158:00000014
#04257:0014000000000000
#04256:0000000014000054
#04852:000014
#0055a:64
#00557:0024
#0065a:14
#00652:0014
#0095a:64
#00956:0000002400000000
#01154:13
#01159:13
#01355:00000064000000000000140000000000
#01352:6400006400000000
#01654:0014
#0165a:0014
#02054:2400000000140000
#0205a:2400000000140000
#01952:0000000000000054
#01958:0000000000000054
#02158:00000053000000000000000000000000
#0215b:0000000000000000000000000000002300000000000000000000000000000000
#02255:00000063000000000000000000000000
#02252:0000000000000000000000000000002300000000000000000000000000000000
#02755:0000000000000063
#0275b:0000000000000063
#03252:63
#03256:64
#03658:00000023000000000000000000000000
#03655:00000023000000000000000000000000
#0385a:0000005400000000
#04356:0000000000000014
#0435b:0023000000000000
#0525a:00540000
#05252:00640000
#04955:00000063000000000000000000000000
#04952:0000000000000000000000000000002300000000000000000000000000000000
#05058:00000053000000000000000000000000
#0505b:0000000000000000000000000000002300000000000000000000000000000000
#05458:000000000023000000000000
#05455:000000000023000000000000
#05452:64
#0545a:64
#05654:54
#05658:0064
#05852:0000005300000014
#0585a:14
#06652:14
#0665a:14
#06958:0023
#06955:0023
#0695a:00640000
#06952:00540000
#06255:00000053000000000000000000000000
#0625b:0000000000000063
#06252:14
#0625a:14
#06555:00000023000000000000000000000000
#06558:00000023000000000000000000000000
#06752:0000006400000000
#0605a:1400001400000000
#06052:1400001400000000
#0645a:0000001400000054
#06452:0000001400000064
#07052:14
#07053:0000001400000000
#07054:00000014
#07155:0014000000000000
#07156:0014
#0715a:0000000000000014
#06156:54
#0615b:53
#07259:00140000
#07258:0000000000140000
#07357:14
#07356:0000001400000054
#07452:0023000000000066
#07458:0000000000000066
#0023b0:13230000
#002340:00000014
#003340:24
#0053a0:14
#005370:0054
#005360:0000000000343434
#0063a0:24
#0093a0:14000024
#009360:0000005400000000
#010340:00000013
#011340:23
#010391:00000013
#011391:23
#013321:1400003400000000
#013351:00000034000000000000240000000000
#014341:0013
#014321:00000023
#014390:0013
#0143b0:00000023
#0153a0:0000001400000000
#0163a0:0024
#016341:1424
#017321:0000001400000000
#018321:0024
#018380:1424
#019340:14000000000034000000003400000000
#019330:00000000000000340000000000000000
#019320:0000000034000034
#020340:5400003400240000
#020320:0034000000000000
#020330:00340000
#0193a1:14000000000034000000003400000000
#019391:00000000000000340000000000000000
#019381:0000000034000034
#0203a1:5400003400240000
#020381:0034000000000000
#020391:00340000
#021381:00000013000000000000000023000000
#0213b1:0000000000000000000000000000005300000000000000000000000000000000
#022351:00000013000000000000000023000000
#022321:0000000000000000000000000000005300000000000000000000000000000000
#0243a1:00140000
#024381:00000023
#024320:00140000
#024350:00000023
#025320:00000013000000000000000000000000
#025350:0000002300000000
#025381:00000013000000000000000000000000
#0253b1:0000002300000000
#025321:0000000000000013
#026351:00000023
#025380:0000000000000013
#0263b0:00000023
#0273b0:00000013000000000000000000000000
#027380:0000002300000000
#027351:00000013000000000000000000000000
#027321:0000002300000000
#0273b1:0000000000000013
#028381:00000023
#027350:0000000000000013
#028320:00000023
#029350:00000013000000000000000000000000
#029320:0000002300000000
#032320:13
#032360:0023
#032361:14
#0323a1:0024
#033381:00000013000000000000000000000000
#0333b1:0000002300000000
#033321:0000000000000013
#034361:00230000
#0353a1:0000000000000014
#036381:00000053000000000000000000000000
#0363a1:0024
#035320:0000000000000014
#036350:00000053000000000000000000000000
#036320:0024
#0383a0:0000001400000000
#038360:00000024
#040320:00140024
#040350:0053
#0403a1:00140024
#040381:0053
#042361:0000000000000014
#0433b1:0053000000000000
#043361:0000000000003424
#049351:00000013000000000000000023000000
#049321:0000000000000000000000000000005300000000000000000000000000000000
#050381:00000013000000000000000023000000
#0503b1:0000000000000000000000000000005300000000000000000000000000000000
#0523a1:00140000
#0533b1:0023
#052320:00140000
#053320:0023
#054320:1400000000000024
#054350:000000000053000000000000
#0543a1:1400000000000024
#054381:000000000053000000000000
#056341:14
#056321:0024
#056380:0014
#0573a0:24
#058320:0000001300000000
#058350:0000000000230000
#0613b0:13
#061370:0023
#061361:14
#061321:0024
#062351:00000013000000000000000000000000
#062321:0000002300000000
#0623b1:0000000000000013
#063371:00230000
#064321:0000000000000014
#065351:00000053000000000000000000000000
#065321:0024
#0643a0:0000000000000014
#065380:00000053000000000000000000000000
#0653a0:0024
#067320:0000001400000000
#067360:00000024
#0693a0:00140024
#069380:0053
#069321:00140024
#069351:0053
#073361:0000000000000014
#074321:0053000000003636
#075321:00230000
#074380:0000000000001636
#0753b0:00230000
#001980:00130000
#0019a0:00000000002300000000000000000000
#001950:00000000000000000013000000000000
#001930:0000000000230000
#023940:000000000000000000000000000000000000000000000000000000000000000000000000000000000000000000000000000000000000000000000000000000000000000000000000000000000000000000000000000000000000000000000000000000000000000000000000000000000000000000000000000000000000000000000000000000000000000000000000000000000000000000000000000000000000000000000000000000000000000000000000000000000000000000000000000000000000000000000000000000000000000000000000000000000000000000000000000000000000000000000000000000000000000000000000000000000000000000000000000000000000000000000000000000000000000000000000000000000000000000000000000000000000000000000000000000000000000000000000000000000000000000000000000000000000000000000000000000000000000000000000000000000000000000000000000000000000000000000000000000000000000000000000000000000000000000000000000000000000000000000000000000000000000000000000000000000000000000000000000000000000000000000000000000000000000000000000000000000000000000000000000000000000000000000000000000000000000000000000000000000000000000000000000000000000000000000000000000000000000000000000000000000000000000000000000000000000000000000000000000000000000000000000000000000000000000000000000000000000000000000000000000000000000000000000000000000000000000000000000000000000000000000000000000000000000000000000000000000000000000000000000000000000000000000000000000000000000000000000000000000000000000000000000000000000000000000000000000000000000000000000000000000000000000000000000000000000000000000000000000000000000000000000000000000000000000000000000000000000000000000000000000000000000000000000000000000000000000000000000000000000000000000000000000000000000000000000000000000000000000000000000000000000000000000000000000000000000000000000000000000000000000000000000000000000000000000000000000000000000000000000000000000000000000000000000000000000000000000000000000000000000000000000000000000000000000000000000000000000000000000000001400000000000000000000000000000000000000000000000000000000000000000000000000000000000000000000000000000000000000000000000000000000000000000000000000000000000000000000000000000000000000000000000000000000000000000000000000000000000000000000000000000000000000000000000000000000000000000000000000000000000000000000000000000000000000000000000000000000000000000000000000000000000000000000000000000000000000000000000000000000000000000000000000000000000000000000000000000000000000000000000000000000000000000000000000000000000000000000000000000000000000000000000000000000000000000000000000000000000000000000000000000000000000000000000000000000000000000000000000000000000000000000000000000000000000000000000000000000000000000000000000000000000000000000000000000000000000000000000000000000000000000000000000000000000000000000000000000000000000000000000000000000000000000000000000000000000000000000000000000000000000000000000000000000000000000000000000000000000000000000540000000000000000000000000000000000000000000000000000000000000000000000000000000000000000000000000000000000000000000000000000000000000000000000000000000000000000000000000000000000000000000000000000000000000000000000000000000000000000000000000000000000000000000000000000000000000000000000000000000000000000000000000000000000000000000000000000000000000000000000000000000000000000000000000000000000000000000000000000000000000000000000000000000000000000000000000000000000000000000000000000000000000000000000000000000000000000000000000000000000000000000000000000000000000000000000000000000000000000000000000000000000000000000000000000000000000000000000000000000000000000000000000000000000000000000000000000000000000000000000000000000000000000000000000000000000000000000000000000000000000000000000000000000000000000000000000000000000000000000000000000000000000000000000000000000000000000000000000000000000000000000000000000000000000000000000000000000000000000000000
#023920:0000000000540054
#024940:24
#047970:0000001300000000
#0479b0:0023
#047960:0000000000000013
#048920:23
#048970:00140000
#0489a0:0024
#051980:000000000000000000000000000000000000000000000000000000000000000000000000000000000000000000000000000000000000000000000000000000000000000000000000000000000000000000000000000000000000000000000000000000000000000000000000000000000000000000000000000000000000000000000000000000000000000000000000000000000000000000000000000000000000000000000000000000000000000000000000000000000000000000000000000000000000000000000000000000000000000000000000000000000000000000000000000000000000000000000000000000000000000000000000000000000000000000000000000000000000000000000000000000000000000000000000000000000000000000000000000000000000000000000000000000000000000000000000000000000000000000000000000000000000000000000000000000000000000000000000000000000000000000000000000000000000000000000000000000000000000000000000000000000000000000000000000000000000000000000000000000000000000000000000000000000000000000000000000000000000000000000000000000000000000000000000000000000000000000000000000000000000000000000000000000000000000000000000000000000000000000000000000000000000000000000000000000000000000000000000000000000000000000000000000000000000000000000000000000000000000000000000000000000000000000000000000000000000000000000000000000000000000000000000000000000000000000000000000000000000000000000000000000000000000000000000000000000000000000000000000000000000000000000000000000000000000000000000000000000000000000000000000000000000000000000000000000000000000000000000000000000000000000000000000000000000000000000000000000000000000000000000000000000000000000000000000000000000000000000000000000000000000000000000000000000000000000000000000000000000000000000000000000000000000000000000000000000000000000000000000000000000000000000000000000000000000000000000000000000000000000000000000000000000000000000000000000000000000000000000000000000000000000000000000000000000000000000000000000000000000000000000000000000000000000000000000000000000000000000000001400000000000000000000000000000000000000000000000000000000000000000000000000000000000000000000000000000000000000000000000000000000000000000000000000000000000000000000000000000000000000000000000000000000000000000000000000000000000000000000000000000000000000000000000000000000000000000000000000000000000000000000000000000000000000000000000000000000000000000000000000000000000000000000000000000000000000000000000000000000000000000000000000000000000000000000000000000000000000000000000000000000000000000000000000000000000000000000000000000000000000000000000000000000000000000000000000000000000000000000000000000000000000000000000000000000000000000000000000000000000000000000000000000000000000000000000000000000000000000000000000000000000000000000000000000000000000000000000000000000000000000000000000000000000000000000000000000000000000000000000000000000000000000000000000000000000000000000000000000000000000000000000000000000000000000000000000000000000000000000540000000000000000000000000000000000000000000000000000000000000000000000000000000000000000000000000000000000000000000000000000000000000000000000000000000000000000000000000000000000000000000000000000000000000000000000000000000000000000000000000000000000000000000000000000000000000000000000000000000000000000000000000000000000000000000000000000000000000000000000000000000000000000000000000000000000000000000000000000000000000000000000000000000000000000000000000000000000000000000000000000000000000000000000000000000000000000000000000000000000000000000000000000000000000000000000000000000000000000000000000000000000000000000000000000000000000000000000000000000000000000000000000000000000000000000000000000000000000000000000000000000000000000000000000000000000000000000000000000000000000000000000000000000000000000000000000000000000000000000000000000000000000000000000000000000000000000000000000000000000000000000000000000000000000000000000000000000000000000000000
#0519a0:0000000000540054
#052980:24
#0559b0:0013000000000000
#055970:0000002300000000
